Tags
Language
Tags

VA - James Bond Greatest Hits - 007/13 Original Themes (1985) {Japanese Reissue}

Posted By: popsakov
VA - James Bond Greatest Hits - 007/13 Original Themes (1985) {Japanese Reissue}

VA - James Bond Greatest Hits - 007/13 Original Themes (1985) {Japanese Reissue}
EAC Rip | FLAC (Img) + Cue + Log ~ 230 Mb | MP3 CBR320 ~ 94 Mb
Scans Included | RAR 5% Recovery
Soundtrack, Soul-Jazz, Pop, Easy Listening | Liberty / Toshiba-EMI Ltd. #CP32-5046

13 tracks of the Best of Bond from the James Bond movies! Includes classic detective spy music like'James Bond Theme' [from Dr. No] with the John Barry & His Orchestra, 'Goldfinger' by Shirley Bassey , 'Nobody Does It Better' [From The Spy Who Loved Me] by Carly Simon, 'For Your Eyes Only ' by Sheena Easton, 'We Have All the Time in the World' [From on Her Majesty's Secret …] by Louis Armstrong, 'Live and Let Die' by Paul McCartney & Wings, 'All Time High' [From Octopussy] by Rita Coolidge, Lulu, 'From Russia With Love' by Matt Monro, 'Thunderball' by Tom Jones and more surprises!

***************

VA - James Bond Greatest Hits - 007/13 Original Themes (1985) {Japanese Reissue}

VA - James Bond Greatest Hits - 007/13 Original Themes (1985) {Japanese Reissue}

Track List:

01. John Barry - The James Bond Theme [1:48]
02. Matt Monro - From Russia With Love [2:33]
03. Shirley Bassey - Goldfinger [2:48]
04. Tom Jones - Thunderball [3:01]
05. Nancy Sinatra - You Only Live Twice [2:45]
06. Louis Armstrong - We Have All The Time In The World [3:14]
07. Shirley Bassey - Diamonds Are Forever [2:42]
08. Paul McCartney & Wings - Live And Let Die [3:12]
09. Lulu - The Man With The Golden Gun [2:35]
10. Carly Simon - Nobody Does It Better [3:32]
11. Shirley Bassey - Moonraker [3:10]
12. Sheena Easton - For Your Eyes Only [3:06]
13. Rita Coolidge - All Time High [3:03]

Exact Audio Copy V1.0 beta 3 from 29. August 2011

Отчёт EAC об извлечении, выполненном 7. мая 2016, 19:19

007 / 13 Original Themes [CP32-5046]

Дисковод: ASUS DRW-2014S1 Adapter: 1 ID: 0

Режим чтения : Достоверность
Использование точного потока : Да
Отключение кэша аудио : Да
Использование указателей C2 : Нет

Коррекция смещения при чтении : 6
Способность читать области Lead-in и Lead-out : Нет
Заполнение пропущенных сэмплов тишиной : Да
Удаление блоков с тишиной в начале и конце : Нет
При вычислениях CRC использовались нулевые сэмплы : Да
Интерфейс : Встроенный Win32-интерфейс для Win NT/2000

Выходной формат : Пользовательский кодировщик
Выбранный битрейт : 128 kBit/s
Качество : Высокий
Добавление ID3-тега : Нет
Утилита сжатия : C:\Program Files (x86)\Exact Audio Copy\Flac\flac.exe
Дополнительные параметры : -V -8 -T "Date=%year%" -T "Genre=%genre%" %source%


TOC извлечённого CD

Трек | Старт | Длительность | Начальный сектор | Конечный сектор
––––––––––––––––––––––––––––––––––-
1 | 0:00.00 | 1:47.45 | 0 | 8069
2 | 1:47.45 | 2:33.37 | 8070 | 19581
3 | 4:21.07 | 2:48.25 | 19582 | 32206
4 | 7:09.32 | 3:01.03 | 32207 | 45784
5 | 10:10.35 | 2:45.17 | 45785 | 58176
6 | 12:55.52 | 3:14.28 | 58177 | 72754
7 | 16:10.05 | 2:41.45 | 72755 | 84874
8 | 18:51.50 | 3:12.32 | 84875 | 99306
9 | 22:04.07 | 2:35.20 | 99307 | 110951
10 | 24:39.27 | 3:32.35 | 110952 | 126886
11 | 28:11.62 | 3:10.28 | 126887 | 141164
12 | 31:22.15 | 3:06.00 | 141165 | 155114
13 | 34:28.15 | 3:02.60 | 155115 | 168824


Характеристики диапазона извлечения и сообщения об ошибках

Выбранный диапазон

Имя файла Z:\007\1985 13 Original Themes\007 - 13 Original Themes [CP32-5046].wav

Пиковый уровень 89.4 %
Скорость извлечения 7.6 X
Качество диапазона 100.0 %
CRC копии D1547399
Копирование… OK

Ошибок не произошло


AccurateRip: сводка

Трек 1 точность не определена (достоверность 4) [19745EC0], AccurateRip вернул [E89A1FD3] (AR v2)
Трек 2 точность не определена (достоверность 4) [87A448F7], AccurateRip вернул [BF0C0923] (AR v2)
Трек 3 точность не определена (достоверность 4) [B73F1493], AccurateRip вернул [27018C29] (AR v2)
Трек 4 точность не определена (достоверность 4) [18947C5D], AccurateRip вернул [0F251387] (AR v2)
Трек 5 точность не определена (достоверность 4) [B963C5F9], AccurateRip вернул [848FE80A] (AR v2)
Трек 6 точность не определена (достоверность 4) [111E7477], AccurateRip вернул [9DEDA61B] (AR v2)
Трек 7 точность не определена (достоверность 4) [CCB22D9A], AccurateRip вернул [149312B1] (AR v2)
Трек 8 точность не определена (достоверность 4) [6E032F06], AccurateRip вернул [2811E753] (AR v2)
Трек 9 точность не определена (достоверность 4) [3601230E], AccurateRip вернул [0EFE36AF] (AR v2)
Трек 10 точность не определена (достоверность 4) [7A639E33], AccurateRip вернул [148B1C72] (AR v2)
Трек 11 точность не определена (достоверность 4) [061F0BFC], AccurateRip вернул [42F96038] (AR v2)
Трек 12 точность не определена (достоверность 4) [FAC99A37], AccurateRip вернул [CFD557EB] (AR v2)
Трек 13 точность не определена (достоверность 4) [938C9DDE], AccurateRip вернул [E1EA0DF8] (AR v2)

Ни один трек не прошёл проверки на точность
В вашей базе может быть иной вариант штамповки диска

Конец отчёта

==== Контрольная сумма отчёта CEC305B646019DFB3078CDDD6A0A61BBCF1774A552E6C8A2D875AEF591FE0FEC ====

VA - James Bond Greatest Hits - 007/13 Original Themes (1985) {Japanese Reissue}

All thanks go to ikebana

>>> My Blog <<<

Download from icerbox.com: