Subcategories

VA - Lullaby for the Moon: Japanese Music for Koto and Shakuhachi (1998)

Posted By: tirexiss
VA - Lullaby for the Moon: Japanese Music for Koto and Shakuhachi (1998)

VA - Lullaby for the Moon: Japanese Music for Koto and Shakuhachi (1998)
EAC | FLAC (tracks+.cue, log) | Covers Included | 00:56:18 | 264 MB
Genre: Classical | Label: Blue Note | Catalog: 59271B

Lullaby for the Moon presents Japanese contemporary works for koto and shakuhachi based on traditional folksongs (1. Komoroiuta, 6. Sakura, and 7. Kojo), as well as some original ones, including a piece for 2 shakuhachis. The CD ends with one of the most known pieces of the Japanese classical repertoire: "Chidori" (known also as "Chidori no Kyoku"), written around 1750. A large group of excellent musicians were selected for this CD, including one of today's most known and best shakuhachi musicians: Hozan Yamamoto. This excellent CD presents a music of high meditative quality.

VA - Lullaby for the Moon: Japanese Music for Koto and Shakuhachi (1998)

Track List:

01. Utazumi Kunishige, Hozan Yamamoto · Komoriuta (7:51)
02. Tozan Tanno, Tozan Hara · Toge-Hachi-Ri (7:14)
03. Utazumi Kunishige, Hozan Yamamoto · Kuon No Hikari (6:56)
04. Tozan Hara, Soyo & Reiko Nakamura, Miyoshi Hoshida · Umi (5:43)
05. Keiko Matsuo · Muttsu (11:48)
06. Kozan Kitahara, Shizuo Aoki, Sumiko Goto · Sakura (5:38)
07. Kozan Kitahara, Shizuo Aoki, Sumiko Goto, Teiko Kikuchi · Kojo (6:39)
08. Shinzo Miyagi · Chidori (4:28)

1–3 composed by Inzan Tanaka, 4 composed by Ichizan Hoshida
5 composed by Osamu Shimizu, 6 composed by Sajura (arranged by Ensho Yamakawa)
7 composed by Ensho Yamakawa, 8 composed by Kengyo Yoshizawa

Exact Audio Copy V1.0 beta 3 from 29. August 2011

EAC extraction logfile from 24. November 2012, 16:31

Various Artists / Lullaby for the Moon

Used drive : ASUS DRW-1814BLT Adapter: 0 ID: 3

Read mode : Secure
Utilize accurate stream : Yes
Defeat audio cache : Yes
Make use of C2 pointers : No

Read offset correction : 6
Overread into Lead-In and Lead-Out : No
Fill up missing offset samples with silence : Yes
Delete leading and trailing silent blocks : No
Null samples used in CRC calculations : Yes
Used interface : Native Win32 interface for Win NT & 2000
Gap handling : Appended to previous track

Used output format : User Defined Encoder
Selected bitrate : 1024 kBit/s
Quality : High
Add ID3 tag : No
Command line compressor : C:\bin\flac.exe
Additional command line options : -8 -V -T "ARTIST=%artist%" -T "TITLE=%title%" -T "ALBUM=%albumtitle%" -T "DATE=%year%" -T "TRACKNUMBER=%tracknr%" -T "GENRE=%genre%" -T "PERFORMER=%albuminterpret%" -T "COMPOSER=%composer%" %haslyrics%–tag-from-file=LYRICS="%lyricsfile%"%haslyrics% -T "ALBUMARTIST=%albumartist%" -T "DISCNUMBER=%cdnumber%" -T "TOTALDISCS=%totalcds%" -T "TOTALTRACKS=%numtracks%" %source% -o %dest%


TOC of the extracted CD

Track | Start | Length | Start sector | End sector
––––––––––––––––––––––––––––-
1 | 0:00.00 | 7:50.65 | 0 | 35314
2 | 7:50.65 | 7:13.62 | 35315 | 67851
3 | 15:04.52 | 6:56.35 | 67852 | 99086
4 | 22:01.12 | 5:43.18 | 99087 | 124829
5 | 27:44.30 | 11:48.35 | 124830 | 177964
6 | 39:32.65 | 5:38.10 | 177965 | 203324
7 | 45:11.00 | 6:39.30 | 203325 | 233279
8 | 51:50.30 | 4:27.57 | 233280 | 253361


Track 1

Filename D:\temp\_eac\01. Inzan Tanaka - Komoriuta (Lullaby).wav

Pre-gap length 0:00:02.00

Peak level 58.1 %
Extraction speed 4.9 X
Track quality 100.0 %
Test CRC 3C167AFD
Copy CRC 3C167AFD
Accurately ripped (confidence 8) [1BD78854] (AR v1)
Copy OK

Track 2

Filename D:\temp\_eac\02. Inzan Tanaka - Toge Hachi-Ri (Eight Miles Through a Mountain Pass).wav

Pre-gap length 0:00:04.04

Peak level 39.9 %
Extraction speed 5.8 X
Track quality 100.0 %
Test CRC D0370EA6
Copy CRC D0370EA6
Accurately ripped (confidence 6) [ECFC65E9] (AR v1)
Copy OK

Track 3

Filename D:\temp\_eac\03. Inzan Tanaka - Kuon No Hikari (Eternal Lights).wav

Pre-gap length 0:00:04.82

Peak level 44.7 %
Extraction speed 6.5 X
Track quality 100.0 %
Test CRC D08E804E
Copy CRC D08E804E
Accurately ripped (confidence 6) [97550C7B] (AR v1)
Copy OK

Track 4

Filename D:\temp\_eac\04. Ichizan Hoshida - Umi (Sea Fantasy).wav

Pre-gap length 0:00:04.62

Peak level 42.0 %
Extraction speed 6.8 X
Track quality 100.0 %
Test CRC E475C241
Copy CRC E475C241
Accurately ripped (confidence 6) [E9ADC17A] (AR v1)
Copy OK

Track 5

Filename D:\temp\_eac\05. Osamu Shimizu - Muttsu (Six Fragments for Koto).wav

Pre-gap length 0:00:05.06

Peak level 56.3 %
Extraction speed 6.0 X
Track quality 99.9 %
Test CRC C604C5CF
Copy CRC C604C5CF
Accurately ripped (confidence 5) [C2F55856] (AR v1)
Copy OK

Track 6

Filename D:\temp\_eac\06. Sajura - Sakura (Cherry Blossoms).wav

Pre-gap length 0:00:04.24

Peak level 28.8 %
Extraction speed 6.5 X
Track quality 100.0 %
Test CRC EE132ECD
Copy CRC EE132ECD
Accurately ripped (confidence 5) [4A7BE2C5] (AR v1)
Copy OK

Track 7

Filename D:\temp\_eac\07. Ensho Yamakawa - Kojo (Moonlight on a Ruined Castle).wav

Pre-gap length 0:00:04.70

Peak level 37.8 %
Extraction speed 6.4 X
Track quality 99.9 %
Test CRC DFB5DD16
Copy CRC DFB5DD16
Accurately ripped (confidence 5) [651D7665] (AR v1)
Copy OK

Track 8

Filename D:\temp\_eac\08. Kengyo Yoshizawa - Chidori (The Ploughman's Song).wav

Pre-gap length 0:00:04.46

Peak level 59.8 %
Extraction speed 6.8 X
Track quality 100.0 %
Test CRC 6C3DC626
Copy CRC 6C3DC626
Accurately ripped (confidence 5) [139DB087] (AR v1)
Copy OK


All tracks accurately ripped

No errors occurred

End of status report

–– CUETools DB Plugin V2.1.3

[CTDB TOCID: _2WZhnzak4VOjrgyXYrhQh5o24k-] found, Submit result: _2WZhnzak4VOjrgyXYrhQh5o24k- has been confirmed
[a7e3e880] (5/5) Accurately ripped


==== Log checksum 3B70F0D2350A56ADB5B48DEB0B4C1F53BDA5A83F02025C1FD0F9DEF37E38DB31 ====

[CUETools log; Date: 20.02.2017 13:57:48; Version: 2.1.5]
[CTDB TOCID: _2WZhnzak4VOjrgyXYrhQh5o24k-] found.
Track | CTDB Status
1 | (19/20) Accurately ripped
2 | (20/20) Accurately ripped
3 | (20/20) Accurately ripped
4 | (20/20) Accurately ripped
5 | (20/20) Accurately ripped
6 | (20/20) Accurately ripped
7 | (20/20) Accurately ripped
8 | (19/20) Accurately ripped
[AccurateRip ID: 00123c08-00790958-5e0d3208] found.
Track [ CRC | V2 ] Status
01 [1bd78854|0bd187a7] (09+08/23) Accurately ripped
02 [ecfc65e9|49f93a3f] (07+08/21) Accurately ripped
03 [97550c7b|058cce07] (07+08/21) Accurately ripped
04 [e9adc17a|653cec30] (07+08/21) Accurately ripped
05 [c2f55856|8956818b] (06+08/20) Accurately ripped
06 [4a7be2c5|e5aa21b3] (06+08/20) Accurately ripped
07 [651d7665|d423f243] (06+08/20) Accurately ripped
08 [139db087|1c93ae62] (06+09/19) Accurately ripped
Offsetted by -664:
01 [e1258ccc] (00/23) No match (V2 was not tested)
02 [0b63b4e9] (00/21) No match (V2 was not tested)
03 [626628a3] (00/21) No match (V2 was not tested)
04 [40f73902] (00/21) No match (V2 was not tested)
05 [26272a96] (00/20) No match (V2 was not tested)
06 [32704b35] (00/20) No match (V2 was not tested)
07 [db2eee15] (00/20) No match (V2 was not tested)
08 [059bb28f] (00/19) No match (V2 was not tested)
Offsetted by -287:
01 [af94a09f] (00/23) No match (V2 was not tested)
02 [5f23a749] (00/21) No match (V2 was not tested)
03 [4326da94] (00/21) No match (V2 was not tested)
04 [571e16af] (00/21) No match (V2 was not tested)
05 [4e9aafbe] (00/20) No match (V2 was not tested)
06 [62ca270b] (00/20) No match (V2 was not tested)
07 [40a12833] (00/20) No match (V2 was not tested)
08 [869f244c] (00/19) No match (V2 was not tested)
Offsetted by 330:
01 [83ced4c2] (02/23) Accurately ripped
02 [6d4c23a9] (02/21) Accurately ripped
03 [f018e1f5] (02/21) Accurately ripped
04 [cc2d7c0c] (02/21) Accurately ripped
05 [aca5d666] (02/20) Accurately ripped
06 [54e45881] (02/20) Accurately ripped
07 [534dd771] (02/20) Accurately ripped
08 [e7afa4b9] (00/19) No match (V2 was not tested)
Offsetted by 943:
01 [ed45a639] (00/23) No match (V2 was not tested)
02 [9a7b6a89] (00/21) No match (V2 was not tested)
03 [19a3b072] (00/21) No match (V2 was not tested)
04 [5d85ce15] (00/21) No match (V2 was not tested)
05 [4143cb6e] (00/20) No match (V2 was not tested)
06 [43c3dddf] (00/20) No match (V2 was not tested)
07 [b86cc077] (00/20) No match (V2 was not tested)
08 [e2e20f92] (00/19) No match (V2 was not tested)

Track Peak [ CRC32 ] [W/O NULL] [ LOG ]
– 59,8 [B65EB459] [F013BFA0]
01 58,1 [3C167AFD] [C607E806] CRC32
02 39,9 [D0370EA6] [6FD79CAA] CRC32
03 44,7 [D08E804E] [F00D875C] CRC32
04 42,0 [E475C241] [0637B5F4] CRC32
05 56,3 [C604C5CF] [CF2B887D] CRC32
06 28,7 [EE132ECD] [17A0D63F] CRC32
07 37,8 [DFB5DD16] [63E98630] CRC32
08 59,8 [6C3DC626] [71C03453] CRC32

Thanks to the Original ripper (unknown)!

Download: