Subcategories

VA - Paul Oakenfold - Mount Everest: The Base Camp Mix (2018)

Posted By: popsakov
VA - Paul Oakenfold - Mount Everest: The Base Camp Mix (2018)

VA - Paul Oakenfold - Mount Everest: The Base Camp Mix (2018)
2CD | EAC Rip | FLAC (Img) + Cue + Log ~ 1,09 Gb | MP3 CBR320 ~ 388 Mb
Scans Included (JPG, 300 dpi) | RAR 5% Recovery
Trance, Progressive House, Deep House, Ambient, Downtempo | New State Music #NEW9209CD

For over three decades Paul Oakenfold has shaped the dance & electronic music genre and remains one of the leading forces in the wider global music scene. His works have taken him from the DJ booth of the worlds' hottest nightspots and festivals to producing soundtracks for Hollywood blockbuster movies. His diversity has earned him two Grammy nominations. He's produced & remixed for the likes of U2, Madonna and The Happy Mondays. He's remixed Michael Jackson, The Rolling Stones and Justin Timberlake plus released over 20 DJ mix compilations. Paul has also been responsible for creating film scores including The Bourne Identity, Matrix Reloaded, Shrek 2, Swordfish and Collateral. Paul Oakenfold is the sovereign of DJ culture and its most recognizable icon. Not one to rest on his laurels, Paul has taken the Guinness World Record for Highest DJ Gig when he played at Base Camp on Mount Everest in Spring 2017! The whole thing was filmed and the resulting movie is due to be premiered in 2018.
VA - Paul Oakenfold - Mount Everest: The Base Camp Mix (2018)


***************

VA - Paul Oakenfold - Mount Everest: The Base Camp Mix (2018)

Track List CD1:

01. Astronaut Ape Ft. Sunselity - Sakura [01:40]
02. Paul Oakenfold - Deep Space [06:39]
03. Paul Oakenfold - Broken [06:40]
04. Nex Tone - Reflections [05:10]
05. Kidnap Kid Ft. Leo Stannard - Moments [04:10]
06. Butch & C.Vogt - Bliss [04:51]
07. Hibernate Ft. Victoria Gydov - Lux Tua [06:24]
08. Monkey Safari - Boris (Guy Mantzur Remix) [03:04]
09. Planet Perfecto Knights - Resurection [03:11]
10. Paul Thomas & White-Akre - Goliath [04:50]
11. Black Box - Everybody Everybody (Vs BlackBox Remix) [04:34]
12. Fairchild - Remnants [04:47]
13. Placebo - Running Up That Hill [03:46]
14. Grum & Kevin McKay - Shooting Star [06:15]
15. Sébastien Léger - Oracle [06:30]
16. Fritz Kalkbrenner - Changing Face (Deetron Remix) [05:04]

Exact Audio Copy V1.1 from 23. June 2015

EAC extraction logfile from 6. April 2018, 17:36

Paul Oakenfold / Mount Everest (CD01)

Used drive : TSSTcorpCDDVDW SH-224DB Adapter: 1 ID: 0

Read mode : Secure
Utilize accurate stream : Yes
Defeat audio cache : Yes
Make use of C2 pointers : No

Read offset correction : 6
Overread into Lead-In and Lead-Out : No
Fill up missing offset samples with silence : Yes
Delete leading and trailing silent blocks : No
Null samples used in CRC calculations : Yes
Used interface : Native Win32 interface for Win NT & 2000

Used output format : User Defined Encoder
Selected bitrate : 1024 kBit/s
Quality : High
Add ID3 tag : No
Command line compressor : C:\Program Files (x86)\Exact Audio Copy\win64\flac.exe
Additional command line options : -8 -V -T "ARTIST=%artist%" -T "TITLE=%title%" -T "ALBUM=%albumtitle%" -T "DATE=%year%" -T "TRACKNUMBER=%tracknr%" -T "GENRE=%genre%" -T "COMMENT=%comment%" %source% -o %dest%


TOC of the extracted CD

Track | Start | Length | Start sector | End sector
––––––––––––––––––––––––––––-
1 | 0:00.00 | 1:40.02 | 0 | 7501
2 | 1:40.02 | 6:39.27 | 7502 | 37453
3 | 8:19.29 | 6:39.46 | 37454 | 67424
4 | 14:59.00 | 5:09.59 | 67425 | 90658
5 | 20:08.59 | 4:09.52 | 90659 | 109385
6 | 24:18.36 | 4:50.47 | 109386 | 131182
7 | 29:09.08 | 6:24.27 | 131183 | 160009
8 | 35:33.35 | 3:04.22 | 160010 | 173831
9 | 38:37.57 | 3:10.70 | 173832 | 188151
10 | 41:48.52 | 4:49.44 | 188152 | 209870
11 | 46:38.21 | 4:34.36 | 209871 | 230456
12 | 51:12.57 | 4:46.40 | 230457 | 251946
13 | 55:59.22 | 3:45.61 | 251947 | 268882
14 | 59:45.08 | 6:14.48 | 268883 | 296980
15 | 65:59.56 | 6:30.18 | 296981 | 326248
16 | 72:29.74 | 5:04.30 | 326249 | 349078


Range status and errors

Selected range

Filename D:\Sket4er\Paul Oakenfold – Mount Everest (The Base Camp Mix) 2018\CD01\Paul Oakenfold - Mount Everest (CD01).wav

Peak level 98.8 %
Extraction speed 3.4 X
Range quality 100.0 %
Test CRC BA8CA82B
Copy CRC BA8CA82B
Copy OK

No errors occurred


AccurateRip summary

Track 1 cannot be verified as accurate (confidence 2) [41FD6D70], AccurateRip returned [307BBD35] (AR v2)
Track 2 cannot be verified as accurate (confidence 2) [61DB1025], AccurateRip returned [A6779D56] (AR v2)
Track 3 cannot be verified as accurate (confidence 2) [898BF23C], AccurateRip returned [11D3F35B] (AR v2)
Track 4 cannot be verified as accurate (confidence 2) [BCC1ADCD], AccurateRip returned [8479C0A0] (AR v2)
Track 5 cannot be verified as accurate (confidence 2) [7BB4300A], AccurateRip returned [9312F50B] (AR v2)
Track 6 cannot be verified as accurate (confidence 2) [68148F08], AccurateRip returned [451A92C5] (AR v2)
Track 7 cannot be verified as accurate (confidence 2) [E7EFB8E8], AccurateRip returned [9EAD6150] (AR v2)
Track 8 cannot be verified as accurate (confidence 2) [10D93A8C], AccurateRip returned [7E0F6DDF] (AR v2)
Track 9 cannot be verified as accurate (confidence 2) [AAFF8C40], AccurateRip returned [F2E191F1] (AR v2)
Track 10 cannot be verified as accurate (confidence 2) [5683B4C1], AccurateRip returned [510801F6] (AR v2)
Track 11 cannot be verified as accurate (confidence 2) [EA846D81], AccurateRip returned [03D28FFF] (AR v2)
Track 12 cannot be verified as accurate (confidence 2) [E882F465], AccurateRip returned [5FCF54CA] (AR v2)
Track 13 cannot be verified as accurate (confidence 2) [5ECD7246], AccurateRip returned [8DF37124] (AR v2)
Track 14 cannot be verified as accurate (confidence 2) [C073F367], AccurateRip returned [460050A6] (AR v2)
Track 15 cannot be verified as accurate (confidence 2) [17D8132E], AccurateRip returned [E2F30EDE] (AR v2)
Track 16 cannot be verified as accurate (confidence 2) [ECC01B80], AccurateRip returned [0A34D7DE] (AR v2)

No tracks could be verified as accurate
You may have a different pressing from the one(s) in the database

End of status report

–– CUETools DB Plugin V2.1.6

[CTDB TOCID: zQS8c49KrXYvGRPQOLY7az9K3zU-] found
Submit result: already submitted
Track | CTDB Status
1 | (3/3) Accurately ripped
2 | (3/3) Accurately ripped
3 | (3/3) Accurately ripped
4 | (3/3) Accurately ripped
5 | (3/3) Accurately ripped
6 | (3/3) Accurately ripped
7 | (3/3) Accurately ripped
8 | (3/3) Accurately ripped
9 | (3/3) Accurately ripped
10 | (3/3) Accurately ripped
11 | (3/3) Accurately ripped
12 | (3/3) Accurately ripped
13 | (3/3) Accurately ripped
14 | (3/3) Accurately ripped
15 | (3/3) Accurately ripped
16 | (3/3) Accurately ripped


==== Log checksum 5506DCD1DBDF7B68D3B42A16A2C6F5AEA57024D21EBDFD7206D9FADAF2C201D2 ====

VA - Paul Oakenfold - Mount Everest: The Base Camp Mix (2018)

Track List CD2:

01. Vangelis - Rachel's Song [04:23]
02. Orkidea - Unity (Solarstone Pure Mix) [07:52]
03. Paul Oakenfold - Deep Space (Petar Dundov Remix) [04:17]
04. Timo Garcia & Manu Delago Ft. Amber Jolene - The Hang Track [04:32]
05. Paul Oakenfold - Broken (Tilt Perfecto Remix) [03:47]
06. The Temper Trap - Sweet Disposition (Axwell & Dirty South Remix) [04:52]
07. Unknown Associates - Free Your Mind (Pantheon & Horowitz Remix) [04:36]
08. Oakenfold - Southern Sun (Matt Darey Remix) [04:47]
09. Corderoy - Simple Story [03:49]
10. Kaz James - rizona [04:57]
11. Khen - Land Of Goshen (Patrice Baumel Remix) [04:49]
12. Kid Crème & Jolyon Petch Ft. Sian Evans - Boy In The Picture [01:15]
13. Substate - Panama (Mac & Monday Remix) [03:58]
14. Salt Tank - Eugina (Reactivation Mix) [06:34]
15. Humate - Love Stimulation (Paul Van Dyk Love Mix) [04:17]
16. Jamez Presents Tatoine - Music [05:31]
17. Jam & Spoon - Odyssey To Anyoona [05:38]

Exact Audio Copy V1.1 from 23. June 2015

EAC extraction logfile from 5. April 2018, 20:46

Paul Oakenfold / Mount Everest (CD02)

Used drive : TSSTcorpCDDVDW SH-224DB Adapter: 1 ID: 0

Read mode : Secure
Utilize accurate stream : Yes
Defeat audio cache : Yes
Make use of C2 pointers : No

Read offset correction : 6
Overread into Lead-In and Lead-Out : No
Fill up missing offset samples with silence : Yes
Delete leading and trailing silent blocks : No
Null samples used in CRC calculations : Yes
Used interface : Native Win32 interface for Win NT & 2000

Used output format : User Defined Encoder
Selected bitrate : 1024 kBit/s
Quality : High
Add ID3 tag : No
Command line compressor : C:\Program Files (x86)\Exact Audio Copy\win64\flac.exe
Additional command line options : -8 -V -T "ARTIST=%artist%" -T "TITLE=%title%" -T "ALBUM=%albumtitle%" -T "DATE=%year%" -T "TRACKNUMBER=%tracknr%" -T "GENRE=%genre%" -T "COMMENT=%comment%" %source% -o %dest%


TOC of the extracted CD

Track | Start | Length | Start sector | End sector
––––––––––––––––––––––––––––-
1 | 0:00.00 | 4:23.17 | 0 | 19741
2 | 4:23.17 | 7:52.33 | 19742 | 55174
3 | 12:15.50 | 4:16.72 | 55175 | 74446
4 | 16:32.47 | 4:32.06 | 74447 | 94852
5 | 21:04.53 | 3:46.54 | 94853 | 111856
6 | 24:51.32 | 4:52.24 | 111857 | 133780
7 | 29:43.56 | 4:36.23 | 133781 | 154503
8 | 34:20.04 | 4:47.22 | 154504 | 176050
9 | 39:07.26 | 3:48.40 | 176051 | 193190
10 | 42:55.66 | 4:57.10 | 193191 | 215475
11 | 47:53.01 | 4:48.39 | 215476 | 237114
12 | 52:41.40 | 1:15.33 | 237115 | 242772
13 | 53:56.73 | 3:58.18 | 242773 | 260640
14 | 57:55.16 | 6:34.30 | 260641 | 290220
15 | 64:29.46 | 4:16.55 | 290221 | 309475
16 | 68:46.26 | 5:31.14 | 309476 | 334314
17 | 74:17.40 | 5:38.33 | 334315 | 359697


Range status and errors

Selected range

Filename F:\Sket4er\Paul Oakenfold – Mount Everest (The Base Camp Mix) 2018\CD02\Paul Oakenfold - Mount Everest (CD02).wav

Peak level 98.8 %
Extraction speed 3.5 X
Range quality 100.0 %
Test CRC 7922BEA9
Copy CRC 7922BEA9
Copy OK

No errors occurred


AccurateRip summary

Track 1 cannot be verified as accurate (confidence 1) [2A0A2F54], AccurateRip returned [935743E1] (AR v2)
Track 2 cannot be verified as accurate (confidence 1) [E353054D], AccurateRip returned [BCD773EF] (AR v2)
Track 3 cannot be verified as accurate (confidence 1) [3167A612], AccurateRip returned [B00CACA9] (AR v2)
Track 4 cannot be verified as accurate (confidence 1) [AFC87E62], AccurateRip returned [C88CA933] (AR v2)
Track 5 cannot be verified as accurate (confidence 1) [8E8119EA], AccurateRip returned [2CEC160E] (AR v2)
Track 6 cannot be verified as accurate (confidence 1) [09514F52], AccurateRip returned [F955E0C6] (AR v2)
Track 7 cannot be verified as accurate (confidence 1) [96CFF32C], AccurateRip returned [90C6641C] (AR v2)
Track 8 cannot be verified as accurate (confidence 1) [1BAB4358], AccurateRip returned [79CC9251] (AR v2)
Track 9 cannot be verified as accurate (confidence 1) [90000476], AccurateRip returned [6FF909C1] (AR v2)
Track 10 cannot be verified as accurate (confidence 1) [3C5F9CBB], AccurateRip returned [8DE44A2D] (AR v2)
Track 11 cannot be verified as accurate (confidence 1) [51BF4020], AccurateRip returned [950CBAD9] (AR v2)
Track 12 cannot be verified as accurate (confidence 1) [0B84263E], AccurateRip returned [E8C01E3F] (AR v2)
Track 13 cannot be verified as accurate (confidence 1) [F452A5B5], AccurateRip returned [46766851] (AR v2)
Track 14 cannot be verified as accurate (confidence 1) [A0A5960F], AccurateRip returned [7AAE2CF1] (AR v2)
Track 15 cannot be verified as accurate (confidence 1) [212283DD], AccurateRip returned [BE66631A] (AR v2)
Track 16 cannot be verified as accurate (confidence 1) [70423B8F], AccurateRip returned [E506D846] (AR v2)
Track 17 cannot be verified as accurate (confidence 1) [539D268B], AccurateRip returned [C7249558] (AR v2)

No tracks could be verified as accurate
You may have a different pressing from the one(s) in the database

End of status report

–– CUETools DB Plugin V2.1.6

[CTDB TOCID: cFdIENpM9NC0NAjQ6goQmL5WlGY-] found
Submit result: cFdIENpM9NC0NAjQ6goQmL5WlGY- has been confirmed
Track | CTDB Status
1 | (1/1) Accurately ripped
2 | (1/1) Accurately ripped
3 | (1/1) Accurately ripped
4 | (1/1) Accurately ripped
5 | (1/1) Accurately ripped
6 | (1/1) Accurately ripped
7 | (1/1) Accurately ripped
8 | (1/1) Accurately ripped
9 | (1/1) Accurately ripped
10 | (1/1) Accurately ripped
11 | (1/1) Accurately ripped
12 | (1/1) Accurately ripped
13 | (1/1) Accurately ripped
14 | (1/1) Accurately ripped
15 | (1/1) Accurately ripped
16 | (1/1) Accurately ripped
17 | (1/1) Accurately ripped


==== Log checksum F91415429D1973E0C71A6278553494F152FE7D5991CFE3547A021A98DFB0FA5B ====

VA - Paul Oakenfold - Mount Everest: The Base Camp Mix (2018)

All thanks go to Sket4er

>>> My Blog <<<

Download from icerbox.com: