Tags
Language
Tags

VA - Pulp Fiction: Music From The Motion Picture (1994)

Posted By: popsakov
VA - Pulp Fiction: Music From The Motion Picture (1994)

VA - Pulp Fiction: Music From The Motion Picture (1994)
EAC Rip | FLAC (Img) + Cue + Log ~ 271 Mb | MP3 CBR320 ~ 136 Mb
Full Scans | RAR 5% Recovery
Surf Rock / Rock & Roll / Pop / Soul / Funk / Country / Dialogue / Soundtrack
MCA Records #MCD 11103

The soundtrack to Quentin Tarantino's darkly funny crime classic Pulp Fiction manages to re-create the film's wildly careening sense of style, violence, and humor by concentrating on the surf music that comprises the bulk of the movie's incidental music and adding a few sexy oldies integral to the film's story ("Let's Stay Together," "Son of a Preacher Man," "You Never Can Tell"). Of course, the inclusion of dialogue and Urge Overkill's seductive cover of Neil Diamond's "Girl, You'll Be a Woman Soon" doesn't hurt either.

***************

VA - Pulp Fiction: Music From The Motion Picture (1994)

Track List:

01. Dick Dale & His Del-Tones - Misirlou [2:30]
02. Samuel L. Jackson And John Travolta - Royale With Cheese [1:45]
03. Kool & The Gang - Jungle Boogie [3:07]
04. Al Green - Let's Stay Together [3:17]
05. The Tornadoes - Bustin' Surfboards [2:29]
06. Ricky Nelson - Lonesome Town [2:15]
07. Dusty Springfield - Son Of A Preacher Man [2:28]
08. The Centurians - Bullwinkle Part II [2:31]
09. Chuck Berry - You Never Can Tell [3:14]
10. Urge Overkill - Girl, You'll Be A Woman Soon [3:10]
11. Maria McKee - If Love Is A Red Dress (Hang Me In Rags) [4:57]
12. The Revels - Comanche [2:12]
13. The Statler Brothers - Flowers On The Wall [2:25]
14. Samuel L. Jackson And John Travolta - Personality Goes A Long Way [1:03]
15. The Lively Ones - Surf Rider [3:20]
16. Samuel L. Jackson - Ezekiel 25:17 [0:52]

EAC extraction logfile from 9. August 2005, 16:04 for CD
Various / Pulp Fiction

Used drive : _NEC DVD_RW ND-1300A Adapter: 1 ID: 1
Read mode : Secure with NO C2, accurate stream, disable cache
Read offset correction : 48
Overread into Lead-In and Lead-Out : No

Used output format : Internal WAV Routines
44.100 Hz; 16 Bit; Stereo

Other options :
Fill up missing offset samples with silence : Yes
Delete leading and trailing silent blocks : No
Installed external ASPI interface


Range status and errors
Selected range
Filename D:\__$$__WAVE__$$__\Pulp Fiction.wav

Peak level 97.7 %
Range quality 99.9 %
CRC F1AB24EB
Copy OK

No errors occured

End of status report

foobar2000 1.3.16 / Dynamic Range Meter 1.1.1
log date: 2019-03-02 22:10:14

––––––––––––––––––––––––––––––––––––––––
Analyzed: Al Green / Pulp Fiction (1)
Chuck Berry / Pulp Fiction (2)
––––––––––––––––––––––––––––––––––––––––

DR Peak RMS Duration Track
––––––––––––––––––––––––––––––––––––––––
DR13 -0.22 dB -15.65 dB 3:17 04-Let's Stay Together
DR12 -0.20 dB -15.85 dB 3:14 09-You Never Can Tell
––––––––––––––––––––––––––––––––––––––––

Number of tracks: 2
Official DR value: DR12

Samplerate: 44100 Hz
Channels: 2
Bits per sample: 16
Bitrate: 750 kbps
Codec: FLAC
================================================================================

––––––––––––––––––––––––––––––––––––––––
Analyzed: Dick Dale & His Del-Tones / Pulp Fiction (1)
Dusty Springfield / Pulp Fiction (2)
––––––––––––––––––––––––––––––––––––––––

DR Peak RMS Duration Track
––––––––––––––––––––––––––––––––––––––––
DR11 -0.20 dB -13.66 dB 2:30 01-Misirlou
DR12 -0.44 dB -16.38 dB 2:28 07-Son Of A Preacher Man
––––––––––––––––––––––––––––––––––––––––

Number of tracks: 2
Official DR value: DR11

Samplerate: 44100 Hz
Channels: 2
Bits per sample: 16
Bitrate: 750 kbps
Codec: FLAC
================================================================================

––––––––––––––––––––––––––––––––––––––––
Analyzed: Kool & The Gang / Pulp Fiction (1)
Maria McKee / Pulp Fiction (2)
––––––––––––––––––––––––––––––––––––––––

DR Peak RMS Duration Track
––––––––––––––––––––––––––––––––––––––––
DR12 -0.20 dB -13.87 dB 3:07 03-Jungle Boogie
DR6 -4.02 dB -14.61 dB 4:57 11-If Love Is A Red Dress (Hang Me In Rags)
––––––––––––––––––––––––––––––––––––––––

Number of tracks: 2
Official DR value: DR9

Samplerate: 44100 Hz
Channels: 2
Bits per sample: 16
Bitrate: 750 kbps
Codec: FLAC
================================================================================

––––––––––––––––––––––––––––––––––––––––
Statistics for: 06-Lonesome Town
Number of samples: 5959380
Duration: 2:15
––––––––––––––––––––––––––––––––––––––––

Left Right

Peak Value: -1.87 dB –- -1.87 dB
Avg RMS: -16.09 dB –- -16.09 dB
DR channel: 11.63 dB –- 11.63 dB
––––––––––––––––––––––––––––––––––––––––

Official DR Value: DR12

Samplerate: 44100 Hz
Channels: 2
Bits per sample: 16
Bitrate: 750 kbps
Codec: FLAC
================================================================================
––––––––––––––––––––––––––––––––––––––––
Analyzed: Samuel L. Jackson And John Travolta / Pulp Fiction (1-2)
Samuel L. Jackson / Pulp Fiction (3)
––––––––––––––––––––––––––––––––––––––––

DR Peak RMS Duration Track
––––––––––––––––––––––––––––––––––––––––
DR14 -5.28 dB -21.11 dB 1:45 02-Royale With Cheese
DR16 -6.42 dB -26.82 dB 1:03 14-Personality Goes A Long Way
DR12 -0.46 dB -19.28 dB 0:52 16-Ezekiel 25:17
––––––––––––––––––––––––––––––––––––––––

Number of tracks: 3
Official DR value: DR14

Samplerate: 44100 Hz
Channels: 2
Bits per sample: 16
Bitrate: 750 kbps
Codec: FLAC
================================================================================

––––––––––––––––––––––––––––––––––––––––
Analyzed: The Centurians / Pulp Fiction (1)
The Lively Ones / Pulp Fiction (2)
––––––––––––––––––––––––––––––––––––––––

DR Peak RMS Duration Track
––––––––––––––––––––––––––––––––––––––––
DR11 -0.20 dB -13.03 dB 2:31 08-Bullwinkle Part II
DR12 -0.20 dB -15.23 dB 3:20 15-Surf Rider
––––––––––––––––––––––––––––––––––––––––

Number of tracks: 2
Official DR value: DR11

Samplerate: 44100 Hz
Channels: 2
Bits per sample: 16
Bitrate: 750 kbps
Codec: FLAC
================================================================================

––––––––––––––––––––––––––––––––––––––––
Analyzed: The Revels / Pulp Fiction (1)
The Statler Brothers / Pulp Fiction (2)
––––––––––––––––––––––––––––––––––––––––

[CUETools log; Date: 02.03.2019 22:10:13; Version: 2.1.6]
Pregap length 00:00:32.
[CTDB TOCID: lUyeEW.pzLBBOUdvoDQaWYLxeQQ-] found.
Track | CTDB Status
1 | (2202/2264) Accurately ripped
2 | (2204/2264) Accurately ripped
3 | (2200/2264) Accurately ripped
4 | (2195/2264) Accurately ripped, or (5/2264) differs in 11 samples @01:20:68
5 | (2200/2264) Accurately ripped
6 | (2197/2264) Accurately ripped
7 | (2193/2264) Accurately ripped, or (5/2264) differs in 8 samples @00:06:57
8 | (2197/2264) Accurately ripped
9 | (2198/2264) Accurately ripped
10 | (2187/2264) Accurately ripped, or (5/2264) differs in 10 samples @01:19:08,01:35:04,01:35:17
11 | (2190/2264) Accurately ripped
12 | (2197/2264) Accurately ripped
13 | (2192/2264) Accurately ripped
14 | (2200/2264) Accurately ripped
15 | (2184/2264) Accurately ripped, or (5/2264) differs in 81 samples @00:26:10,00:26:74,00:28:66,00:29:39-00:29:40,00:29:55,00:30:13,00:30:49-00:30:50,00:43:17
16 | (2198/2264) Accurately ripped
[AccurateRip ID: 0018f9fd-012dc92b-c609bf10] found.
Track [ CRC | V2 ] Status
01 [88b46b30|adc8ce95] (200+200/947) Accurately ripped
02 [d4d670af|084e0945] (200+200/944) Accurately ripped
03 [1650ae88|ea0211ca] (200+200/947) Accurately ripped
04 [cd6da71b|6c4e561a] (200+200/946) Accurately ripped
05 [f8da4531|4aa5e913] (200+200/943) Accurately ripped
06 [b60b4201|ba6eee06] (200+200/946) Accurately ripped
07 [f4fabe5c|338b9a05] (200+200/950) Accurately ripped
08 [949d47a7|965d9040] (200+200/946) Accurately ripped
09 [780d8f8d|e983ee46] (200+200/948) Accurately ripped
10 [04d226a4|16ecd3b9] (200+200/947) Accurately ripped
11 [ee02e76d|3538eef8] (200+200/938) Accurately ripped
12 [9d6e94da|e9970f81] (200+200/940) Accurately ripped
13 [292625b6|b22b2508] (200+200/938) Accurately ripped
14 [4a8e7848|f3000852] (200+200/941) Accurately ripped
15 [67191f90|cff4cff7] (200+200/943) Accurately ripped
16 [159c5f3c|a47e8450] (200+200/934) Accurately ripped
Offsetted by -1565:
01 [ae7d671f] (002/947) Accurately ripped
02 [672b18cb] (002/944) Accurately ripped
03 [8c5f2fd1] (002/947) Accurately ripped
04 [b58a4160] (002/946) Accurately ripped
05 [ef5b45a2] (002/943) Accurately ripped
06 [8485d74f] (002/946) Accurately ripped
07 [999827be] (002/950) Accurately ripped
08 [dca5007d] (002/946) Accurately ripped
09 [617605fc] (002/948) Accurately ripped
10 [63f1987c] (002/947) Accurately ripped
11 [9eab53b0] (002/938) Accurately ripped
12 [01360e6e] (002/940) Accurately ripped
13 [d6d62cc8] (002/938) Accurately ripped
14 [7d68e558] (002/941) Accurately ripped
15 [25bd9b09] (002/943) Accurately ripped
16 [879d76fd] (002/934) Accurately ripped
Offsetted by -1559:
01 [f01a7c3d] (076/947) Accurately ripped
02 [d0476603] (076/944) Accurately ripped
03 [00b6cf23] (074/947) Accurately ripped
04 [f34cf7aa] (075/946) Accurately ripped
05 [12e3b144] (075/943) Accurately ripped
06 [5c78f06b] (076/946) Accurately ripped
07 [cf993002] (076/950) Accurately ripped
08 [1c7db6a9] (076/946) Accurately ripped
09 [1164f01a] (076/948) Accurately ripped
10 [f86f6e2c] (077/947) Accurately ripped
11 [09ca4076] (074/938) Accurately ripped
12 [2d526896] (076/940) Accurately ripped
13 [d601d46c] (076/938) Accurately ripped
14 [9a54eb78] (075/941) Accurately ripped
15 [e26ef2bb] (074/943) Accurately ripped
16 [a2e7721c] (072/934) Accurately ripped
Offsetted by 861:
01 [5041c181] (184/947) Accurately ripped
02 [c033b993] (182/944) Accurately ripped
03 [4d6e7cff] (184/947) Accurately ripped
04 [ec12d596] (184/946) Accurately ripped
05 [63d29a80] (180/943) Accurately ripped
06 [42cfd533] (182/946) Accurately ripped
07 [3a8ee07a] (186/950) Accurately ripped
08 [5e976551] (183/946) Accurately ripped
09 [9679cb5e] (182/948) Accurately ripped
10 [415b6ecc] (184/947) Accurately ripped
11 [79d8a06a] (179/938) Accurately ripped
12 [57531e46] (181/940) Accurately ripped
13 [321e9e24] (179/938) Accurately ripped
14 [80dbe738] (181/941) Accurately ripped
15 [2c81c7d7] (182/943) Accurately ripped
16 [abdda7c8] (179/934) Accurately ripped
Offsetted by -2298:
01 [5eb1d34e] (000/947) No match (V2 was not tested)
02 [937ee9e7] (000/944) No match (V2 was not tested)
03 [073952da] (000/947) No match (V2 was not tested)
04 [671eee65] (000/946) No match (V2 was not tested)
05 [cfc13dd3] (000/943) No match (V2 was not tested)
06 [a158b11d] (000/946) No match (V2 was not tested)
07 [296f60a0] (000/950) No match (V2 was not tested)
08 [0f64bbd3] (000/946) No match (V2 was not tested)
09 [419d4cab] (000/948) No match (V2 was not tested)
10 [dc8f7454] (000/947) No match (V2 was not tested)
11 [aabeab33] (000/938) No match (V2 was not tested)
12 [9f03b302] (000/940) No match (V2 was not tested)
13 [66d6575a] (000/938) No match (V2 was not tested)
14 [05714e68] (000/941) No match (V2 was not tested)
15 [19c6ec42] (000/943) No match (V2 was not tested)
16 [9d057cad] (000/934) No match (V2 was not tested)
Offsetted by -878:
01 [073f590a] (000/947) No match (V2 was not tested)
02 [6a53a257] (000/944) No match (V2 was not tested)
03 [958ff1fe] (000/947) No match (V2 was not tested)
04 [d520c979] (000/946) No match (V2 was not tested)
05 [53df6997] (000/943) No match (V2 was not tested)
06 [9ac09255] (000/946) No match (V2 was not tested)
07 [c10e5a28] (000/950) No match (V2 was not tested)
08 [6b127b2b] (000/946) No match (V2 was not tested)
09 [91d1bc67] (000/948) No match (V2 was not tested)
10 [ce39abb4] (000/947) No match (V2 was not tested)
11 [08003a3f] (000/938) No match (V2 was not tested)
12 [bbe46152] (000/940) No match (V2 was not tested)
13 [f7dca7a2] (000/938) No match (V2 was not tested)
14 [6cf9a2a8] (000/941) No match (V2 was not tested)
15 [8b0f5426] (000/943) No match (V2 was not tested)
16 [2759edf6] (000/934) No match (V2 was not tested)
Offsetted by -98:
01 [59041246] (000/947) No match (V2 was not tested)
02 [cab2d8c7] (000/944) No match (V2 was not tested)
03 [aa0ed9a2] (000/947) No match (V2 was not tested)
04 [32015b0d] (000/946) No match (V2 was not tested)
05 [5f2611db] (000/943) No match (V2 was not tested)
06 [4433528d] (000/946) No match (V2 was not tested)
07 [2d948cb0] (000/950) No match (V2 was not tested)
08 [d71efd83] (000/946) No match (V2 was not tested)
09 [e9249fa3] (000/948) No match (V2 was not tested)
10 [36202f14] (000/947) No match (V2 was not tested)
11 [6db476cb] (000/938) No match (V2 was not tested)
12 [224a29a2] (000/940) No match (V2 was not tested)
13 [8c07c8ea] (000/938) No match (V2 was not tested)
14 [1cd4bee8] (000/941) No match (V2 was not tested)
15 [5d1ddc8a] (000/943) No match (V2 was not tested)
16 [ae7e9eb3] (000/934) No match (V2 was not tested)
Offsetted by 202:
01 [29b23222] (002/947) Accurately ripped
02 [5239edb7] (002/944) Accurately ripped
03 [632bf7a6] (002/947) Accurately ripped
04 [4208f581] (000/946) No match (V2 was not tested)
05 [4fcb177f] (002/943) Accurately ripped
06 [71ae3a05] (002/946) Accurately ripped
07 [b9c829f8] (000/950) No match (V2 was not tested)
08 [4f72921b] (002/946) Accurately ripped
09 [45ce597f] (002/948) Accurately ripped
10 [36b3eb74] (000/947) No match (V2 was not tested)
11 [59beb577] (002/938) Accurately ripped
12 [bfd3c572] (002/940) Accurately ripped
13 [628e86f2] (002/938) Accurately ripped
14 [c2edf128] (002/941) Accurately ripped
15 [37c0fd4e] (000/943) No match (V2 was not tested)
16 [e7663283] (002/934) Accurately ripped

Track Peak [ CRC32 ] [W/O NULL] [ LOG ]
– 97,7 [F1AB24EB] [C4955410] CRC32
01 97,7 [9832C09F] [7CE756BB]
02 54,4 [0CA4C473] [0C375198]
03 97,7 [0A9FB9B2] [31E4C202]
04 97,5 [050A1DB4] [52A7DE9D]
05 83,8 [CE213473] [C3A78877]
06 80,5 [A3B3B6C4] [0A521BAB]
07 95,1 [DD1C5B3E] [9E15EE14]
08 97,7 [C85853C2] [4785B09E]
09 97,7 [654C06C2] [F4EAC3D6]
10 74,2 [6D759166] [2DB3F62D]
11 62,9 [D4599A2C] [A851E789]
12 97,2 [B18CD929] [E0182480]
13 82,1 [2E068372] [BC352A7F]
14 47,7 [CDB0B074] [22294CE8]
15 97,7 [E6A0405B] [73F27A24]
16 94,8 [8DD037B8] [5E07F186]

VA - Pulp Fiction: Music From The Motion Picture (1994)

All thanks go to the original ripper(s) …

>>> My Blog <<<

Download from icerbox.com: