Subcategories

VA - Pure... Fitness (2013) {4CD Box Set}

Posted By: popsakov
VA - Pure... Fitness (2013) {4CD Box Set}

VA - Pure… Fitness (2013)
4CD | EAC Rip | FLAC (Img) + Cue + Log ~ 1,87 Gb | MP3 CBR320 ~ 606 Mb
Scans (JPG, 600 dpi) ~ 120 Mb | RAR 5% Recovery
Pop, Rock, Dance, Disco | Sony Music #88765473372

Are you ready to get your pump on? Whether you’re hardcore training for the track or just want to get your figure back, this is the compilation for you. This set includes 4CDs of classic tracks and up to date hits that are guaranteed to get you through the most gruelling of workouts. Get fit and don’t quit with Pure… Fitness!

***************

VA - Pure... Fitness (2013) {4CD Box Set}

Track List CD1:

01. Survivor - Eye Of The Tiger [03:50]
02. Europe - The Final Countdown [03:58]
03. Christina Aguilera - Fighter [04:08]
04. P!Nk - U+Ur Hand [03:36]
05. Gossip - Heavy Cross [04:05]
06. Bonnie Tyler - Holding Out For A Hero [04:26]
07. Avril Lavigne - Girlfriend [03:38]
08. Shakira - Waka Waka (K Mix) [03:06]
09. Sean Kingston - Fire Burning [03:53]
10. Groove Armada - I See You Baby [04:06]
11. Outkast - Hey Ya [03:59]
12. C+C Music Factory - Gonna Make You Sweat (Everybody Dance Now) [04:06]
13. The Jacksons - Can You Feel It [03:50]
14. Billy Ocean - When The Going Gets Tough [04:09]
15. Meat Loaf - Bat Out Of Hell [04:52]
16. Kenny Loggins - Danger Zone [03:37]
17. Journey - Don't Stop Believin' [04:10]

Exact Audio Copy V1.0 beta 3 from 29. August 2011

EAC extraction logfile from 4. October 2013, 21:21

Various Artists / Pure…Fitness - CD1

Used drive : PIONEER BD-RW BDR-206 Adapter: 3 ID: 0

Read mode : Secure
Utilize accurate stream : Yes
Defeat audio cache : Yes
Make use of C2 pointers : No

Read offset correction : 667
Overread into Lead-In and Lead-Out : No
Fill up missing offset samples with silence : Yes
Delete leading and trailing silent blocks : No
Null samples used in CRC calculations : Yes
Used interface : Native Win32 interface for Win NT & 2000

Used output format : User Defined Encoder
Selected bitrate : 768 kBit/s
Quality : High
Add ID3 tag : Yes
Command line compressor : C:\Program Files\Exact Audio Copy\FLAC\FLAC.EXE
Additional command line options : -8 -V -T "Artist=%artist%" -T "Title=%title%" -T "Album=%albumtitle%" -T "DATE=%year%" -T "TRACKNUMBER=%tracknr%" -T "GENRE=%genre%" -T "COMMENT=%comment%" -T "BAND=%albuminterpret%" -T "ALBUMARTIST=%albuminterpret%" -T "COMPOSER=%composer%" %haslyrics%–tag-from-file=LYRICS="%lyricsfile%"%haslyrics% -T "DISCNUMBER=%cdnumber%" -T "TOTALDISCS=%totalcds%" -T "TOTALTRACKS=%numtracks%" %hascover%–picture="%coverfile%"%hascover% %source% -o %dest%


TOC of the extracted CD

Track | Start | Length | Start sector | End sector
––––––––––––––––––––––––––––-
1 | 0:00.00 | 3:49.16 | 0 | 17190
2 | 3:49.16 | 3:57.71 | 17191 | 35036
3 | 7:47.12 | 4:07.73 | 35037 | 53634
4 | 11:55.10 | 3:35.07 | 53635 | 69766
5 | 15:30.17 | 4:04.74 | 69767 | 88140
6 | 19:35.16 | 4:25.72 | 88141 | 108087
7 | 24:01.13 | 3:37.22 | 108088 | 124384
8 | 27:38.35 | 3:05.07 | 124385 | 138266
9 | 30:43.42 | 3:52.67 | 138267 | 155733
10 | 34:36.34 | 4:05.22 | 155734 | 174130
11 | 38:41.56 | 3:58.20 | 174131 | 192000
12 | 42:40.01 | 4:05.28 | 192001 | 210403
13 | 46:45.29 | 3:49.21 | 210404 | 227599
14 | 50:34.50 | 4:08.03 | 227600 | 246202
15 | 54:42.53 | 4:51.13 | 246203 | 268040
16 | 59:33.66 | 3:36.43 | 268041 | 284283
17 | 63:10.34 | 4:09.49 | 284284 | 303007


Range status and errors

Selected range

Filename D:\Music\VA - Pure…Fitness 4CD (2013)(Flac+cue)\CD1\Various Artists - Pure…Fitness - CD1.wav

Peak level 99.7 %
Extraction speed 7.7 X
Range quality 99.9 %
Test CRC 2E75101E
Copy CRC 2E75101E
Copy OK

No errors occurred


AccurateRip summary

Track 1 not present in database
Track 2 not present in database
Track 3 not present in database
Track 4 not present in database
Track 5 not present in database
Track 6 not present in database
Track 7 not present in database
Track 8 not present in database
Track 9 not present in database
Track 10 not present in database
Track 11 not present in database
Track 12 not present in database
Track 13 not present in database
Track 14 not present in database
Track 15 not present in database
Track 16 not present in database
Track 17 not present in database

None of the tracks are present in the AccurateRip database

End of status report

==== Log checksum 431FBD3B4EA3AFAB62987A8DE4FC79C6B1E6F3EF89D1C1B24F15913026D85040 ====

foobar2000 1.2.6 / Dynamic Range Meter 1.1.1
log date: 2016-04-17 17:39:56

––––––––––––––––––––––––––––––––––––––––
Analyzed: Avril Lavigne / Pure… Fitness CD1 (1)
Billy Ocean / Pure… Fitness CD1 (2)
––––––––––––––––––––––––––––––––––––––––

DR Peak RMS Duration Track
––––––––––––––––––––––––––––––––––––––––
DR5 -1.21 dB -7.55 dB 3:37 07-Girlfriend
DR6 -0.03 dB -8.01 dB 4:08 14-When The Going Gets Tough
––––––––––––––––––––––––––––––––––––––––

Number of tracks: 2
Official DR value: DR6

Samplerate: 44100 Hz
Channels: 2
Bits per sample: 16
Bitrate: 1007 kbps
Codec: FLAC
================================================================================

––––––––––––––––––––––––––––––––––––––––
Analyzed: Bonnie Tyler / Pure… Fitness CD1 (1)
C+C Music Factory / Pure… Fitness CD1 (2)
––––––––––––––––––––––––––––––––––––––––

DR Peak RMS Duration Track
––––––––––––––––––––––––––––––––––––––––
DR9 -0.12 dB -10.68 dB 4:26 06-Holding Out For A Hero
DR6 -0.03 dB -7.42 dB 4:05 12-Gonna Make You Sweat (Everybody Dance Now)
––––––––––––––––––––––––––––––––––––––––

Number of tracks: 2
Official DR value: DR7

Samplerate: 44100 Hz
Channels: 2
Bits per sample: 16
Bitrate: 1007 kbps
Codec: FLAC
================================================================================

––––––––––––––––––––––––––––––––––––––––
Statistics for: 03-Fighter
Number of samples: 10935624
Duration: 4:08
––––––––––––––––––––––––––––––––––––––––

Left Right

Peak Value: -1.50 dB –- -1.50 dB
Avg RMS: -8.08 dB –- -8.01 dB
DR channel: 4.16 dB –- 4.07 dB
––––––––––––––––––––––––––––––––––––––––

Official DR Value: DR4

Samplerate: 44100 Hz
Channels: 2
Bits per sample: 16
Bitrate: 1007 kbps
Codec: FLAC
================================================================================
––––––––––––––––––––––––––––––––––––––––
Analyzed: Europe / Pure… Fitness CD1 (1)
Gossip / Pure… Fitness CD1 (2)
Groove Armada / Pure… Fitness CD1 (3)
Journey / Pure… Fitness CD1 (4)
––––––––––––––––––––––––––––––––––––––––

DR Peak RMS Duration Track
––––––––––––––––––––––––––––––––––––––––
DR7 -0.03 dB -8.00 dB 3:58 02-The Final Countdown
DR5 -1.04 dB -8.71 dB 4:05 05-Heavy Cross
DR7 -0.17 dB -8.99 dB 4:05 10-I See You Baby
DR7 -0.03 dB -9.77 dB 4:10 17-Don't Stop Believin'
––––––––––––––––––––––––––––––––––––––––

Number of tracks: 4
Official DR value: DR7

Samplerate: 44100 Hz
Channels: 2
Bits per sample: 16
Bitrate: 1007 kbps
Codec: FLAC
================================================================================

––––––––––––––––––––––––––––––––––––––––
Statistics for: 16-Danger Zone
Number of samples: 9550884
Duration: 3:37
––––––––––––––––––––––––––––––––––––––––

Left Right

Peak Value: -0.03 dB –- -0.03 dB
Avg RMS: -8.99 dB –- -8.87 dB
DR channel: 7.25 dB –- 7.16 dB
––––––––––––––––––––––––––––––––––––––––

Official DR Value: DR7

Samplerate: 44100 Hz
Channels: 2
Bits per sample: 16
Bitrate: 1007 kbps
Codec: FLAC
================================================================================
––––––––––––––––––––––––––––––––––––––––
Statistics for: 15-Bat Out Of Hell
Number of samples: 12840744
Duration: 4:51
––––––––––––––––––––––––––––––––––––––––

Left Right

Peak Value: -0.03 dB –- -0.03 dB
Avg RMS: -8.89 dB –- -8.48 dB
DR channel: 6.93 dB –- 6.31 dB
––––––––––––––––––––––––––––––––––––––––

Official DR Value: DR7

Samplerate: 44100 Hz
Channels: 2
Bits per sample: 16
Bitrate: 1007 kbps
Codec: FLAC
================================================================================
––––––––––––––––––––––––––––––––––––––––
Statistics for: 11-Hey Ya
Number of samples: 10507560
Duration: 3:58
––––––––––––––––––––––––––––––––––––––––

Left Right

Peak Value: -0.10 dB –- -0.10 dB
Avg RMS: -5.42 dB –- -5.43 dB
DR channel: 4.25 dB –- 4.24 dB
––––––––––––––––––––––––––––––––––––––––

Official DR Value: DR4

Samplerate: 44100 Hz
Channels: 2
Bits per sample: 16
Bitrate: 1007 kbps
Codec: FLAC
================================================================================
––––––––––––––––––––––––––––––––––––––––
Analyzed: P!Nk / Pure… Fitness CD1 (1)
Sean Kingston / Pure… Fitness CD1 (2)
––––––––––––––––––––––––––––––––––––––––

DR Peak RMS Duration Track
––––––––––––––––––––––––––––––––––––––––
DR6 -2.01 dB -9.33 dB 3:35 04-U+Ur Hand
DR6 -2.10 dB -9.20 dB 3:53 09-Fire Burning
––––––––––––––––––––––––––––––––––––––––

Number of tracks: 2
Official DR value: DR6

Samplerate: 44100 Hz
Channels: 2
Bits per sample: 16
Bitrate: 1007 kbps
Codec: FLAC
================================================================================

––––––––––––––––––––––––––––––––––––––––
Statistics for: 08-Waka Waka (K Mix)
Number of samples: 8162616
Duration: 3:05
––––––––––––––––––––––––––––––––––––––––

Left Right

Peak Value: -1.60 dB –- -1.61 dB
Avg RMS: -8.69 dB –- -8.62 dB
DR channel: 5.22 dB –- 5.10 dB
––––––––––––––––––––––––––––––––––––––––

Official DR Value: DR5

Samplerate: 44100 Hz
Channels: 2
Bits per sample: 16
Bitrate: 1007 kbps
Codec: FLAC
================================================================================
––––––––––––––––––––––––––––––––––––––––
Analyzed: Survivor / Pure… Fitness CD1 (1)
The Jacksons / Pure… Fitness CD1 (2)
––––––––––––––––––––––––––––––––––––––––

DR Peak RMS Duration Track
––––––––––––––––––––––––––––––––––––––––
DR10 -0.03 dB -11.71 dB 3:49 01-Eye Of The Tiger
DR7 -0.03 dB -8.61 dB 3:49 13-Can You Feel It
––––––––––––––––––––––––––––––––––––––––

Number of tracks: 2
Official DR value: DR8

Samplerate: 44100 Hz
Channels: 2
Bits per sample: 16
Bitrate: 1007 kbps
Codec: FLAC
================================================================================

[CUETools log; Date: 17.04.2016 17:40:16; Version: 2.1.5]
[CTDB TOCID: e85m8MlO9OiD8Z7yZj9UHcAaFO8-] found.
Track | CTDB Status
1 | (14/14) Accurately ripped
2 | (14/14) Accurately ripped
3 | (14/14) Accurately ripped
4 | (14/14) Accurately ripped
5 | (14/14) Accurately ripped
6 | (14/14) Accurately ripped
7 | (14/14) Accurately ripped
8 | (14/14) Accurately ripped
9 | (14/14) Accurately ripped
10 | (14/14) Accurately ripped
11 | (14/14) Accurately ripped
12 | (14/14) Accurately ripped
13 | (14/14) Accurately ripped
14 | (14/14) Accurately ripped
15 | (14/14) Accurately ripped
16 | (14/14) Accurately ripped
17 | (14/14) Accurately ripped
[AccurateRip ID: 002922ed-0209c5f4-f40fc811] found.
Track [ CRC | V2 ] Status
01 [a9cf892e|3a58ffc9] (0+1/2) Accurately ripped
02 [c12d888d|ee7918b5] (0+1/2) Accurately ripped
03 [13520359|a9f1c74c] (0+1/2) Accurately ripped
04 [e061b0df|1ad4e14d] (0+1/2) Accurately ripped
05 [5e8fc1ad|dc5794ca] (0+1/2) Accurately ripped
06 [800da256|39e3b45c] (0+1/2) Accurately ripped
07 [5b482e13|5383b0c3] (0+1/2) Accurately ripped
08 [f640dd1b|a48dca07] (0+1/2) Accurately ripped
09 [926b663d|fe0da86c] (0+1/2) Accurately ripped
10 [91d43a15|9075d731] (0+1/2) Accurately ripped
11 [21ff28b5|e4214f67] (0+1/2) Accurately ripped
12 [58b610db|0ddd50a0] (0+1/2) Accurately ripped
13 [a6f9148b|db75e0ae] (0+1/2) Accurately ripped
14 [ab19d55a|56c43cf1] (0+1/2) Accurately ripped
15 [df1c17a7|0d671a42] (0+1/2) Accurately ripped
16 [6a263d29|6a04db33] (0+1/2) Accurately ripped
17 [2d861a4f|dd779ba9] (0+1/2) Accurately ripped

Track Peak [ CRC32 ] [W/O NULL] [ LOG ]
– 99,7 [2E75101E] [EAF70288] CRC32
01 99,6 [B753A348] [DA3211E7]
02 99,7 [7C74D2D4] [41A9A873]
03 84,1 [E62798BE] [FAC6A232]
04 79,3 [0AE60AC1] [161CCDB9]
05 88,7 [635634BE] [BACDFECB]
06 98,6 [838DF93D] [559DD4C3]
07 86,9 [FDF88297] [1AE8B903]
08 83,1 [6227D5D8] [EC3AAB25]
09 78,5 [06773393] [CA03E7E3]
10 98,0 [5A9ECDD0] [8DBD751E]
11 98,9 [D0958536] [5BF125E6]
12 99,7 [6B3F7F02] [D1AE7B58]
13 99,7 [615D620F] [AC78396D]
14 99,6 [74A4B2EB] [E3B015C8]
15 99,7 [243BCD4A] [976420BD]
16 99,6 [142ECD7B] [39901C04]
17 99,6 [B994ECA6] [3C289FE9]

Track List CD2:

01. Ke$Ha - Tik Tok [03:23]
02. Calvin Harris - Feel So Close [03:26]
03. Kelly Clarkson - Stronger [03:43]
04. Pitbull - International Love [03:49]
05. Usher - More (RedOne Jimmy Joker Remix) [03:41]
06. Jennifer Hudson - No One Gonna Love You (Jason Nevins Remix) [03:59]
07. Britney Spears - I Wanna Go [03:32]
08. Amelia Lily - You Bring Me Joy [03:52]
09. Mike Posner - Cooler Than Me [03:35]
10. Ciara feat. Justin Timberlake - Love Sex Magic [03:42]
11. Olly Murs - Heart Skips A Beat [03:23]
12. Alexandra Burke - Broken Heels [03:36]
13. Mgmt - Kids [05:05]
14. Metro Station - Shake It [03:05]
15. Hot Chelle Rae - Tonight Tonight (Goldstein Remix) [03:31]
16. Alexis Jordan - Happiness (Dave Aude Mix) [03:26]

Exact Audio Copy V1.0 beta 3 from 29. August 2011

EAC extraction logfile from 4. October 2013, 22:27

Various Artists / Pure…Fitness - Cd2

Used drive : PIONEER BD-RW BDR-206 Adapter: 3 ID: 0

Read mode : Secure
Utilize accurate stream : Yes
Defeat audio cache : Yes
Make use of C2 pointers : No

Read offset correction : 667
Overread into Lead-In and Lead-Out : No
Fill up missing offset samples with silence : Yes
Delete leading and trailing silent blocks : No
Null samples used in CRC calculations : Yes
Used interface : Native Win32 interface for Win NT & 2000

Used output format : User Defined Encoder
Selected bitrate : 768 kBit/s
Quality : High
Add ID3 tag : Yes
Command line compressor : C:\Program Files\Exact Audio Copy\FLAC\FLAC.EXE
Additional command line options : -8 -V -T "Artist=%artist%" -T "Title=%title%" -T "Album=%albumtitle%" -T "DATE=%year%" -T "TRACKNUMBER=%tracknr%" -T "GENRE=%genre%" -T "COMMENT=%comment%" -T "BAND=%albuminterpret%" -T "ALBUMARTIST=%albuminterpret%" -T "COMPOSER=%composer%" %haslyrics%–tag-from-file=LYRICS="%lyricsfile%"%haslyrics% -T "DISCNUMBER=%cdnumber%" -T "TOTALDISCS=%totalcds%" -T "TOTALTRACKS=%numtracks%" %hascover%–picture="%coverfile%"%hascover% %source% -o %dest%


TOC of the extracted CD

Track | Start | Length | Start sector | End sector
––––––––––––––––––––––––––––-
1 | 0:00.00 | 3:22.20 | 0 | 15169
2 | 3:22.20 | 3:25.71 | 15170 | 30615
3 | 6:48.16 | 3:42.16 | 30616 | 47281
4 | 10:30.32 | 3:48.60 | 47282 | 64441
5 | 14:19.17 | 3:40.74 | 64442 | 81015
6 | 18:00.16 | 3:58.70 | 81016 | 98935
7 | 21:59.11 | 3:31.74 | 98936 | 114834
8 | 25:31.10 | 3:51.57 | 114835 | 132216
9 | 29:22.67 | 3:34.63 | 132217 | 148329
10 | 32:57.55 | 3:41.21 | 148330 | 164925
11 | 36:39.01 | 3:22.42 | 164926 | 180117
12 | 40:01.43 | 3:35.47 | 180118 | 196289
13 | 43:37.15 | 5:04.12 | 196290 | 219101
14 | 48:41.27 | 3:04.11 | 219102 | 232912
15 | 51:45.38 | 3:30.05 | 232913 | 248667
16 | 55:15.43 | 3:25.38 | 248668 | 264080


Range status and errors

Selected range

Filename D:\Music\VA - Pure…Fitness 4CD (2013)(Flac+cue)\CD2\Various Artists - Pure…Fitness - Cd2.wav

Peak level 99.7 %
Extraction speed 7.5 X
Range quality 100.0 %
Test CRC 192E73B6
Copy CRC 192E73B6
Copy OK

No errors occurred


AccurateRip summary

Track 1 not present in database
Track 2 not present in database
Track 3 not present in database
Track 4 not present in database
Track 5 not present in database
Track 6 not present in database
Track 7 not present in database
Track 8 not present in database
Track 9 not present in database
Track 10 not present in database
Track 11 not present in database
Track 12 not present in database
Track 13 not present in database
Track 14 not present in database
Track 15 not present in database
Track 16 not present in database

None of the tracks are present in the AccurateRip database

End of status report

==== Log checksum EF7B1C47EB1325BFC95B49A5F9AEDA3FAAF206BA4CF63625AC253458999ADE68 ====

foobar2000 1.2.6 / Dynamic Range Meter 1.1.1
log date: 2016-04-17 17:40:59

––––––––––––––––––––––––––––––––––––––––
Analyzed: Alexandra Burke / Pure… Fitness CD2 (1)
Alexis Jordan / Pure… Fitness CD2 (2)
––––––––––––––––––––––––––––––––––––––––

DR Peak RMS Duration Track
––––––––––––––––––––––––––––––––––––––––
DR5 -0.88 dB -7.29 dB 3:36 12-Broken Heels
DR6 -0.19 dB -8.25 dB 3:26 16-Happiness (Dave Aude Mix)
––––––––––––––––––––––––––––––––––––––––

Number of tracks: 2
Official DR value: DR5

Samplerate: 44100 Hz
Channels: 2
Bits per sample: 16
Bitrate: 1047 kbps
Codec: FLAC
================================================================================

––––––––––––––––––––––––––––––––––––––––
Statistics for: 08-You Bring Me Joy
Number of samples: 10220616
Duration: 3:52
––––––––––––––––––––––––––––––––––––––––

Left Right

Peak Value: -0.03 dB –- -0.03 dB
Avg RMS: -6.78 dB –- -6.47 dB
DR channel: 5.03 dB –- 4.73 dB
––––––––––––––––––––––––––––––––––––––––

Official DR Value: DR5

Samplerate: 44100 Hz
Channels: 2
Bits per sample: 16
Bitrate: 1047 kbps
Codec: FLAC
================================================================================
––––––––––––––––––––––––––––––––––––––––
Statistics for: 07-I Wanna Go
Number of samples: 9348612
Duration: 3:32
––––––––––––––––––––––––––––––––––––––––

Left Right

Peak Value: -0.02 dB –- -0.02 dB
Avg RMS: -6.49 dB –- -6.64 dB
DR channel: 4.35 dB –- 4.51 dB
––––––––––––––––––––––––––––––––––––––––

Official DR Value: DR4

Samplerate: 44100 Hz
Channels: 2
Bits per sample: 16
Bitrate: 1047 kbps
Codec: FLAC
================================================================================
––––––––––––––––––––––––––––––––––––––––
Analyzed: Calvin Harris / Pure… Fitness CD2 (1)
Ciara feat. Justin Timberlake / Pure… Fitness CD2 (2)
Hot Chelle Rae / Pure… Fitness CD2 (3)
––––––––––––––––––––––––––––––––––––––––

DR Peak RMS Duration Track
––––––––––––––––––––––––––––––––––––––––
DR4 -1.99 dB -7.81 dB 3:26 02-Feel So Close
DR6 -1.69 dB -8.56 dB 3:41 10-Love Sex Magic
DR5 -0.99 dB -7.10 dB 3:30 15-Tonight Tonight (Goldstein Remix)
––––––––––––––––––––––––––––––––––––––––

Number of tracks: 3
Official DR value: DR5

Samplerate: 44100 Hz
Channels: 2
Bits per sample: 16
Bitrate: 1047 kbps
Codec: FLAC
================================================================================

––––––––––––––––––––––––––––––––––––––––
Statistics for: 06-No One Gonna Love You (Jason Nevins Remix)
Number of samples: 10536960
Duration: 3:59
––––––––––––––––––––––––––––––––––––––––

Left Right

Peak Value: -2.09 dB –- -2.09 dB
Avg RMS: -7.34 dB –- -7.45 dB
DR channel: 4.07 dB –- 4.14 dB
––––––––––––––––––––––––––––––––––––––––

Official DR Value: DR4

Samplerate: 44100 Hz
Channels: 2
Bits per sample: 16
Bitrate: 1047 kbps
Codec: FLAC
================================================================================
––––––––––––––––––––––––––––––––––––––––
Analyzed: Ke$Ha / Pure… Fitness CD2 (1)
Kelly Clarkson / Pure… Fitness CD2 (2)
Metro Station / Pure… Fitness CD2 (3)
––––––––––––––––––––––––––––––––––––––––

DR Peak RMS Duration Track
––––––––––––––––––––––––––––––––––––––––
DR7 -0.03 dB -8.42 dB 3:22 01-Tik Tok
DR5 -0.58 dB -7.31 dB 3:42 03-Stronger
DR6 -0.10 dB -8.11 dB 3:04 14-Shake It
––––––––––––––––––––––––––––––––––––––––

Number of tracks: 3
Official DR value: DR6

Samplerate: 44100 Hz
Channels: 2
Bits per sample: 16
Bitrate: 1047 kbps
Codec: FLAC
================================================================================

––––––––––––––––––––––––––––––––––––––––
Statistics for: 13-Kids
Number of samples: 13413456
Duration: 5:04
––––––––––––––––––––––––––––––––––––––––

Left Right

Peak Value: -0.70 dB –- -0.66 dB
Avg RMS: -5.58 dB –- -6.09 dB
DR channel: 3.22 dB –- 3.95 dB
––––––––––––––––––––––––––––––––––––––––

Official DR Value: DR4

Samplerate: 44100 Hz
Channels: 2
Bits per sample: 16
Bitrate: 1047 kbps
Codec: FLAC
================================================================================
––––––––––––––––––––––––––––––––––––––––
Analyzed: Mike Posner / Pure… Fitness CD2 (1)
Olly Murs / Pure… Fitness CD2 (2)
––––––––––––––––––––––––––––––––––––––––

DR Peak RMS Duration Track
––––––––––––––––––––––––––––––––––––––––
DR7 -0.59 dB -8.86 dB 3:35 09-Cooler Than Me
DR6 -0.10 dB -8.36 dB 3:23 11-Heart Skips A Beat
––––––––––––––––––––––––––––––––––––––––

Number of tracks: 2
Official DR value: DR6

Samplerate: 44100 Hz
Channels: 2
Bits per sample: 16
Bitrate: 1047 kbps
Codec: FLAC
================================================================================

––––––––––––––––––––––––––––––––––––––––
Analyzed: Pitbull / Pure… Fitness CD2 (1)
Usher / Pure… Fitness CD2 (2)
––––––––––––––––––––––––––––––––––––––––

DR Peak RMS Duration Track
––––––––––––––––––––––––––––––––––––––––
DR5 -0.13 dB -6.75 dB 3:49 04-International Love
DR5 -1.49 dB -7.82 dB 3:41 05-More (RedOne Jimmy Joker Remix)
––––––––––––––––––––––––––––––––––––––––

Number of tracks: 2
Official DR value: DR5

Samplerate: 44100 Hz
Channels: 2
Bits per sample: 16
Bitrate: 1047 kbps
Codec: FLAC
================================================================================

[CUETools log; Date: 17.04.2016 17:41:15; Version: 2.1.5]
[CTDB TOCID: YO6XkSLB01IlwFLQZuYNddbZji4-] found.
Track | CTDB Status
1 | (11/11) Accurately ripped
2 | (11/11) Accurately ripped
3 | (11/11) Accurately ripped
4 | (11/11) Accurately ripped
5 | (11/11) Accurately ripped
6 | (11/11) Accurately ripped
7 | (11/11) Accurately ripped
8 | (11/11) Accurately ripped
9 | (11/11) Accurately ripped
10 | (11/11) Accurately ripped
11 | (11/11) Accurately ripped
12 | (11/11) Accurately ripped
13 | (11/11) Accurately ripped
14 | (11/11) Accurately ripped
15 | (11/11) Accurately ripped
16 | (11/11) Accurately ripped
[AccurateRip ID: 002229de-019b631c-ba0dc110] found.
Track [ CRC | V2 ] Status
01 [ad9284b7|0f88cb04] (0+1/1) Accurately ripped
02 [37fc7f9f|746018b5] (0+1/1) Accurately ripped
03 [34be283a|4ba48d52] (0+1/1) Accurately ripped
04 [9126bdcc|58f6622f] (0+1/1) Accurately ripped
05 [65a16954|18e74f9a] (0+1/1) Accurately ripped
06 [4ad1d005|a162414c] (0+1/1) Accurately ripped
07 [29e1d326|454f2e48] (0+1/1) Accurately ripped
08 [f89a2d71|45debc98] (0+1/1) Accurately ripped
09 [bd5156bd|03b9623b] (0+1/1) Accurately ripped
10 [f9caa6d4|bdb7a374] (0+1/1) Accurately ripped
11 [a8299786|6455ffc3] (0+1/1) Accurately ripped
12 [267fe91d|046c61da] (0+1/1) Accurately ripped
13 [9b9621a0|07017621] (0+1/1) Accurately ripped
14 [3d2e1789|6e369771] (0+1/1) Accurately ripped
15 [9f015f40|4d426f8b] (0+1/1) Accurately ripped
16 [95ff8b43|8734ffcf] (0+1/1) Accurately ripped

Track Peak [ CRC32 ] [W/O NULL] [ LOG ]
– 99,7 [192E73B6] [498DED27] CRC32
01 99,6 [54566536] [D6997C57]
02 79,5 [077E9BC3] [B0B14179]
03 93,4 [5711C971] [585D3B78]
04 98,4 [F62EA0A3] [AA0193AB]
05 84,1 [A23BF07B] [FB7768D6]
06 78,5 [20D59BFF] [DD6822DD]
07 99,7 [E43D3481] [8B8DBB99]
08 99,6 [7BBFA456] [9F0DE503]
09 93,4 [A8730BEE] [82AE6E0C]
10 82,2 [60C2A813] [7654BBCA]
11 98,9 [671925F1] [94742B62]
12 90,4 [B6468AE1] [9B44A4BA]
13 92,6 [3357B248] [7772DC04]
14 98,9 [9765C657] [83807216]
15 89,1 [C114803D] [14466E77]
16 97,7 [DC34B409] [468A4AB0]

Track List CD3:

01. Alan Parsons Project - Sirius [01:58]
02. Alice Cooper - Poison [04:31]
03. Boston - More Than A Feeling [03:29]
04. Cheap Trick - Surrender [04:12]
05. Kansas - Carry On Wayward Son [03:27]
06. Edgar Winter Group - Frankenstein [03:28]
07. Blue Oyster Cult - Don't Fear The Reaper [03:51]
08. Heart - Barracuda [03:30]
09. The Fabulous Thunderbirds - Tuff Enuff [03:23]
10. Quiet Riot - Cum On Feel The Noize [03:50]
11. Korn - Word Up! [02:54]
12. Run-DMC - Walk This Way [03:39]
13. REO Speedwagon - Keep The Fire Burning [03:57]
14. Kula Shaker - Hush [02:57]
15. Spin Doctors - Two Princes [04:18]
16. Boo Radleys - Wake Up Boo! [03:07]
17. The Zutons - Valerie [04:00]

Exact Audio Copy V1.0 beta 3 from 29. August 2011

EAC extraction logfile from 4. October 2013, 22:55

Various Artists / Pure…Fitness - CD3

Used drive : PIONEER BD-RW BDR-206 Adapter: 3 ID: 0

Read mode : Secure
Utilize accurate stream : Yes
Defeat audio cache : Yes
Make use of C2 pointers : No

Read offset correction : 667
Overread into Lead-In and Lead-Out : No
Fill up missing offset samples with silence : Yes
Delete leading and trailing silent blocks : No
Null samples used in CRC calculations : Yes
Used interface : Native Win32 interface for Win NT & 2000

Used output format : User Defined Encoder
Selected bitrate : 768 kBit/s
Quality : High
Add ID3 tag : Yes
Command line compressor : C:\Program Files\Exact Audio Copy\FLAC\FLAC.EXE
Additional command line options : -8 -V -T "Artist=%artist%" -T "Title=%title%" -T "Album=%albumtitle%" -T "DATE=%year%" -T "TRACKNUMBER=%tracknr%" -T "GENRE=%genre%" -T "COMMENT=%comment%" -T "BAND=%albuminterpret%" -T "ALBUMARTIST=%albuminterpret%" -T "COMPOSER=%composer%" %haslyrics%–tag-from-file=LYRICS="%lyricsfile%"%haslyrics% -T "DISCNUMBER=%cdnumber%" -T "TOTALDISCS=%totalcds%" -T "TOTALTRACKS=%numtracks%" %hascover%–picture="%coverfile%"%hascover% %source% -o %dest%


TOC of the extracted CD

Track | Start | Length | Start sector | End sector
––––––––––––––––––––––––––––-
1 | 0:00.00 | 1:57.55 | 0 | 8829
2 | 1:57.55 | 4:30.25 | 8830 | 29104
3 | 6:28.05 | 3:28.11 | 29105 | 44715
4 | 9:56.16 | 4:11.72 | 44716 | 63612
5 | 14:08.13 | 3:26.70 | 63613 | 79132
6 | 17:35.08 | 3:27.29 | 79133 | 94686
7 | 21:02.37 | 3:50.15 | 94687 | 111951
8 | 24:52.52 | 3:29.01 | 111952 | 127627
9 | 28:21.53 | 3:22.35 | 127628 | 142812
10 | 31:44.13 | 3:49.37 | 142813 | 160024
11 | 35:33.50 | 2:53.47 | 160025 | 173046
12 | 38:27.22 | 3:38.48 | 173047 | 189444
13 | 42:05.70 | 3:56.25 | 189445 | 207169
14 | 46:02.20 | 2:56.48 | 207170 | 220417
15 | 48:58.68 | 4:17.43 | 220418 | 239735
16 | 53:16.36 | 3:06.02 | 239736 | 253687
17 | 56:22.38 | 3:59.45 | 253688 | 271657


Range status and errors

Selected range

Filename D:\Music\VA - Pure…Fitness 4CD (2013)(Flac+cue)\CD3\Various Artists - Pure…Fitness - CD3.wav

Peak level 99.7 %
Extraction speed 7.5 X
Range quality 99.9 %
Test CRC A9B37F42
Copy CRC A9B37F42
Copy OK

No errors occurred


AccurateRip summary

Track 1 not present in database
Track 2 not present in database
Track 3 not present in database
Track 4 not present in database
Track 5 not present in database
Track 6 not present in database
Track 7 not present in database
Track 8 not present in database
Track 9 not present in database
Track 10 not present in database
Track 11 not present in database
Track 12 not present in database
Track 13 not present in database
Track 14 not present in database
Track 15 not present in database
Track 16 not present in database
Track 17 not present in database

None of the tracks are present in the AccurateRip database

End of status report

==== Log checksum 998CAA491C4FDE3A45B9F23F6128A91D31D2AA776C2BC01EDD0D50076E0C260E ====

foobar2000 1.2.6 / Dynamic Range Meter 1.1.1
log date: 2016-04-17 17:41:39

––––––––––––––––––––––––––––––––––––––––
Analyzed: Alan Parsons Project / Pure… Fitness CD3 (1)
Alice Cooper / Pure… Fitness CD3 (2)
Blue Oyster Cult / Pure… Fitness CD3 (3)
Boo Radleys / Pure… Fitness CD3 (4)
––––––––––––––––––––––––––––––––––––––––

DR Peak RMS Duration Track
––––––––––––––––––––––––––––––––––––––––
DR10 -0.03 dB -13.48 dB 1:58 01-Sirius
DR7 -0.14 dB -8.88 dB 4:30 02-Poison
DR8 -0.03 dB -9.82 dB 3:50 07-Don't Fear The Reaper
DR8 -0.03 dB -8.81 dB 3:06 16-Wake Up Boo!
––––––––––––––––––––––––––––––––––––––––

Number of tracks: 4
Official DR value: DR8

Samplerate: 44100 Hz
Channels: 2
Bits per sample: 16
Bitrate: 1000 kbps
Codec: FLAC
================================================================================

––––––––––––––––––––––––––––––––––––––––
Analyzed: Boston / Pure… Fitness CD3 (1)
Cheap Trick / Pure… Fitness CD3 (2)
Edgar Winter Group / Pure… Fitness CD3 (3)
Heart / Pure… Fitness CD3 (4)
––––––––––––––––––––––––––––––––––––––––

DR Peak RMS Duration Track
––––––––––––––––––––––––––––––––––––––––
DR7 -0.11 dB -9.46 dB 3:28 03-More Than A Feeling
DR8 -0.03 dB -8.92 dB 4:12 04-Surrender
DR8 -0.07 dB -9.93 dB 3:27 06-Frankenstein
DR7 -0.51 dB -8.57 dB 3:29 08-Barracuda
––––––––––––––––––––––––––––––––––––––––

Number of tracks: 4
Official DR value: DR8

Samplerate: 44100 Hz
Channels: 2
Bits per sample: 16
Bitrate: 1000 kbps
Codec: FLAC
================================================================================

––––––––––––––––––––––––––––––––––––––––
Analyzed: Kansas / Pure… Fitness CD3 (1)
Korn / Pure… Fitness CD3 (2)
Kula Shaker / Pure… Fitness CD3 (3)
––––––––––––––––––––––––––––––––––––––––

DR Peak RMS Duration Track
––––––––––––––––––––––––––––––––––––––––
DR7 -0.10 dB -8.51 dB 3:27 05-Carry On Wayward Son
DR6 -1.00 dB -8.59 dB 2:54 11-Word Up!
DR8 -0.09 dB -9.48 dB 2:57 14-Hush
––––––––––––––––––––––––––––––––––––––––

Number of tracks: 3
Official DR value: DR7

Samplerate: 44100 Hz
Channels: 2
Bits per sample: 16
Bitrate: 1000 kbps
Codec: FLAC
================================================================================

––––––––––––––––––––––––––––––––––––––––
Analyzed: Quiet Riot / Pure… Fitness CD3 (1)
REO Speedwagon / Pure… Fitness CD3 (2)
––––––––––––––––––––––––––––––––––––––––

DR Peak RMS Duration Track
––––––––––––––––––––––––––––––––––––––––
DR8 -0.03 dB -9.23 dB 3:49 10-Cum On Feel The Noize
DR8 -0.03 dB -9.49 dB 3:56 13-Keep The Fire Burning
––––––––––––––––––––––––––––––––––––––––

Number of tracks: 2
Official DR value: DR8

Samplerate: 44100 Hz
Channels: 2
Bits per sample: 16
Bitrate: 1000 kbps
Codec: FLAC
================================================================================

––––––––––––––––––––––––––––––––––––––––
Analyzed: Run-DMC / Pure… Fitness CD3 (1)
Spin Doctors / Pure… Fitness CD3 (2)
––––––––––––––––––––––––––––––––––––––––

DR Peak RMS Duration Track
––––––––––––––––––––––––––––––––––––––––
DR6 -0.79 dB -8.43 dB 3:39 12-Walk This Way
DR7 -0.10 dB -8.60 dB 4:18 15-Two Princes
––––––––––––––––––––––––––––––––––––––––

Number of tracks: 2
Official DR value: DR7

Samplerate: 44100 Hz
Channels: 2
Bits per sample: 16
Bitrate: 1000 kbps
Codec: FLAC
================================================================================

––––––––––––––––––––––––––––––––––––––––
Analyzed: The Fabulous Thunderbirds / Pure… Fitness CD3 (1)
The Zutons / Pure… Fitness CD3 (2)
––––––––––––––––––––––––––––––––––––––––

DR Peak RMS Duration Track
––––––––––––––––––––––––––––––––––––––––
DR8 -0.10 dB -9.67 dB 3:22 09-Tuff Enuff
DR8 -0.03 dB -8.94 dB 4:00 17-Valerie
––––––––––––––––––––––––––––––––––––––––

Number of tracks: 2
Official DR value: DR8

Samplerate: 44100 Hz
Channels: 2
Bits per sample: 16
Bitrate: 1000 kbps
Codec: FLAC
================================================================================

[CUETools log; Date: 17.04.2016 17:41:56; Version: 2.1.5]
[CTDB TOCID: COWxmyNn_aoP7irvYidFOIIa3p4-] found.
Track | CTDB Status
1 | (12/12) Accurately ripped
2 | (12/12) Accurately ripped
3 | (12/12) Accurately ripped
4 | (12/12) Accurately ripped
5 | (12/12) Accurately ripped
6 | (12/12) Accurately ripped
7 | (12/12) Accurately ripped
8 | (12/12) Accurately ripped
9 | (12/12) Accurately ripped
10 | (12/12) Accurately ripped
11 | (12/12) Accurately ripped
12 | (12/12) Accurately ripped
13 | (12/12) Accurately ripped
14 | (12/12) Accurately ripped
15 | (12/12) Accurately ripped
16 | (12/12) Accurately ripped
17 | (12/12) Accurately ripped
[AccurateRip ID: 0024e400-01d54e94-f50e2611] found.
Track [ CRC | V2 ] Status
01 [1bf9f9ae|8ab95a25] (0+1/1) Accurately ripped
02 [5970eda7|ff158278] (0+1/1) Accurately ripped
03 [bacaa41c|868bed9c] (0+1/1) Accurately ripped
04 [0c24ecda|8f13b8b6] (0+1/1) Accurately ripped
05 [ea0e480e|8d4f1dea] (0+1/1) Accurately ripped
06 [c61ca4a8|26f458dd] (0+1/1) Accurately ripped
07 [c4f75c73|05b20a59] (0+1/1) Accurately ripped
08 [22543914|1076abbc] (0+1/1) Accurately ripped
09 [c48d18b7|d0f9588f] (0+1/1) Accurately ripped
10 [1e8b6b5f|c7456d36] (0+1/1) Accurately ripped
11 [b94fea6f|48893ef6] (0+1/1) Accurately ripped
12 [e90465c9|d99edd40] (0+1/1) Accurately ripped
13 [e2237b16|124aa73b] (0+1/1) Accurately ripped
14 [64b3dbe6|ab3642f9] (0+1/1) Accurately ripped
15 [05804a42|573d3f4f] (0+1/1) Accurately ripped
16 [c7133382|f91ee542] (0+1/1) Accurately ripped
17 [b507bb17|db5c54aa] (0+1/1) Accurately ripped

Track Peak [ CRC32 ] [W/O NULL] [ LOG ]
– 99,7 [A9B37F42] [5D974354] CRC32
01 99,6 [C64D6364] [8247BBA9]
02 98,3 [16C9E86D] [C55534A8]
03 98,7 [D0D6119A] [3706D01C]
04 99,6 [6EE90E9D] [E3D75F03]
05 98,8 [F73FD186] [505F0F62]
06 99,1 [C7FBEE93] [04C63F45]
07 99,6 [F46AB6C9] [8E3D9459]
08 94,3 [D972C30C] [95354A54]
09 98,8 [9F22BEE2] [D75EC978]
10 99,6 [730D048A] [29CC0766]
11 89,1 [DD3CC91C] [2DD453BC]
12 91,3 [F865B327] [79992543]
13 99,7 [5A4D6F37] [68F952C3]
14 98,9 [018D85F8] [C12D117E]
15 98,8 [7B754D59] [62809DD3]
16 99,6 [EA991F84] [6529EB0D]
17 99,6 [975A2D82] [1008BD73]

Track List CD4:

01. A Tribe Called Quest - Can I Kick It? [04:15]
02. Nina Simone vs. Groovefinder - Ain't Got No, I Got Life [03:22]
03. Elvis vs. JXL - A Little Less Conversation (JXL Remix) [03:34]
04. Apollo 440 - Stop The Rock [03:34]
05. Bomfunk MC's - Freestyler [02:55]
06. Anastacia - I'm Outta Love [03:51]
07. Jennifer Lopez - Waiting For Tonight [04:06]
08. Alcazar - Crying At The Discotheque [03:52]
09. Boney M - Daddy Cool [03:32]
10. Dead Or Alive - You Spin Me Round (Like A Record) [03:17]
11. Miami Sound Machine - Dr. Beat [04:25]
12. KC & The Sunshine Band - Give It Up [04:12]
13. The Pointer Sisters - Jump (For My Love) [04:01]
14. The Three Degrees - The Runner [04:22]
15. Five - Keep On Movin' [03:19]
16. James Brown - Living In America [04:44]
17. Starship - Nothings Gonna Stop Us Now [04:32]

Exact Audio Copy V1.0 beta 3 from 29. August 2011

EAC extraction logfile from 4. October 2013, 23:31

Various Artists / Pure… Fitness - CD4

Used drive : PIONEER BD-RW BDR-206 Adapter: 3 ID: 0

Read mode : Secure
Utilize accurate stream : Yes
Defeat audio cache : Yes
Make use of C2 pointers : No

Read offset correction : 667
Overread into Lead-In and Lead-Out : No
Fill up missing offset samples with silence : Yes
Delete leading and trailing silent blocks : No
Null samples used in CRC calculations : Yes
Used interface : Native Win32 interface for Win NT & 2000

Used output format : User Defined Encoder
Selected bitrate : 768 kBit/s
Quality : High
Add ID3 tag : Yes
Command line compressor : C:\Program Files\Exact Audio Copy\FLAC\FLAC.EXE
Additional command line options : -8 -V -T "Artist=%artist%" -T "Title=%title%" -T "Album=%albumtitle%" -T "DATE=%year%" -T "TRACKNUMBER=%tracknr%" -T "GENRE=%genre%" -T "COMMENT=%comment%" -T "BAND=%albuminterpret%" -T "ALBUMARTIST=%albuminterpret%" -T "COMPOSER=%composer%" %haslyrics%–tag-from-file=LYRICS="%lyricsfile%"%haslyrics% -T "DISCNUMBER=%cdnumber%" -T "TOTALDISCS=%totalcds%" -T "TOTALTRACKS=%numtracks%" %hascover%–picture="%coverfile%"%hascover% %source% -o %dest%


TOC of the extracted CD

Track | Start | Length | Start sector | End sector
––––––––––––––––––––––––––––-
1 | 0:00.00 | 4:14.23 | 0 | 19072
2 | 4:14.23 | 3:21.14 | 19073 | 34161
3 | 7:35.37 | 3:33.03 | 34162 | 50139
4 | 11:08.40 | 3:33.64 | 50140 | 66178
5 | 14:42.29 | 2:54.14 | 66179 | 79242
6 | 17:36.43 | 3:50.14 | 79243 | 96506
7 | 21:26.57 | 4:05.24 | 96507 | 114905
8 | 25:32.06 | 3:51.62 | 114906 | 132292
9 | 29:23.68 | 3:31.51 | 132293 | 148168
10 | 32:55.44 | 3:16.01 | 148169 | 162869
11 | 36:11.45 | 4:24.43 | 162870 | 182712
12 | 40:36.13 | 4:11.04 | 182713 | 201541
13 | 44:47.17 | 4:00.44 | 201542 | 219585
14 | 48:47.61 | 4:21.04 | 219586 | 239164
15 | 53:08.65 | 3:18.57 | 239165 | 254071
16 | 56:27.47 | 4:43.54 | 254072 | 275350
17 | 61:11.26 | 4:31.12 | 275351 | 295687


Range status and errors

Selected range

Filename D:\Music\VA - Pure…Fitness 4CD (2013)(Flac+cue)\CD4\Various Artists - Pure… Fitness - CD4.wav

Peak level 99.7 %
Extraction speed 7.7 X
Range quality 99.9 %
Test CRC 4CC604A7
Copy CRC 4CC604A7
Copy OK

No errors occurred


AccurateRip summary

Track 1 not present in database
Track 2 not present in database
Track 3 not present in database
Track 4 not present in database
Track 5 not present in database
Track 6 not present in database
Track 7 not present in database
Track 8 not present in database
Track 9 not present in database
Track 10 not present in database
Track 11 not present in database
Track 12 not present in database
Track 13 not present in database
Track 14 not present in database
Track 15 not present in database
Track 16 not present in database
Track 17 not present in database

None of the tracks are present in the AccurateRip database

End of status report

==== Log checksum 0841F0D5F1284FB6F43544B81328BB42B47E1AAAA3C3ADEA540E3E1FAADDB343 ====

foobar2000 1.2.6 / Dynamic Range Meter 1.1.1
log date: 2016-04-17 17:43:21

––––––––––––––––––––––––––––––––––––––––
Analyzed: A Tribe Called Quest / Pure… Fitness CD4 (1)
Alcazar / Pure… Fitness CD4 (2)
––––––––––––––––––––––––––––––––––––––––

DR Peak RMS Duration Track
––––––––––––––––––––––––––––––––––––––––
DR8 -0.15 dB -10.34 dB 4:14 01-Can I Kick It?
DR7 -0.03 dB -8.02 dB 3:52 08-Crying At The Discotheque
––––––––––––––––––––––––––––––––––––––––

Number of tracks: 2
Official DR value: DR8

Samplerate: 44100 Hz
Channels: 2
Bits per sample: 16
Bitrate: 998 kbps
Codec: FLAC
================================================================================

––––––––––––––––––––––––––––––––––––––––
Statistics for: 06-I'm Outta Love
Number of samples: 10151232
Duration: 3:50
––––––––––––––––––––––––––––––––––––––––

Left Right

Peak Value: -0.48 dB –- -0.45 dB
Avg RMS: -9.32 dB –- -9.35 dB
DR channel: 7.16 dB –- 7.15 dB
––––––––––––––––––––––––––––––––––––––––

Official DR Value: DR7

Samplerate: 44100 Hz
Channels: 2
Bits per sample: 16
Bitrate: 998 kbps
Codec: FLAC
================================================================================
––––––––––––––––––––––––––––––––––––––––
Analyzed: Apollo 440 / Pure… Fitness CD4 (1)
Bomfunk MC's / Pure… Fitness CD4 (2)
Boney M / Pure… Fitness CD4 (3)
Dead Or Alive / Pure… Fitness CD4 (4)
––––––––––––––––––––––––––––––––––––––––

DR Peak RMS Duration Track
––––––––––––––––––––––––––––––––––––––––
DR7 -0.10 dB -8.31 dB 3:34 04-Stop The Rock
DR6 -0.10 dB -7.29 dB 2:54 05-Freestyler
DR7 -1.00 dB -9.09 dB 3:32 09-Daddy Cool
DR7 -0.07 dB -8.26 dB 3:16 10-You Spin Me Round (Like A Record)
––––––––––––––––––––––––––––––––––––––––

Number of tracks: 4
Official DR value: DR7

Samplerate: 44100 Hz
Channels: 2
Bits per sample: 16
Bitrate: 998 kbps
Codec: FLAC
================================================================================

––––––––––––––––––––––––––––––––––––––––
Analyzed: Elvis vs. JXL / Pure… Fitness CD4 (1)
Five / Pure… Fitness CD4 (2)
James Brown / Pure… Fitness CD4 (3)
––––––––––––––––––––––––––––––––––––––––

DR Peak RMS Duration Track
––––––––––––––––––––––––––––––––––––––––
DR7 -0.03 dB -8.57 dB 3:33 03-A Little Less Conversation (JXL Remix)
DR9 -0.10 dB -9.94 dB 3:19 15-Keep On Movin'
DR12 -0.10 dB -13.24 dB 4:44 16-Living In America
––––––––––––––––––––––––––––––––––––––––

Number of tracks: 3
Official DR value: DR9

Samplerate: 44100 Hz
Channels: 2
Bits per sample: 16
Bitrate: 998 kbps
Codec: FLAC
================================================================================

––––––––––––––––––––––––––––––––––––––––
Analyzed: Jennifer Lopez / Pure… Fitness CD4 (1)
KC & The Sunshine Band / Pure… Fitness CD4 (2)
––––––––––––––––––––––––––––––––––––––––

DR Peak RMS Duration Track
––––––––––––––––––––––––––––––––––––––––
DR8 -0.03 dB -9.10 dB 4:05 07-Waiting For Tonight
DR9 -0.03 dB -10.88 dB 4:11 12-Give It Up
––––––––––––––––––––––––––––––––––––––––

Number of tracks: 2
Official DR value: DR9

Samplerate: 44100 Hz
Channels: 2
Bits per sample: 16
Bitrate: 998 kbps
Codec: FLAC
================================================================================

––––––––––––––––––––––––––––––––––––––––
Statistics for: 11-Dr. Beat
Number of samples: 11667684
Duration: 4:25
––––––––––––––––––––––––––––––––––––––––

Left Right

Peak Value: -0.03 dB –- -0.03 dB
Avg RMS: -10.41 dB –- -11.60 dB
DR channel: 8.73 dB –- 9.80 dB
––––––––––––––––––––––––––––––––––––––––

Official DR Value: DR9

Samplerate: 44100 Hz
Channels: 2
Bits per sample: 16
Bitrate: 998 kbps
Codec: FLAC
================================================================================
––––––––––––––––––––––––––––––––––––––––
Analyzed: Nina Simone vs. Groovefinder / Pure… Fitness CD4 (1)
Starship / Pure… Fitness CD4 (2)
––––––––––––––––––––––––––––––––––––––––

DR Peak RMS Duration Track
––––––––––––––––––––––––––––––––––––––––
DR8 -0.10 dB -9.29 dB 3:21 02-Ain't Got No, I Got Life
DR8 -0.81 dB -11.12 dB 4:31 17-Nothings Gonna Stop Us Now
––––––––––––––––––––––––––––––––––––––––

Number of tracks: 2
Official DR value: DR8

Samplerate: 44100 Hz
Channels: 2
Bits per sample: 16
Bitrate: 998 kbps
Codec: FLAC
================================================================================

––––––––––––––––––––––––––––––––––––––––
Analyzed: The Pointer Sisters / Pure… Fitness CD4 (1)
The Three Degrees / Pure… Fitness CD4 (2)
––––––––––––––––––––––––––––––––––––––––

DR Peak RMS Duration Track
––––––––––––––––––––––––––––––––––––––––
DR8 -0.10 dB -10.04 dB 4:01 13-Jump (For My Love)
DR9 -0.03 dB -10.33 dB 4:21 14-The Runner
––––––––––––––––––––––––––––––––––––––––

Number of tracks: 2
Official DR value: DR9

Samplerate: 44100 Hz
Channels: 2
Bits per sample: 16
Bitrate: 998 kbps
Codec: FLAC
================================================================================

[CUETools log; Date: 17.04.2016 17:43:38; Version: 2.1.5]
[CTDB TOCID: qLjPjfzqKJEdyfX1SGE7qQSNDrs-] found.
Track | CTDB Status
1 | (12/12) Accurately ripped
2 | (12/12) Accurately ripped
3 | (12/12) Accurately ripped
4 | (12/12) Accurately ripped
5 | (12/12) Accurately ripped
6 | (12/12) Accurately ripped
7 | (12/12) Accurately ripped
8 | (12/12) Accurately ripped
9 | (12/12) Accurately ripped
10 | (12/12) Accurately ripped
11 | (12/12) Accurately ripped
12 | (12/12) Accurately ripped
13 | (12/12) Accurately ripped
14 | (12/12) Accurately ripped
15 | (12/12) Accurately ripped
16 | (12/12) Accurately ripped
17 | (12/12) Accurately ripped
[AccurateRip ID: 00273d8b-01f3b5e0-1e0f6611] found.
Track [ CRC | V2 ] Status
01 [79389b69|b9d9bcd0] (0+1/1) Accurately ripped
02 [cb1fd6d5|a4aa80ac] (0+1/1) Accurately ripped
03 [e1e83ca5|ba219030] (0+1/1) Accurately ripped
04 [b7d4c073|dc44d688] (0+1/1) Accurately ripped
05 [a7df3049|9708b428] (0+1/1) Accurately ripped
06 [40e0f995|c45afe32] (0+1/1) Accurately ripped
07 [47e8bdf8|c9a660f1] (0+1/1) Accurately ripped
08 [e285fe6d|4f831b96] (0+1/1) Accurately ripped
09 [e3cbc91f|a97b4f6e] (0+1/1) Accurately ripped
10 [59c3ffab|d3ed17af] (0+1/1) Accurately ripped
11 [aba1ba84|18d514e3] (0+1/1) Accurately ripped
12 [49779119|f94d0b6c] (0+1/1) Accurately ripped
13 [973a7467|cf409dfe] (0+1/1) Accurately ripped
14 [c4b589eb|cc959e9f] (0+1/1) Accurately ripped
15 [6370201d|7e8249cc] (0+1/1) Accurately ripped
16 [9a71add6|ef414699] (0+1/1) Accurately ripped
17 [68da7856|71511452] (0+1/1) Accurately ripped

Track Peak [ CRC32 ] [W/O NULL] [ LOG ]
– 99,7 [4CC604A7] [DB4E1149] CRC32
01 98,2 [97A8D26F] [DCD34850]
02 98,8 [577968A8] [B37C147C]
03 99,6 [ACD6D483] [FA650DD1]
04 98,9 [A90FA058] [62EDB68E]
05 98,9 [1D95B5E4] [87DDF6EA]
06 94,9 [69EE5D2B] [B2D2FEC7]
07 99,7 [6B619D9D] [0130679E]
08 99,6 [206294FE] [CFC255E7]
09 89,1 [25933142] [2A25967B]
10 99,1 [FA7DDF97] [E6380002]
11 99,7 [95AD29C5] [545E810C]
12 99,7 [9840EB83] [DA841F5D]
13 98,8 [7F9ADA27] [C6C6AB70]
14 99,7 [71C31BAD] [27987CF0]
15 98,8 [C226B300] [724B110A]
16 98,8 [242A3881] [4228A1BD]
17 91,1 [98D14F80] [86C7B9D7]

VA - Pure... Fitness (2013) {4CD Box Set}

VA - Pure... Fitness (2013) {4CD Box Set}

See also:
VA - Pure… Jazz (2010) {4CD Box Set}
VA - Pure… Psychedelic Rock (2010) {4CD Box Set}
VA - Pure… Hard Rock (2011) {4CD Box Set}
VA - Pure… Latin Dance (2012) {4CD Box Set}
VA - Pure… Electronic 80s (2014) {4CD Box Set}

All thanks go to gvm55

Visit my blog!

Download: