Tags
Language
Tags

VA - The Best Of Blue Note (1991)

Posted By: Designol
VA - The Best Of Blue Note (1991)

VA - The Best Of Blue Note (1991)
EAC | FLAC | Tracks (Cue&Log) ~ 375 Mb | Mp3 (CBR320) ~ 165 Mb | Scans ~ 63 Mb
Hard Bop, Soul-Jazz, Modal | Label: Blue Note | # CDP 7 96110 2 | Time: 01:11:59

Granted, a single-disc overview of Blue Note's finest recordings can't help but offer listeners more than a myopic view of the label's true scope, but for jazz neophytes, this nine-track collection will undoubtedly serve as a tantalizing taste of the company's riches. The song selection, though lacking few surprises, is consistently wonderful – how could a disc featuring John Coltrane's "Blue Train," Herbie Hancock's "Maiden Voyage," Horace Silver's "Song for My Father" and Lee Morgan's "The Sidewinder" be anything but? – and purists' complaints aside, for new fans it's a solid introduction to the Blue Note magic.

Review by Jason Ankeny, Allmusic.com

Tracklist:

01. John Coltrane - Blue Train (10:42)
02. Herbie Hancock - Maiden Voyage (7:58)
03. Donald Byrd - Cristo Redentor (5:42)
04. Art Blakey & The Jazz Messengers - Moanin' (9:33)
05. Lou Donaldson - Blues Walk (6:44)
06. Horace Silver - Song For My Father (7:22)
07. Jimmy Smith - Back At The Chicken Shack (8:04)
08. Kenny Burrell - Chitlins Con Carne (5:28)
09. Lee Morgan - The Sidewinder (10:25)


Exact Audio Copy V1.0 beta 4 from 7. December 2014

EAC extraction logfile from 16. September 2018, 22:33

Various Artists / The Best Of Blue Note

Used drive : TSSTcorpCDDVDW SH-224DB Adapter: 1 ID: 0

Read mode : Secure
Utilize accurate stream : Yes
Defeat audio cache : Yes
Make use of C2 pointers : No

Read offset correction : 6
Overread into Lead-In and Lead-Out : No
Fill up missing offset samples with silence : Yes
Delete leading and trailing silent blocks : No
Null samples used in CRC calculations : Yes
Used interface : Native Win32 interface for Win NT & 2000
Gap handling : Appended to previous track

Used output format : User Defined Encoder
Selected bitrate : 896 kBit/s
Quality : High
Add ID3 tag : No
Command line compressor : C:\Program Files\Exact Audio Copy\Flac\flac.exe
Additional command line options : -5 -V -T "ARTIST=%artist%" -T "TITLE=%title%" -T "ALBUM=%albumtitle%" -T "DATE=%year%" -T "TRACKNUMBER=%tracknr%" -T "GENRE=%genre%" -T "COMMENT=%comment%" %source% -o %dest%


TOC of the extracted CD

Track | Start | Length | Start sector | End sector
––––––––––––––––––––––––––––-
1 | 0:00.00 | 10:42.15 | 0 | 48164
2 | 10:42.15 | 7:58.33 | 48165 | 84047
3 | 18:40.48 | 5:42.32 | 84048 | 109729
4 | 24:23.05 | 9:32.48 | 109730 | 152677
5 | 33:55.53 | 6:44.17 | 152678 | 182994
6 | 40:39.70 | 7:21.65 | 182995 | 216134
7 | 48:01.60 | 8:04.03 | 216135 | 252437
8 | 56:05.63 | 5:28.37 | 252438 | 277074
9 | 61:34.25 | 10:24.60 | 277075 | 323934


Track 1

Filename C:\New Folder\01 - John Coltrane - Blue Train.wav

Pre-gap length 0:00:02.00

Peak level 43.9 %
Extraction speed 2.3 X
Track quality 100.0 %
Test CRC 1F6BF5C0
Copy CRC 1F6BF5C0
Accurately ripped (confidence 51) [465D6A2B] (AR v2)
Copy OK

Track 2

Filename C:\New Folder\02 - Herbie Hancock - Maiden Voyage.wav

Pre-gap length 0:00:01.37

Peak level 56.3 %
Extraction speed 2.5 X
Track quality 99.9 %
Test CRC 888E0163
Copy CRC 888E0163
Accurately ripped (confidence 50) [BCD1AD4F] (AR v2)
Copy OK

Track 3

Filename C:\New Folder\03 - Donald Byrd - Cristo Redentor.wav

Pre-gap length 0:00:02.63

Peak level 53.5 %
Extraction speed 2.8 X
Track quality 100.0 %
Test CRC FE87185C
Copy CRC FE87185C
Accurately ripped (confidence 51) [41A341D9] (AR v2)
Copy OK

Track 4

Filename C:\New Folder\04 - Art Blakey & The Jazz Messengers - Moanin'.wav

Pre-gap length 0:00:01.35

Peak level 60.1 %
Extraction speed 3.2 X
Track quality 100.0 %
Test CRC 3CEEFDC5
Copy CRC 3CEEFDC5
Accurately ripped (confidence 51) [88776E39] (AR v2)
Copy OK

Track 5

Filename C:\New Folder\05 - Lou Donaldson - Blues Walk.wav

Pre-gap length 0:00:02.28

Peak level 53.6 %
Extraction speed 3.4 X
Track quality 100.0 %
Test CRC 09838F05
Copy CRC 09838F05
Accurately ripped (confidence 50) [0E3D3E16] (AR v2)
Copy OK

Track 6

Filename C:\New Folder\06 - Horace Silver - Song For My Father.wav

Pre-gap length 0:00:02.62

Peak level 74.3 %
Extraction speed 3.4 X
Track quality 99.9 %
Test CRC 670102A2
Copy CRC 670102A2
Accurately ripped (confidence 49) [E84A17F0] (AR v2)
Copy OK

Track 7

Filename C:\New Folder\07 - Jimmy Smith - Back At The Chicken Shack.wav

Pre-gap length 0:00:05.55

Peak level 58.3 %
Extraction speed 3.6 X
Track quality 99.9 %
Test CRC 71AD33F4
Copy CRC 71AD33F4
Accurately ripped (confidence 51) [3F0361A2] (AR v2)
Copy OK

Track 8

Filename C:\New Folder\08 - Kenny Burrell - Chitlins Con Carne.wav

Pre-gap length 0:00:01.25

Peak level 44.4 %
Extraction speed 3.9 X
Track quality 100.0 %
Test CRC C272984D
Copy CRC C272984D
Accurately ripped (confidence 47) [582325D5] (AR v2)
Copy OK

Track 9

Filename C:\New Folder\09 - Lee Morgan - The Sidewinder.wav

Pre-gap length 0:00:01.65

Peak level 58.0 %
Extraction speed 4.0 X
Track quality 99.9 %
Test CRC 36BCCBA5
Copy CRC 36BCCBA5
Accurately ripped (confidence 44) [5B78FC35] (AR v2)
Copy OK


All tracks accurately ripped

No errors occurred

End of status report

–– CUETools DB Plugin V2.1.4

[CTDB TOCID: Gu6V68VFoWbgNd_HHi6KM7j7A24-] found
Submit result: Gu6V68VFoWbgNd_HHi6KM7j7A24- has been confirmed
Track | CTDB Status
1 | (86/89) Accurately ripped
2 | (88/89) Accurately ripped
3 | (89/89) Accurately ripped
4 | (89/89) Accurately ripped
5 | (88/89) Accurately ripped
6 | (88/89) Accurately ripped
7 | (86/89) Accurately ripped
8 | (86/89) Accurately ripped
9 | (81/89) Accurately ripped


==== Log checksum 7946D95F7A1F1761DCB5B1F995C4786A59D258EFAF06FBB76FF795EB77433053 ====

foobar2000 1.2 / Dynamic Range Meter 1.1.1
log date: 2018-10-01 20:53:38

––––––––––––––––––––––––––––––––––––––––
Analyzed: Art Blakey & The Jazz Messengers / The Best Of Blue Note (1)
Donald Byrd / The Best Of Blue Note (2)
Herbie Hancock / The Best Of Blue Note (3)
Horace Silver / The Best Of Blue Note (4)
Jimmy Smith / The Best Of Blue Note (5)
John Coltrane / The Best Of Blue Note (6)
Kenny Burrell / The Best Of Blue Note (7)
Lee Morgan / The Best Of Blue Note (8)
Lou Donaldson / The Best Of Blue Note (9)
––––––––––––––––––––––––––––––––––––––––

DR Peak RMS Duration Track
––––––––––––––––––––––––––––––––––––––––
DR13 -4.41 dB -20.97 dB 9:33 04-Moanin'
DR12 -5.42 dB -21.33 dB 5:42 03-Cristo Redentor
DR14 -4.98 dB -24.50 dB 7:58 02-Maiden Voyage
DR14 -2.58 dB -20.65 dB 7:22 06-Song For My Father
DR14 -4.67 dB -21.38 dB 8:04 07-Back At The Chicken Shack
DR13 -7.14 dB -22.37 dB 10:42 01-Blue Train
DR13 -7.04 dB -23.53 dB 5:28 08-Chitlins Con Carne
DR13 -4.73 dB -20.80 dB 10:25 09-The Sidewinder
DR13 -5.41 dB -22.33 dB 6:44 05-Blues Walk
––––––––––––––––––––––––––––––––––––––––

Number of tracks: 9
Official DR value: DR13

Samplerate: 44100 Hz
Channels: 2
Bits per sample: 16
Bitrate: 757 kbps
Codec: FLAC
================================================================================

VA - The Best Of Blue Note (1991)

VA - The Best Of Blue Note (1991)