Subcategories

VA - The Best Smooth Jazz ...Ever! (2003) {4CD Box Set, Deluxe Edition}

Posted By: popsakov
VA - The Best Smooth Jazz ...Ever! (2003) {4CD Box Set, Deluxe Edition}

VA - The Best Smooth Jazz …Ever! (2003) {4CD Box Set, Deluxe Edition}
EAC Rip | FLAC (Img) + Cue + Log ~ 1,63 Gb | MP3 CBR320 ~ 676 Mb
Full Scans (JPG, 600 dpi) ~ 85 Mb | RAR 5% Recovery
Smooth Jazz / Contemporary Jazz / Nu Jazz / Chillout / Jazz Funk / Soul
Virgin Records #VTDCDX570 / 7243 5 92684 2 2

Four CD set features over four hours of jazz classics from such artists as Norah Jones, St. Germain, Nina Simone, Shuggy Otis, Luther Vandross, Ella Fitzgerald, & many more. It's the 1st part of popular series "The Best… Ever!"

***************

VA - The Best Smooth Jazz ...Ever! (2003) {4CD Box Set, Deluxe Edition}

Track List CD1:

01. US3 / Canteloop [0:03:44.74]
02. Buddy Rich / The Beat Goes On [0:04:57.33]
03. Bobby Womack / California Dreaming [0:03:21.45]
04. Minnie Riperton & Hose Feliciano / Light My Fire [0:05:10.59]
05. Bill Withers / Ain't No Sunshine [0:02:05.36]
06. Cassandra Wilson / I Can't Stand The Rain [0:05:27.31]
07. Louis Armstrong / We Have All The Time In The World [0:03:13.73]
08. Julie London / Fly Me To The Moon [0:02:34.18]
09. Billy Taylor / I Wish I Knew How It Would Feel To Be Free [0:03:40.06]
10. Ronnie Laws / Always There [0:04:52.31]
11. Charlie Hunter & Norma Jones / More Than This [0:04:10.59]
12. St. Germain / Sure Thing [0:03:47.11]
13. Paul Jackson Jr. / Inner City Blues [0:04:39.62]
14. Earl Knight / I Heard It Through The Grapevine [0:04:12.10]
15. Bobby McFerrin / Don't Worry Be Happy [0:03:55.34]
16. Nina Simone / Work Song [0:02:35.74]
17. Nat King Cole / Nature Boy [0:02:38.70]

Exact Audio Copy V1.3 from 2. September 2016

EAC extraction logfile from 8. July 2017, 9:31

Various Artists / The Best Smooth Jazz …Ever! (CD1)

Used drive : PLEXTOR DVDR PX-716A Adapter: 1 ID: 0

Read mode : Secure
Utilize accurate stream : Yes
Defeat audio cache : Yes
Make use of C2 pointers : No

Read offset correction : 30
Overread into Lead-In and Lead-Out : No
Fill up missing offset samples with silence : Yes
Delete leading and trailing silent blocks : No
Null samples used in CRC calculations : Yes
Used interface : Installed external ASPI interface

Used output format : User Defined Encoder
Selected bitrate : 1024 kBit/s
Quality : High
Add ID3 tag : No
Command line compressor : C:\Program Files (x86)\Exact Audio Copy\Flac\flac.exe
Additional command line options : -6 -V -T "ARTIST=%artist%" -T "TITLE=%title%" -T "ALBUM=%albumtitle%" -T "DATE=%year%" -T "TRACKNUMBER=%tracknr%" -T "GENRE=%genre%" -T "COMMENT=%comment%" -T "BAND=%albuminterpret%" -T "ALBUMARTIST=%albuminterpret%" -T "COMPOSER=%composer%" %haslyrics%–tag-from-file=LYRICS="%lyricsfile%"%haslyrics% -T "DISCNUMBER=%cdnumber%" -T "TOTALDISCS=%totalcds%" -T "TOTALTRACKS=%numtracks%" %hascover%–picture="%coverfile%"%hascover% %source% -o %dest%


TOC of the extracted CD

Track | Start | Length | Start sector | End sector
––––––––––––––––––––––––––––-
1 | 0:00.00 | 3:44.74 | 0 | 16873
2 | 3:44.74 | 4:57.33 | 16874 | 39181
3 | 8:42.32 | 3:21.45 | 39182 | 54301
4 | 12:04.02 | 5:10.59 | 54302 | 77610
5 | 17:14.61 | 2:05.36 | 77611 | 87021
6 | 19:20.22 | 5:27.31 | 87022 | 111577
7 | 24:47.53 | 3:13.73 | 111578 | 126125
8 | 28:01.51 | 2:34.18 | 126126 | 137693
9 | 30:35.69 | 3:40.06 | 137694 | 154199
10 | 34:16.00 | 4:52.31 | 154200 | 176130
11 | 39:08.31 | 4:10.59 | 176131 | 194939
12 | 43:19.15 | 3:47.11 | 194940 | 211975
13 | 47:06.26 | 4:39.62 | 211976 | 232962
14 | 51:46.13 | 4:12.10 | 232963 | 251872
15 | 55:58.23 | 3:55.34 | 251873 | 269531
16 | 59:53.57 | 2:35.74 | 269532 | 281230
17 | 62:29.56 | 2:38.70 | 281231 | 293150


Range status and errors

Selected range

Filename C:\mm\VA\2003 - The Best Smooth Jazz …Ever! {4CDs} [VTDCDX570]\Various Artists - The Best Smooth Jazz …Ever! (CD1).wav

Peak level 97.1 %
Extraction speed 13.5 X
Range quality 100.0 %
Test CRC 9DC54777
Copy CRC 9DC54777
Copy OK

No errors occurred

End of status report

–– CUETools DB Plugin V2.1.6

[CTDB TOCID: EeuPpzZsU10rl1.jMPk1zV4sOCg-] found
Submit result: EeuPpzZsU10rl1.jMPk1zV4sOCg- has been confirmed
Track | CTDB Status
1 | (13/13) Accurately ripped
2 | (13/13) Accurately ripped
3 | (13/13) Accurately ripped
4 | (13/13) Accurately ripped
5 | (13/13) Accurately ripped
6 | (12/13) Accurately ripped
7 | (12/13) Accurately ripped
8 | (13/13) Accurately ripped
9 | (13/13) Accurately ripped
10 | (12/13) Accurately ripped
11 | (12/13) Accurately ripped
12 | (12/13) Accurately ripped
13 | (12/13) Accurately ripped
14 | (12/13) Accurately ripped
15 | (12/13) Accurately ripped
16 | (12/13) Accurately ripped
17 | (13/13) Accurately ripped

foobar2000 1.2.6 / Dynamic Range Meter 1.1.1
log date: 2017-08-24 21:36:27

––––––––––––––––––––––––––––––––––––––––
Analyzed: Bill Withers / The Best Of Smooth Jazz …Ever! (CD1) (1)
Billy Taylor / The Best Of Smooth Jazz …Ever! (CD1) (2)
Bobby McFerrin / The Best Of Smooth Jazz …Ever! (CD1) (3)
––––––––––––––––––––––––––––––––––––––––

DR Peak RMS Duration Track
––––––––––––––––––––––––––––––––––––––––
DR12 -0.25 dB -15.90 dB 2:05 05-Ain't No Sunshine
DR12 -1.74 dB -15.18 dB 3:40 09-I Wish I Knew How It Would Feel To Be Free
DR14 -1.13 dB -16.91 dB 3:55 15-Don't Worry Be Happy
––––––––––––––––––––––––––––––––––––––––

Number of tracks: 3
Official DR value: DR12

Samplerate: 44100 Hz
Channels: 2
Bits per sample: 16
Bitrate: 750 kbps
Codec: FLAC
================================================================================

––––––––––––––––––––––––––––––––––––––––
Statistics for: 03-California Dreaming
Number of samples: 8890560
Duration: 3:22
––––––––––––––––––––––––––––––––––––––––

Left Right

Peak Value: -2.99 dB –- -2.67 dB
Avg RMS: -13.60 dB –- -12.99 dB
DR channel: 8.23 dB –- 8.26 dB
––––––––––––––––––––––––––––––––––––––––

Official DR Value: DR8

Samplerate: 44100 Hz
Channels: 2
Bits per sample: 16
Bitrate: 750 kbps
Codec: FLAC
================================================================================
––––––––––––––––––––––––––––––––––––––––
Analyzed: Buddy Rich / The Best Of Smooth Jazz …Ever! (CD1) (1)
Cassandra Wilson / The Best Of Smooth Jazz …Ever! (CD1) (2)
Charlie Hunter & Norma Jones / The Best Of Smooth Jazz …Ever! (CD1) (3)
Earl Knight / The Best Of Smooth Jazz …Ever! (CD1) (4)
––––––––––––––––––––––––––––––––––––––––

DR Peak RMS Duration Track
––––––––––––––––––––––––––––––––––––––––
DR10 -2.34 dB -14.63 dB 4:57 02-The Beat Goes On
DR10 -2.40 dB -17.00 dB 5:27 06-I Can't Stand The Rain
DR11 -5.02 dB -18.07 dB 4:11 11-More Than This
DR12 -2.40 dB -16.04 dB 4:12 14-I Heard It Through The Grapevine
––––––––––––––––––––––––––––––––––––––––

Number of tracks: 4
Official DR value: DR11

Samplerate: 44100 Hz
Channels: 2
Bits per sample: 16
Bitrate: 750 kbps
Codec: FLAC
================================================================================

––––––––––––––––––––––––––––––––––––––––
Statistics for: 08-Fly Me To The Moon
Number of samples: 6801984
Duration: 2:34
––––––––––––––––––––––––––––––––––––––––

Left Right

Peak Value: -0.25 dB –- -2.49 dB
Avg RMS: -13.33 dB –- -16.27 dB
DR channel: 10.32 dB –- 11.38 dB
––––––––––––––––––––––––––––––––––––––––

Official DR Value: DR11

Samplerate: 44100 Hz
Channels: 2
Bits per sample: 16
Bitrate: 750 kbps
Codec: FLAC
================================================================================
––––––––––––––––––––––––––––––––––––––––
Statistics for: 07-We Have All The Time In The World
Number of samples: 8554224
Duration: 3:14
––––––––––––––––––––––––––––––––––––––––

Left Right

Peak Value: -2.26 dB –- -1.71 dB
Avg RMS: -15.13 dB –- -14.08 dB
DR channel: 11.02 dB –- 10.14 dB
––––––––––––––––––––––––––––––––––––––––

Official DR Value: DR11

Samplerate: 44100 Hz
Channels: 2
Bits per sample: 16
Bitrate: 750 kbps
Codec: FLAC
================================================================================
––––––––––––––––––––––––––––––––––––––––
Analyzed: Minnie Riperton & Hose Feliciano / The Best Of Smooth Jazz …Ever! (CD1) (1)
Nat King Cole / The Best Of Smooth Jazz …Ever! (CD1) (2)
––––––––––––––––––––––––––––––––––––––––

DR Peak RMS Duration Track
––––––––––––––––––––––––––––––––––––––––
DR13 -0.25 dB -15.63 dB 5:11 04-Light My Fire
DR12 -0.70 dB -17.38 dB 2:39 17-Nature Boy
––––––––––––––––––––––––––––––––––––––––

Number of tracks: 2
Official DR value: DR13

Samplerate: 44100 Hz
Channels: 2
Bits per sample: 16
Bitrate: 750 kbps
Codec: FLAC
================================================================================

––––––––––––––––––––––––––––––––––––––––
Statistics for: 16-Work Song
Number of samples: 6879012
Duration: 2:36
––––––––––––––––––––––––––––––––––––––––

Left Right

Peak Value: -1.88 dB –- -1.86 dB
Avg RMS: -17.40 dB –- -17.38 dB
DR channel: 12.97 dB –- 12.98 dB
––––––––––––––––––––––––––––––––––––––––

Official DR Value: DR13

Samplerate: 44100 Hz
Channels: 2
Bits per sample: 16
Bitrate: 750 kbps
Codec: FLAC
================================================================================
––––––––––––––––––––––––––––––––––––––––
Statistics for: 13-Inner City Blues
Number of samples: 12340356
Duration: 4:40
––––––––––––––––––––––––––––––––––––––––

Left Right

Peak Value: -7.00 dB –- -7.00 dB
Avg RMS: -16.34 dB –- -16.00 dB
DR channel: 7.46 dB –- 6.86 dB
––––––––––––––––––––––––––––––––––––––––

Official DR Value: DR7

Samplerate: 44100 Hz
Channels: 2
Bits per sample: 16
Bitrate: 750 kbps
Codec: FLAC
================================================================================
––––––––––––––––––––––––––––––––––––––––
Analyzed: Ronnie Laws / The Best Of Smooth Jazz …Ever! (CD1) (1)
St. Germain / The Best Of Smooth Jazz …Ever! (CD1) (2)
––––––––––––––––––––––––––––––––––––––––

DR Peak RMS Duration Track
––––––––––––––––––––––––––––––––––––––––
DR11 -2.76 dB -14.74 dB 4:52 10-Always There
DR8 -5.20 dB -14.54 dB 3:47 12-Sure Thing
––––––––––––––––––––––––––––––––––––––––

Number of tracks: 2
Official DR value: DR9

Samplerate: 44100 Hz
Channels: 2
Bits per sample: 16
Bitrate: 750 kbps
Codec: FLAC
================================================================================

––––––––––––––––––––––––––––––––––––––––
Statistics for: 01-Canteloop
Number of samples: 9921912
Duration: 3:45
––––––––––––––––––––––––––––––––––––––––

Left Right

Peak Value: -1.50 dB –- -2.61 dB
Avg RMS: -15.34 dB –- -15.40 dB
DR channel: 11.76 dB –- 11.31 dB
––––––––––––––––––––––––––––––––––––––––

Official DR Value: DR12

Samplerate: 44100 Hz
Channels: 2
Bits per sample: 16
Bitrate: 750 kbps
Codec: FLAC
================================================================================

[CUETools log; Date: 24.08.2017 21:36:49; Version: 2.1.5]
[CTDB TOCID: EeuPpzZsU10rl1.jMPk1zV4sOCg-] found.
Track | CTDB Status
1 | (14/14) Accurately ripped
2 | (14/14) Accurately ripped
3 | (14/14) Accurately ripped
4 | (14/14) Accurately ripped
5 | (14/14) Accurately ripped
6 | (13/14) Accurately ripped
7 | (13/14) Accurately ripped
8 | (14/14) Accurately ripped
9 | (14/14) Accurately ripped
10 | (13/14) Accurately ripped
11 | (13/14) Accurately ripped
12 | (13/14) Accurately ripped
13 | (13/14) Accurately ripped
14 | (13/14) Accurately ripped
15 | (13/14) Accurately ripped
16 | (13/14) Accurately ripped
17 | (14/14) Accurately ripped
[AccurateRip ID: 002972e2-020b41a5-e90f4411] found.
Track [ CRC | V2 ] Status
01 [21c7aa3a|029da523] (09+09/18) Accurately ripped
02 [d3fa9999|f9691157] (09+09/18) Accurately ripped
03 [21f8acbb|3b956117] (10+09/19) Accurately ripped
04 [cb76950f|9f936968] (10+09/19) Accurately ripped
05 [e0ce6d1b|88d947d3] (10+08/18) Accurately ripped
06 [f08fb96e|95c19dc0] (10+08/18) Accurately ripped
07 [745d4072|3708c421] (10+09/19) Accurately ripped
08 [6c2c49c5|23a31a4d] (10+09/19) Accurately ripped
09 [c9b53ec8|aea5cb46] (10+09/19) Accurately ripped
10 [ccfd9a3b|92ae03c3] (10+09/19) Accurately ripped
11 [ee0a7279|acefca0a] (10+09/19) Accurately ripped
12 [0d5af17b|8eb46dbc] (10+08/18) Accurately ripped
13 [18130af7|f4283089] (10+09/19) Accurately ripped
14 [d6f554d6|ee8d2284] (10+10/20) Accurately ripped
15 [7cd41e9a|2723a288] (10+09/19) Accurately ripped
16 [cd4a0180|195e9efb] (10+08/18) Accurately ripped
17 [e0c78628|3c5c0b4b] (10+08/18) Accurately ripped

Track Peak [ CRC32 ] [W/O NULL] [ LOG ]
– 97,1 [9DC54777] [36DBFFD0] CRC32
01 84,1 [17694389] [78DF3171]
02 76,4 [A7004E45] [87A22977]
03 73,5 [B66A2B44] [DC727141]
04 97,1 [41787D1B] [018F63A8]
05 97,1 [03E6E3D5] [7CF0D5DC]
06 75,8 [7976AED5] [6473BD36]
07 82,1 [A57DC9CC] [73BD9104]
08 97,1 [2670A19A] [5B426435]
09 81,8 [1B4454A0] [E45DE6A4]
10 72,8 [EC35C8C5] [4DF159E3]
11 56,1 [9CDC557F] [D1A48699]
12 54,9 [31FF5782] [9A869A0A]
13 44,6 [447C85AB] [7203C1A9]
14 75,8 [B76F29B9] [512598C4]
15 87,8 [A64AA51A] [8DDDC4D4]
16 80,6 [5BD6074C] [432E74FF]
17 92,2 [E34293D3] [BAF2924F]

Track List CD2:

01. Guru Feat. DC Lee / Ain't No Time to Play [0:03:34.15]
02. D'Angelo / Brown Sugar [0:04:04.62]
03. Bobbie Gentry / Son Of A Preacher Man [0:02:07.48]
04. Bob Dorough / 3 Is The Magic Number [0:03:15.38]
05. St. Germain / Rose Rouge [0:04:01.52]
06. Shuggie Otis / Strawberry Letter 23 [0:03:59.63]
07. Nancy Wilson / Call Me [0:02:14.16]
08. Donald Byrd / Just My Imagination [0:04:38.35]
09. Luther Vandross / So Amazing [0:03:43.62]
10. Cassandra Wilson / Time After Time [0:04:07.61]
11. Minnie Riperton / Lovin' You [0:03:46.25]
12. Bob Belden / Sister Moon [0:04:54.64]
13. Carleen Anderson / Maybe I'm Amazed [0:05:09.25]
14. Peggy Lee / I'm A Woman [0:02:10.68]
15. Nat 'King' Cole / Unforgetable [0:03:28.35]
16. Lou Rawls / Girl From Ipanema [0:03:49.17]
17. Cannonball Adderley / Sambop [0:03:34.14]
18. Elsa Soares / Mas Que Nada (Say No More) [0:02:27.33]

Exact Audio Copy V1.3 from 2. September 2016

EAC extraction logfile from 8. July 2017, 9:47

Various Artists / The Best Smooth Jazz …Ever! (CD2)

Used drive : PLEXTOR DVDR PX-716A Adapter: 1 ID: 0

Read mode : Secure
Utilize accurate stream : Yes
Defeat audio cache : Yes
Make use of C2 pointers : No

Read offset correction : 30
Overread into Lead-In and Lead-Out : No
Fill up missing offset samples with silence : Yes
Delete leading and trailing silent blocks : No
Null samples used in CRC calculations : Yes
Used interface : Installed external ASPI interface

Used output format : User Defined Encoder
Selected bitrate : 1024 kBit/s
Quality : High
Add ID3 tag : No
Command line compressor : C:\Program Files (x86)\Exact Audio Copy\Flac\flac.exe
Additional command line options : -6 -V -T "ARTIST=%artist%" -T "TITLE=%title%" -T "ALBUM=%albumtitle%" -T "DATE=%year%" -T "TRACKNUMBER=%tracknr%" -T "GENRE=%genre%" -T "COMMENT=%comment%" -T "BAND=%albuminterpret%" -T "ALBUMARTIST=%albuminterpret%" -T "COMPOSER=%composer%" %haslyrics%–tag-from-file=LYRICS="%lyricsfile%"%haslyrics% -T "DISCNUMBER=%cdnumber%" -T "TOTALDISCS=%totalcds%" -T "TOTALTRACKS=%numtracks%" %hascover%–picture="%coverfile%"%hascover% %source% -o %dest%


TOC of the extracted CD

Track | Start | Length | Start sector | End sector
––––––––––––––––––––––––––––-
1 | 0:00.00 | 3:34.15 | 0 | 16064
2 | 3:34.15 | 4:04.62 | 16065 | 34426
3 | 7:39.02 | 2:07.48 | 34427 | 43999
4 | 9:46.50 | 3:15.38 | 44000 | 58662
5 | 13:02.13 | 4:01.52 | 58663 | 76789
6 | 17:03.65 | 3:59.63 | 76790 | 94777
7 | 21:03.53 | 2:14.16 | 94778 | 104843
8 | 23:17.69 | 4:38.35 | 104844 | 125728
9 | 27:56.29 | 3:43.62 | 125729 | 142515
10 | 31:40.16 | 4:07.61 | 142516 | 161101
11 | 35:48.02 | 3:46.25 | 161102 | 178076
12 | 39:34.27 | 4:54.64 | 178077 | 200190
13 | 44:29.16 | 5:09.25 | 200191 | 223390
14 | 49:38.41 | 2:10.68 | 223391 | 233208
15 | 51:49.34 | 3:28.35 | 233209 | 248843
16 | 55:17.69 | 3:49.17 | 248844 | 266035
17 | 59:07.11 | 3:34.14 | 266036 | 282099
18 | 62:41.25 | 2:27.33 | 282100 | 293157


Range status and errors

Selected range

Filename C:\mm\VA\2003 - The Best Smooth Jazz …Ever! {4CDs} [VTDCDX570]\Various Artists - The Best Smooth Jazz …Ever! (CD2).wav

Peak level 97.1 %
Extraction speed 13.4 X
Range quality 100.0 %
Test CRC B1DDC1C6
Copy CRC B1DDC1C6
Copy OK

No errors occurred

End of status report

–– CUETools DB Plugin V2.1.6

[CTDB TOCID: WmsvEh9vU7Kzg_UJ1b31L9NUYP8-] found
Submit result: WmsvEh9vU7Kzg_UJ1b31L9NUYP8- has been confirmed
Track | CTDB Status
1 | (13/13) Accurately ripped
2 | (12/13) Accurately ripped
3 | (13/13) Accurately ripped
4 | (13/13) Accurately ripped
5 | (13/13) Accurately ripped
6 | (13/13) Accurately ripped
7 | (13/13) Accurately ripped
8 | (12/13) Accurately ripped, or (1/13) differs in 21 samples @01:24:38,01:29:72-01:29:73,01:31:25
9 | (12/13) Accurately ripped, or (1/13) differs in 4 samples @03:04:09
10 | (12/13) Accurately ripped, or (1/13) differs in 23 samples @01:26:43
11 | (13/13) Accurately ripped
12 | (13/13) Accurately ripped
13 | (13/13) Accurately ripped
14 | (12/13) Accurately ripped
15 | (12/13) Accurately ripped
16 | (13/13) Accurately ripped
17 | (12/13) Accurately ripped, or (1/13) differs in 45 samples @01:56:16-01:56:17
18 | (12/13) Accurately ripped, or (1/13) differs in 167 samples @00:10:37-00:10:38,00:13:16,01:14:60-01:14:61

foobar2000 1.2.6 / Dynamic Range Meter 1.1.1
log date: 2017-08-24 21:37:18

––––––––––––––––––––––––––––––––––––––––
Statistics for: 04-3 Is The Magic Number
Number of samples: 8621844
Duration: 3:16
––––––––––––––––––––––––––––––––––––––––

Left Right

Peak Value: -3.60 dB –- -3.60 dB
Avg RMS: -17.40 dB –- -18.02 dB
DR channel: 11.28 dB –- 11.93 dB
––––––––––––––––––––––––––––––––––––––––

Official DR Value: DR12

Samplerate: 44100 Hz
Channels: 2
Bits per sample: 16
Bitrate: 819 kbps
Codec: FLAC
================================================================================
––––––––––––––––––––––––––––––––––––––––
Analyzed: Bobbie Gentry / The Best Of Smooth Jazz …Ever! (CD2) (1)
Cannonball Adderley / The Best Of Smooth Jazz …Ever! (CD2) (2)
––––––––––––––––––––––––––––––––––––––––

DR Peak RMS Duration Track
––––––––––––––––––––––––––––––––––––––––
DR13 -0.34 dB -15.71 dB 2:08 03-Son Of A Preacher Man
DR13 -2.16 dB -17.00 dB 3:34 17-Sambop
––––––––––––––––––––––––––––––––––––––––

Number of tracks: 2
Official DR value: DR13

Samplerate: 44100 Hz
Channels: 2
Bits per sample: 16
Bitrate: 819 kbps
Codec: FLAC
================================================================================

––––––––––––––––––––––––––––––––––––––––
Statistics for: 13-Maybe I'm Amazed
Number of samples: 13641600
Duration: 5:09
––––––––––––––––––––––––––––––––––––––––

Left Right

Peak Value: -3.53 dB –- -3.53 dB
Avg RMS: -13.78 dB –- -14.03 dB
DR channel: 7.58 dB –- 8.02 dB
––––––––––––––––––––––––––––––––––––––––

Official DR Value: DR8

Samplerate: 44100 Hz
Channels: 2
Bits per sample: 16
Bitrate: 819 kbps
Codec: FLAC
================================================================================
––––––––––––––––––––––––––––––––––––––––
Statistics for: 10-Time After Time
Number of samples: 10928568
Duration: 4:08
––––––––––––––––––––––––––––––––––––––––

Left Right

Peak Value: -5.40 dB –- -5.40 dB
Avg RMS: -16.72 dB –- -16.65 dB
DR channel: 8.70 dB –- 8.45 dB
––––––––––––––––––––––––––––––––––––––––

Official DR Value: DR9

Samplerate: 44100 Hz
Channels: 2
Bits per sample: 16
Bitrate: 819 kbps
Codec: FLAC
================================================================================
––––––––––––––––––––––––––––––––––––––––
Analyzed: D'Angelo / The Best Of Smooth Jazz …Ever! (CD2) (1)
Donald Byrd / The Best Of Smooth Jazz …Ever! (CD2) (2)
Elsa Soares / The Best Of Smooth Jazz …Ever! (CD2) (3)
––––––––––––––––––––––––––––––––––––––––

DR Peak RMS Duration Track
––––––––––––––––––––––––––––––––––––––––
DR7 -5.40 dB -14.06 dB 4:05 02-Brown Sugar
DR10 -2.76 dB -14.51 dB 4:38 08-Just My Imagination
DR13 -0.25 dB -15.20 dB 2:27 18-Mas Que Nada (Say No More)
––––––––––––––––––––––––––––––––––––––––

Number of tracks: 3
Official DR value: DR10

Samplerate: 44100 Hz
Channels: 2
Bits per sample: 16
Bitrate: 819 kbps
Codec: FLAC
================================================================================

––––––––––––––––––––––––––––––––––––––––
Analyzed: Guru Feat. DC Lee / The Best Of Smooth Jazz …Ever! (CD2) (1)
Lou Rawls / The Best Of Smooth Jazz …Ever! (CD2) (2)
––––––––––––––––––––––––––––––––––––––––

DR Peak RMS Duration Track
––––––––––––––––––––––––––––––––––––––––
DR10 -4.02 dB -15.00 dB 3:34 01-Ain't No Time to Play
DR12 -0.25 dB -15.55 dB 3:49 16-Girl From Ipanema
––––––––––––––––––––––––––––––––––––––––

Number of tracks: 2
Official DR value: DR11

Samplerate: 44100 Hz
Channels: 2
Bits per sample: 16
Bitrate: 819 kbps
Codec: FLAC
================================================================================

––––––––––––––––––––––––––––––––––––––––
Analyzed: Luther Vandross / The Best Of Smooth Jazz …Ever! (CD2) (1)
Minnie Riperton / The Best Of Smooth Jazz …Ever! (CD2) (2)
––––––––––––––––––––––––––––––––––––––––

DR Peak RMS Duration Track
––––––––––––––––––––––––––––––––––––––––
DR10 -2.00 dB -15.23 dB 3:44 09-So Amazing
DR10 -3.40 dB -16.37 dB 3:46 11-Lovin' You
––––––––––––––––––––––––––––––––––––––––

Number of tracks: 2
Official DR value: DR10

Samplerate: 44100 Hz
Channels: 2
Bits per sample: 16
Bitrate: 819 kbps
Codec: FLAC
================================================================================

––––––––––––––––––––––––––––––––––––––––
Analyzed: Nancy Wilson / The Best Of Smooth Jazz …Ever! (CD2) (1)
Nat 'King' Cole / The Best Of Smooth Jazz …Ever! (CD2) (2)
––––––––––––––––––––––––––––––––––––––––

DR Peak RMS Duration Track
––––––––––––––––––––––––––––––––––––––––
DR10 -0.25 dB -14.30 dB 2:14 07-Call Me
DR10 -3.28 dB -16.71 dB 3:28 15-Unforgetable
––––––––––––––––––––––––––––––––––––––––

Number of tracks: 2
Official DR value: DR10

Samplerate: 44100 Hz
Channels: 2
Bits per sample: 16
Bitrate: 819 kbps
Codec: FLAC
================================================================================

––––––––––––––––––––––––––––––––––––––––
Statistics for: 14-I'm A Woman
Number of samples: 5772984
Duration: 2:11
––––––––––––––––––––––––––––––––––––––––

Left Right

Peak Value: -0.25 dB –- -0.25 dB
Avg RMS: -11.55 dB –- -12.72 dB
DR channel: 9.27 dB –- 10.27 dB
––––––––––––––––––––––––––––––––––––––––

Official DR Value: DR10

Samplerate: 44100 Hz
Channels: 2
Bits per sample: 16
Bitrate: 819 kbps
Codec: FLAC
================================================================================
––––––––––––––––––––––––––––––––––––––––
Statistics for: 06-Strawberry Letter 23
Number of samples: 10576944
Duration: 4:00
––––––––––––––––––––––––––––––––––––––––

Left Right

Peak Value: -1.81 dB –- -1.16 dB
Avg RMS: -13.73 dB –- -13.47 dB
DR channel: 10.06 dB –- 10.26 dB
––––––––––––––––––––––––––––––––––––––––

Official DR Value: DR10

Samplerate: 44100 Hz
Channels: 2
Bits per sample: 16
Bitrate: 819 kbps
Codec: FLAC
================================================================================
––––––––––––––––––––––––––––––––––––––––
Statistics for: 05-Rose Rouge
Number of samples: 10658676
Duration: 4:02
––––––––––––––––––––––––––––––––––––––––

Left Right

Peak Value: -9.20 dB –- -9.20 dB
Avg RMS: -19.05 dB –- -19.24 dB
DR channel: 7.74 dB –- 7.68 dB
––––––––––––––––––––––––––––––––––––––––

Official DR Value: DR8

Samplerate: 44100 Hz
Channels: 2
Bits per sample: 16
Bitrate: 819 kbps
Codec: FLAC
================================================================================

[CUETools log; Date: 24.08.2017 21:37:42; Version: 2.1.5]
[CTDB TOCID: WmsvEh9vU7Kzg_UJ1b31L9NUYP8-] found.
Track | CTDB Status
1 | (14/14) Accurately ripped
2 | (13/14) Accurately ripped
3 | (14/14) Accurately ripped
4 | (14/14) Accurately ripped
5 | (14/14) Accurately ripped
6 | (14/14) Accurately ripped
7 | (14/14) Accurately ripped
8 | (13/14) Accurately ripped, or (1/14) differs in 21 samples @01:24:38,01:29:72-01:29:73,01:31:25
9 | (13/14) Accurately ripped, or (1/14) differs in 4 samples @03:04:09
10 | (13/14) Accurately ripped, or (1/14) differs in 23 samples @01:26:43
11 | (14/14) Accurately ripped
12 | (14/14) Accurately ripped
13 | (14/14) Accurately ripped
14 | (13/14) Accurately ripped
15 | (13/14) Accurately ripped
16 | (14/14) Accurately ripped
17 | (13/14) Accurately ripped, or (1/14) differs in 45 samples @01:56:16-01:56:17
18 | (13/14) Accurately ripped, or (1/14) differs in 167 samples @00:10:37-00:10:38,00:13:16,01:14:60-01:14:61
[AccurateRip ID: 002a7ab0-023ae242-080f4412] found.
Track [ CRC | V2 ] Status
01 [16347c22|936d839b] (10+09/19) Accurately ripped
02 [2761c42e|c646af51] (09+08/17) Accurately ripped
03 [3ef89ee2|41f57a63] (10+08/18) Accurately ripped
04 [fbf9a316|07052cae] (09+08/17) Accurately ripped
05 [49f2b1fa|e46fdd2c] (10+08/18) Accurately ripped
06 [601be124|76f54c2d] (10+08/18) Accurately ripped
07 [348c5ad2|ffefaeec] (09+08/17) Accurately ripped
08 [6383ce75|07be0b8e] (09+07/16) Accurately ripped
09 [51335709|ae00e473] (09+08/17) Accurately ripped
10 [693066ee|ce61d176] (08+07/15) Accurately ripped
11 [0bbc0fb2|4c20a1df] (09+09/18) Accurately ripped
12 [44502210|6ed461fd] (09+09/18) Accurately ripped
13 [a041ff62|447b0d80] (08+08/16) Accurately ripped
14 [b550bc11|668e648a] (08+08/16) Accurately ripped
15 [7467c8b9|f80520e6] (09+08/17) Accurately ripped
16 [9ab8bbed|005221c8] (09+08/17) Accurately ripped
17 [dcb47639|79aaff92] (08+07/15) Accurately ripped
18 [90a64306|1fbb0914] (08+07/15) Accurately ripped

Track Peak [ CRC32 ] [W/O NULL] [ LOG ]
– 97,1 [B1DDC1C6] [BDB0583B] CRC32
01 62,9 [52657F90] [E2568549]
02 53,7 [C5E45A7F] [7FC94D9D]
03 96,2 [4BF98CDD] [08FC9361]
04 66,0 [6721EE1B] [A36B6891]
05 34,6 [852F963F] [FCD4FC0E]
06 87,4 [B36E0099] [1E9F7B87]
07 97,1 [B3225955] [F5C7912A]
08 72,7 [857F0976] [9BA5056C]
09 79,4 [AED5189D] [D226E4A4]
10 53,7 [933D2E01] [45B11612]
11 67,6 [F5C91312] [FC54D732]
12 97,1 [93CBAE61] [FE457E65]
13 66,6 [671E87FE] [F989A80A]
14 97,1 [0322D238] [AADABCEE]
15 68,5 [98E76C7D] [10F9469E]
16 97,1 [2E69D043] [9FDEA5F5]
17 77,9 [C2A01B3C] [14CCFF86]
18 97,1 [D3B3FC49] [C53BB62C]

Track List CD3:

01. Lou Rawls / For What It's Worth (Stop, Hey What's That Sound) [0:02:57.24]
02. Maze / Joy And Pain [0:04:33.35]
03. Timmy Thomas / Why Can't We Live Together [0:04:01.04]
04. The Isley Brothers / That Lady [0:05:36.70]
05. Bobbi Humphrey / You Are The Sunshine Of My Life [0:02:45.71]
06. Marlena Shaw / Save The Children [0:04:10.65]
07. Mica Paris / Stay [0:03:57.68]
08. Shara Nelson / Down That Road [0:03:46.20]
09. Arrested Development / Everyday People [0:04:08.40]
10. Doris / Never Come Closer [0:04:17.58]
11. Natalie Cole / This Will Be [0:02:51.13]
12. Ronnie Laws / Every Generation [0:05:53.13]
13. Ronnie Jordan & Roy Ayers / Mystic Voyage [0:04:16.01]
14. Bobby Hutcherson / Theme From M.A.S.H. [0:04:29.34]
15. Herbie Hancock / Canteloupe Island [0:05:28.04]
16. Cannonaball Adderley / Mercy Mercy [0:03:07.07]
17. Sarah Vaughan / Round About Midnight [0:03:35.26]
18. Ella Fitzgerald / Misty Blue [0:03:33.03]

Exact Audio Copy V1.3 from 2. September 2016

EAC extraction logfile from 8. July 2017, 19:58

Various Artists / The Best Smooth Jazz …Ever! (CD3)

Used drive : PLEXTOR DVDR PX-716A Adapter: 1 ID: 0

Read mode : Secure
Utilize accurate stream : Yes
Defeat audio cache : Yes
Make use of C2 pointers : No

Read offset correction : 30
Overread into Lead-In and Lead-Out : No
Fill up missing offset samples with silence : Yes
Delete leading and trailing silent blocks : No
Null samples used in CRC calculations : Yes
Used interface : Installed external ASPI interface

Used output format : User Defined Encoder
Selected bitrate : 1024 kBit/s
Quality : High
Add ID3 tag : No
Command line compressor : C:\Program Files (x86)\Exact Audio Copy\Flac\flac.exe
Additional command line options : -6 -V -T "ARTIST=%artist%" -T "TITLE=%title%" -T "ALBUM=%albumtitle%" -T "DATE=%year%" -T "TRACKNUMBER=%tracknr%" -T "GENRE=%genre%" -T "COMMENT=%comment%" -T "BAND=%albuminterpret%" -T "ALBUMARTIST=%albuminterpret%" -T "COMPOSER=%composer%" %haslyrics%–tag-from-file=LYRICS="%lyricsfile%"%haslyrics% -T "DISCNUMBER=%cdnumber%" -T "TOTALDISCS=%totalcds%" -T "TOTALTRACKS=%numtracks%" %hascover%–picture="%coverfile%"%hascover% %source% -o %dest%


TOC of the extracted CD

Track | Start | Length | Start sector | End sector
––––––––––––––––––––––––––––-
1 | 0:00.00 | 2:57.24 | 0 | 13298
2 | 2:57.24 | 4:33.35 | 13299 | 33808
3 | 7:30.59 | 4:01.04 | 33809 | 51887
4 | 11:31.63 | 5:36.70 | 51888 | 77157
5 | 17:08.58 | 2:45.71 | 77158 | 89603
6 | 19:54.54 | 4:10.65 | 89604 | 108418
7 | 24:05.44 | 3:57.68 | 108419 | 126261
8 | 28:03.37 | 3:46.20 | 126262 | 143231
9 | 31:49.57 | 4:08.40 | 143232 | 161871
10 | 35:58.22 | 4:17.58 | 161872 | 181204
11 | 40:16.05 | 2:51.13 | 181205 | 194042
12 | 43:07.18 | 5:53.13 | 194043 | 220530
13 | 49:00.31 | 4:16.01 | 220531 | 239731
14 | 53:16.32 | 4:29.34 | 239732 | 259940
15 | 57:45.66 | 5:28.04 | 259941 | 284544
16 | 63:13.70 | 3:07.07 | 284545 | 298576
17 | 66:21.02 | 3:35.26 | 298577 | 314727
18 | 69:56.28 | 3:33.03 | 314728 | 330705


Range status and errors

Selected range

Filename C:\mm\VA\2003 - The Best Smooth Jazz …Ever! {4CDs} [VTDCDX570]\Various Artists - The Best Smooth Jazz …Ever! (CD3).wav

Peak level 97.1 %
Extraction speed 14.1 X
Range quality 100.0 %
Test CRC 5151E64F
Copy CRC 5151E64F
Copy OK

No errors occurred

End of status report

–– CUETools DB Plugin V2.1.6

[CTDB TOCID: rISoAjfmrAmzzh771zZQI0ajAxk-] found
Submit result: rISoAjfmrAmzzh771zZQI0ajAxk- has been confirmed
Track | CTDB Status
1 | (12/12) Accurately ripped
2 | (12/12) Accurately ripped
3 | (12/12) Accurately ripped
4 | (12/12) Accurately ripped
5 | (12/12) Accurately ripped
6 | (12/12) Accurately ripped
7 | (12/12) Accurately ripped
8 | (12/12) Accurately ripped
9 | (12/12) Accurately ripped
10 | (12/12) Accurately ripped
11 | (12/12) Accurately ripped
12 | (12/12) Accurately ripped
13 | (11/12) Accurately ripped
14 | (11/12) Accurately ripped
15 | (11/12) Accurately ripped
16 | (11/12) Accurately ripped
17 | (11/12) Accurately ripped
18 | (11/12) Accurately ripped

foobar2000 1.2.6 / Dynamic Range Meter 1.1.1
log date: 2017-08-24 21:38:01

––––––––––––––––––––––––––––––––––––––––
Analyzed: Bobbi Humphrey / The Best Of Smooth Jazz …Ever! (CD3) (1)
Bobby Hutcherson / The Best Of Smooth Jazz …Ever! (CD3) (2)
Cannonaball Adderley / The Best Of Smooth Jazz …Ever! (CD3) (3)
––––––––––––––––––––––––––––––––––––––––

DR Peak RMS Duration Track
––––––––––––––––––––––––––––––––––––––––
DR10 -1.42 dB -13.79 dB 2:46 05-You Are The Sunshine Of My Life
DR11 -1.60 dB -15.33 dB 4:29 14-Theme From M.A.S.H.
DR12 -1.47 dB -16.84 dB 3:07 16-Mercy Mercy
––––––––––––––––––––––––––––––––––––––––

Number of tracks: 3
Official DR value: DR11

Samplerate: 44100 Hz
Channels: 2
Bits per sample: 16
Bitrate: 829 kbps
Codec: FLAC
================================================================================

––––––––––––––––––––––––––––––––––––––––
Analyzed: Doris / The Best Of Smooth Jazz …Ever! (CD3) (1)
Ella Fitzgerald / The Best Of Smooth Jazz …Ever! (CD3) (2)
––––––––––––––––––––––––––––––––––––––––

DR Peak RMS Duration Track
––––––––––––––––––––––––––––––––––––––––
DR12 -1.62 dB -17.11 dB 4:18 10-Never Come Closer
DR12 -1.80 dB -15.77 dB 3:33 18-Misty Blue
––––––––––––––––––––––––––––––––––––––––

Number of tracks: 2
Official DR value: DR12

Samplerate: 44100 Hz
Channels: 2
Bits per sample: 16
Bitrate: 829 kbps
Codec: FLAC
================================================================================

––––––––––––––––––––––––––––––––––––––––
Statistics for: 15-Canteloupe Island
Number of samples: 14467152
Duration: 5:28
––––––––––––––––––––––––––––––––––––––––

Left Right

Peak Value: -1.83 dB –- -0.25 dB
Avg RMS: -16.90 dB –- -15.51 dB
DR channel: 12.30 dB –- 13.14 dB
––––––––––––––––––––––––––––––––––––––––

Official DR Value: DR13

Samplerate: 44100 Hz
Channels: 2
Bits per sample: 16
Bitrate: 829 kbps
Codec: FLAC
================================================================================
––––––––––––––––––––––––––––––––––––––––
Analyzed: Lou Rawls / The Best Of Smooth Jazz …Ever! (CD3) (1)
Marlena Shaw / The Best Of Smooth Jazz …Ever! (CD3) (2)
––––––––––––––––––––––––––––––––––––––––

DR Peak RMS Duration Track
––––––––––––––––––––––––––––––––––––––––
DR11 -1.13 dB -13.91 dB 2:57 01-For What It's Worth (Stop, Hey What's That Sound)
DR10 -2.60 dB -14.56 dB 4:11 06-Save The Children
––––––––––––––––––––––––––––––––––––––––

Number of tracks: 2
Official DR value: DR11

Samplerate: 44100 Hz
Channels: 2
Bits per sample: 16
Bitrate: 829 kbps
Codec: FLAC
================================================================================

––––––––––––––––––––––––––––––––––––––––
Analyzed: Maze / The Best Of Smooth Jazz …Ever! (CD3) (1)
Mica Paris / The Best Of Smooth Jazz …Ever! (CD3) (2)
Natalie Cole / The Best Of Smooth Jazz …Ever! (CD3) (3)
Ronnie Jordan & Roy Ayers / The Best Of Smooth Jazz …Ever! (CD3) (4)
––––––––––––––––––––––––––––––––––––––––

DR Peak RMS Duration Track
––––––––––––––––––––––––––––––––––––––––
DR13 -0.43 dB -16.06 dB 4:33 02-Joy And Pain
DR7 -7.40 dB -15.40 dB 3:58 07-Stay
DR11 -0.60 dB -13.46 dB 2:51 11-This Will Be
DR8 -7.40 dB -16.24 dB 4:16 13-Mystic Voyage
––––––––––––––––––––––––––––––––––––––––

Number of tracks: 4
Official DR value: DR9

Samplerate: 44100 Hz
Channels: 2
Bits per sample: 16
Bitrate: 829 kbps
Codec: FLAC
================================================================================

––––––––––––––––––––––––––––––––––––––––
Analyzed: Ronnie Laws / The Best Of Smooth Jazz …Ever! (CD3) (1)
Sarah Vaughan / The Best Of Smooth Jazz …Ever! (CD3) (2)
––––––––––––––––––––––––––––––––––––––––

DR Peak RMS Duration Track
––––––––––––––––––––––––––––––––––––––––
DR12 -0.25 dB -14.13 dB 5:53 12-Every Generation
DR10 -3.04 dB -16.84 dB 3:35 17-Round About Midnight
––––––––––––––––––––––––––––––––––––––––

Number of tracks: 2
Official DR value: DR11

Samplerate: 44100 Hz
Channels: 2
Bits per sample: 16
Bitrate: 829 kbps
Codec: FLAC
================================================================================

––––––––––––––––––––––––––––––––––––––––
Statistics for: 08-Down That Road
Number of samples: 9978360
Duration: 3:46
––––––––––––––––––––––––––––––––––––––––

Left Right

Peak Value: -4.00 dB –- -4.00 dB
Avg RMS: -14.38 dB –- -13.86 dB
DR channel: 8.90 dB –- 8.43 dB
––––––––––––––––––––––––––––––––––––––––

Official DR Value: DR9

Samplerate: 44100 Hz
Channels: 2
Bits per sample: 16
Bitrate: 829 kbps
Codec: FLAC
================================================================================
––––––––––––––––––––––––––––––––––––––––
Statistics for: 04-That Lady
Number of samples: 14858760
Duration: 5:37
––––––––––––––––––––––––––––––––––––––––

Left Right

Peak Value: -1.28 dB –- -1.62 dB
Avg RMS: -13.91 dB –- -13.75 dB
DR channel: 11.24 dB –- 10.87 dB
––––––––––––––––––––––––––––––––––––––––

Official DR Value: DR11

Samplerate: 44100 Hz
Channels: 2
Bits per sample: 16
Bitrate: 829 kbps
Codec: FLAC
================================================================================
––––––––––––––––––––––––––––––––––––––––
Statistics for: 03-Why Can't We Live Together
Number of samples: 10630452
Duration: 4:01
––––––––––––––––––––––––––––––––––––––––

Left Right

Peak Value: -0.99 dB –- -0.25 dB
Avg RMS: -15.27 dB –- -14.14 dB
DR channel: 12.70 dB –- 12.48 dB
––––––––––––––––––––––––––––––––––––––––

Official DR Value: DR13

Samplerate: 44100 Hz
Channels: 2
Bits per sample: 16
Bitrate: 829 kbps
Codec: FLAC
================================================================================

[CUETools log; Date: 24.08.2017 21:38:18; Version: 2.1.5]
[CTDB TOCID: rISoAjfmrAmzzh771zZQI0ajAxk-] found.
Track | CTDB Status
1 | (13/13) Accurately ripped
2 | (13/13) Accurately ripped
3 | (13/13) Accurately ripped
4 | (13/13) Accurately ripped
5 | (13/13) Accurately ripped
6 | (13/13) Accurately ripped
7 | (13/13) Accurately ripped
8 | (13/13) Accurately ripped
9 | (13/13) Accurately ripped
10 | (13/13) Accurately ripped
11 | (13/13) Accurately ripped
12 | (13/13) Accurately ripped
13 | (12/13) Accurately ripped
14 | (12/13) Accurately ripped
15 | (12/13) Accurately ripped
16 | (12/13) Accurately ripped
17 | (12/13) Accurately ripped
18 | (12/13) Accurately ripped
[AccurateRip ID: 002fc0cf-02803631-25113912] found.
Track [ CRC | V2 ] Status
01 [9d54dbcc|eed016bb] (11+08/19) Accurately ripped
02 [a68c527b|d202eb1f] (11+08/19) Accurately ripped
03 [ec81bab8|a6a5b4f9] (11+08/19) Accurately ripped
04 [6c2e1a99|202bc901] (11+08/19) Accurately ripped
05 [27d38970|78f0c78f] (11+08/19) Accurately ripped
06 [fc79b390|560b27c1] (11+08/19) Accurately ripped
07 [3793db1e|a6763111] (11+08/19) Accurately ripped
08 [f00985a0|24d72fb5] (11+08/19) Accurately ripped
09 [436f5b07|7151bde7] (11+08/19) Accurately ripped
10 [7be0fd29|2b20e9cd] (11+08/19) Accurately ripped
11 [e2ba6751|fcf21aac] (11+09/20) Accurately ripped
12 [52bd6700|eaa26df4] (11+08/19) Accurately ripped
13 [e9046d13|07977f79] (11+08/19) Accurately ripped
14 [dc1589e5|4a9f54d4] (11+08/19) Accurately ripped
15 [57868228|0d4bb91e] (11+09/20) Accurately ripped
16 [52fa6918|bc0bc00d] (11+08/19) Accurately ripped
17 [f091f30b|ea43c106] (11+08/19) Accurately ripped
18 [972242e9|ca8d7ee4] (11+09/20) Accurately ripped

Track Peak [ CRC32 ] [W/O NULL] [ LOG ]
– 97,1 [5151E64F] [932AFE0D] CRC32
01 87,8 [0D2CB43D] [E236A386]
02 95,2 [0CD60F42] [BF0FEAAE]
03 97,1 [7D57DB07] [6DA8F650]
04 86,2 [9A9FC396] [C04EAB72]
05 84,9 [5CB4F607] [43814854]
06 74,1 [70DB666C] [D68F21CB]
07 42,6 [A0D5C5CA] [311B8B30]
08 63,1 [8DBFD7AE] [6541E024]
09 97,1 [6D039591] [03114129]
10 82,9 [930F7B88] [700376E0]
11 93,3 [3F673FE8] [94F6DD5E]
12 97,1 [48858E6E] [08490193]
13 42,6 [12E47D76] [680B9598]
14 83,1 [2021AE02] [40ACAF5C]
15 97,1 [C23A6D22] [B1C5B85B]
16 84,4 [1641A007] [858C8EB8]
17 70,4 [3FF62C62] [E9C8E667]
18 81,2 [FFF77EF2] [048D7EBF]

Track List CD4:

01. Chet Baker / My Funny Valentine [0:02:57.59]
02. Patrica Barber / Use Me [0:06:21.49]
03. Shirley Bassy / Something [0:03:34.21]
04. Julie London / Cry Me A River [0:02:49.38]
05. Peggy Lee / Here's That Rainy Day [0:02:47.46]
06. Duke Ellington & Louis Armstrong / I'm Just A Lucky So And So [0:03:07.44]
07. Sarah Vaughan / Stormy Weather [0:03:28.61]
08. Miles Davis & Cannonball Adderley / Autumn Leaves [0:05:14.26]
09. Bobby McFerrin / Thinking About Your Body [0:03:11.71]
10. Maze feat. Frankie Beverley / While I'm Alone [0:04:37.04]
11. Noel Pointer / Living For The City [0:05:19.08]
12. Earl Klugh / Living Inside Your Love [0:05:38.39]
13. Ronnie Foster / Me And Mrs Jones [0:04:24.57]
14. Tina Turner / I've Been Loving You Too Long (To Stop Now) [0:03:56.08]
15. Swing Out Sister / Something Deep In The Night [0:07:17.51]
16. Lou Rawls / You Made Me So Very Happy [0:04:27.44]
17. Marlena Shaw / Woman Of The Ghetto [0:08:23.52]

Exact Audio Copy V1.3 from 2. September 2016

EAC extraction logfile from 8. July 2017, 20:43

Various Artists / The Best Of Smooth Jazz …Ever! (CD4)

Used drive : PLEXTOR DVDR PX-716A Adapter: 1 ID: 0

Read mode : Secure
Utilize accurate stream : Yes
Defeat audio cache : Yes
Make use of C2 pointers : No

Read offset correction : 30
Overread into Lead-In and Lead-Out : No
Fill up missing offset samples with silence : Yes
Delete leading and trailing silent blocks : No
Null samples used in CRC calculations : Yes
Used interface : Installed external ASPI interface

Used output format : User Defined Encoder
Selected bitrate : 1024 kBit/s
Quality : High
Add ID3 tag : No
Command line compressor : C:\Program Files (x86)\Exact Audio Copy\Flac\flac.exe
Additional command line options : -6 -V -T "ARTIST=%artist%" -T "TITLE=%title%" -T "ALBUM=%albumtitle%" -T "DATE=%year%" -T "TRACKNUMBER=%tracknr%" -T "GENRE=%genre%" -T "COMMENT=%comment%" -T "BAND=%albuminterpret%" -T "ALBUMARTIST=%albuminterpret%" -T "COMPOSER=%composer%" %haslyrics%–tag-from-file=LYRICS="%lyricsfile%"%haslyrics% -T "DISCNUMBER=%cdnumber%" -T "TOTALDISCS=%totalcds%" -T "TOTALTRACKS=%numtracks%" %hascover%–picture="%coverfile%"%hascover% %source% -o %dest%


TOC of the extracted CD

Track | Start | Length | Start sector | End sector
––––––––––––––––––––––––––––-
1 | 0:00.00 | 2:57.59 | 0 | 13333
2 | 2:57.59 | 6:21.49 | 13334 | 41957
3 | 9:19.33 | 3:34.21 | 41958 | 58028
4 | 12:53.54 | 2:49.38 | 58029 | 70741
5 | 15:43.17 | 2:47.46 | 70742 | 83312
6 | 18:30.63 | 3:07.44 | 83313 | 97381
7 | 21:38.32 | 3:28.61 | 97382 | 113042
8 | 25:07.18 | 5:14.26 | 113043 | 136618
9 | 30:21.44 | 3:11.71 | 136619 | 151014
10 | 33:33.40 | 4:37.04 | 151015 | 171793
11 | 38:10.44 | 5:19.08 | 171794 | 195726
12 | 43:29.52 | 5:38.39 | 195727 | 221115
13 | 49:08.16 | 4:24.57 | 221116 | 240972
14 | 53:32.73 | 3:56.08 | 240973 | 258680
15 | 57:29.06 | 7:17.51 | 258681 | 291506
16 | 64:46.57 | 4:27.44 | 291507 | 311575
17 | 69:14.26 | 8:23.52 | 311576 | 349352


Range status and errors

Selected range

Filename C:\mm\VA\2003 - The Best Smooth Jazz …Ever! {4CDs} [VTDCDX570]\Various Artists - The Best Of Smooth Jazz …Ever! (CD4).wav

Peak level 97.1 %
Extraction speed 3.8 X
Range quality 100.0 %
Test CRC EBCC0B3C
Copy CRC EBCC0B3C
Copy OK

No errors occurred

End of status report

–– CUETools DB Plugin V2.1.6

[CTDB TOCID: VfKlEzxIzG.zSb87bC2z2Dqvikw-] found
Submit result: VfKlEzxIzG.zSb87bC2z2Dqvikw- has been confirmed
Track | CTDB Status
1 | (10/10) Accurately ripped
2 | (10/10) Accurately ripped
3 | (10/10) Accurately ripped
4 | (10/10) Accurately ripped
5 | (10/10) Accurately ripped
6 | (10/10) Accurately ripped
7 | (10/10) Accurately ripped
8 | (10/10) Accurately ripped
9 | (10/10) Accurately ripped
10 | (10/10) Accurately ripped
11 | (10/10) Accurately ripped
12 | (10/10) Accurately ripped
13 | (10/10) Accurately ripped
14 | (10/10) Accurately ripped
15 | (10/10) Accurately ripped
16 | (10/10) Accurately ripped
17 | ( 9/10) Accurately ripped

foobar2000 1.2.6 / Dynamic Range Meter 1.1.1
log date: 2017-08-24 21:39:11

––––––––––––––––––––––––––––––––––––––––
Analyzed: Chet Baker / The Best Of Smooth Jazz …Ever! (CD4) (1)
Duke Ellington & Louis Armstrong / The Best Of Smooth Jazz …Ever! (CD4) (2)
Earl Klugh / The Best Of Smooth Jazz …Ever! (CD4) (3)
––––––––––––––––––––––––––––––––––––––––

DR Peak RMS Duration Track
––––––––––––––––––––––––––––––––––––––––
DR11 -0.56 dB -15.44 dB 2:58 01-My Funny Valentine
DR12 -0.53 dB -15.54 dB 3:08 06-I'm Just A Lucky So And So
DR12 -5.07 dB -20.05 dB 5:39 12-Living Inside Your Love
––––––––––––––––––––––––––––––––––––––––

Number of tracks: 3
Official DR value: DR12

Samplerate: 44100 Hz
Channels: 2
Bits per sample: 16
Bitrate: 763 kbps
Codec: FLAC
================================================================================

––––––––––––––––––––––––––––––––––––––––
Analyzed: Julie London / The Best Of Smooth Jazz …Ever! (CD4) (1)
Lou Rawls / The Best Of Smooth Jazz …Ever! (CD4) (2)
Marlena Shaw / The Best Of Smooth Jazz …Ever! (CD4) (3)
––––––––––––––––––––––––––––––––––––––––

DR Peak RMS Duration Track
––––––––––––––––––––––––––––––––––––––––
DR11 -0.89 dB -15.17 dB 2:50 04-Cry Me A River
DR10 -1.92 dB -15.70 dB 4:28 16-You Made Me So Very Happy
DR11 -0.25 dB -13.52 dB 8:24 17-Woman Of The Ghetto
––––––––––––––––––––––––––––––––––––––––

Number of tracks: 3
Official DR value: DR11

Samplerate: 44100 Hz
Channels: 2
Bits per sample: 16
Bitrate: 763 kbps
Codec: FLAC
================================================================================

––––––––––––––––––––––––––––––––––––––––
Statistics for: 10-While I'm Alone
Number of samples: 12218052
Duration: 4:37
––––––––––––––––––––––––––––––––––––––––

Left Right

Peak Value: -1.62 dB –- -1.20 dB
Avg RMS: -17.90 dB –- -17.53 dB
DR channel: 13.39 dB –- 13.09 dB
––––––––––––––––––––––––––––––––––––––––

Official DR Value: DR13

Samplerate: 44100 Hz
Channels: 2
Bits per sample: 16
Bitrate: 763 kbps
Codec: FLAC
================================================================================
––––––––––––––––––––––––––––––––––––––––
Analyzed: Miles Davis & Cannonball Adderley / The Best Of Smooth Jazz …Ever! (CD4) (1)
Noel Pointer / The Best Of Smooth Jazz …Ever! (CD4) (2)
––––––––––––––––––––––––––––––––––––––––

DR Peak RMS Duration Track
––––––––––––––––––––––––––––––––––––––––
DR11 -1.58 dB -15.00 dB 5:14 08-Autumn Leaves
DR9 -5.60 dB -16.03 dB 5:19 11-Living For The City
––––––––––––––––––––––––––––––––––––––––

Number of tracks: 2
Official DR value: DR10

Samplerate: 44100 Hz
Channels: 2
Bits per sample: 16
Bitrate: 763 kbps
Codec: FLAC
================================================================================

––––––––––––––––––––––––––––––––––––––––
Analyzed: Patrica Barber / The Best Of Smooth Jazz …Ever! (CD4) (1)
Peggy Lee / The Best Of Smooth Jazz …Ever! (CD4) (2)
Ronnie Foster / The Best Of Smooth Jazz …Ever! (CD4) (3)
––––––––––––––––––––––––––––––––––––––––

DR Peak RMS Duration Track
––––––––––––––––––––––––––––––––––––––––
DR13 -0.25 dB -16.45 dB 6:22 02-Use Me
DR11 -0.25 dB -14.31 dB 2:48 05-Here's That Rainy Day
DR13 -0.25 dB -16.29 dB 4:25 13-Me And Mrs Jones
––––––––––––––––––––––––––––––––––––––––

Number of tracks: 3
Official DR value: DR12

Samplerate: 44100 Hz
Channels: 2
Bits per sample: 16
Bitrate: 763 kbps
Codec: FLAC
================================================================================

––––––––––––––––––––––––––––––––––––––––
Statistics for: 07-Stormy Weather
Number of samples: 9208668
Duration: 3:29
––––––––––––––––––––––––––––––––––––––––

Left Right

Peak Value: -2.20 dB –- -1.79 dB
Avg RMS: -14.64 dB –- -14.25 dB
DR channel: 9.55 dB –- 10.02 dB
––––––––––––––––––––––––––––––––––––––––

Official DR Value: DR10

Samplerate: 44100 Hz
Channels: 2
Bits per sample: 16
Bitrate: 763 kbps
Codec: FLAC
================================================================================
––––––––––––––––––––––––––––––––––––––––
Analyzed: Shirley Bassy / The Best Of Smooth Jazz …Ever! (CD4) (1)
Swing Out Sister / The Best Of Smooth Jazz …Ever! (CD4) (2)
––––––––––––––––––––––––––––––––––––––––

DR Peak RMS Duration Track
––––––––––––––––––––––––––––––––––––––––
DR12 -0.25 dB -14.45 dB 3:34 03-Something
DR11 -0.25 dB -14.16 dB 7:18 15-Something Deep In The Night
––––––––––––––––––––––––––––––––––––––––

Number of tracks: 2
Official DR value: DR11

Samplerate: 44100 Hz
Channels: 2
Bits per sample: 16
Bitrate: 763 kbps
Codec: FLAC
================================================================================

––––––––––––––––––––––––––––––––––––––––
Statistics for: 14-I've Been Loving You Too Long (To Stop Now)
Number of samples: 10412304
Duration: 3:56
––––––––––––––––––––––––––––––––––––––––

Left Right

Peak Value: -0.86 dB –- -4.30 dB
Avg RMS: -15.76 dB –- -17.16 dB
DR channel: 11.14 dB –- 8.45 dB
––––––––––––––––––––––––––––––––––––––––

Official DR Value: DR10

Samplerate: 44100 Hz
Channels: 2
Bits per sample: 16
Bitrate: 763 kbps
Codec: FLAC
================================================================================

[CUETools log; Date: 24.08.2017 21:39:32; Version: 2.1.5]
[CTDB TOCID: VfKlEzxIzG.zSb87bC2z2Dqvikw-] found.
Track | CTDB Status
1 | (11/11) Accurately ripped
2 | (11/11) Accurately ripped
3 | (11/11) Accurately ripped
4 | (11/11) Accurately ripped
5 | (11/11) Accurately ripped
6 | (11/11) Accurately ripped
7 | (11/11) Accurately ripped
8 | (11/11) Accurately ripped
9 | (11/11) Accurately ripped
10 | (11/11) Accurately ripped
11 | (11/11) Accurately ripped
12 | (11/11) Accurately ripped
13 | (11/11) Accurately ripped
14 | (11/11) Accurately ripped
15 | (11/11) Accurately ripped
16 | (11/11) Accurately ripped
17 | (10/11) Accurately ripped
[AccurateRip ID: 002ad192-0228104f-dd123211] found.
Track [ CRC | V2 ] Status
01 [2091e533|245c89b4] (10+08/18) Accurately ripped
02 [dba6a21b|5394be09] (10+07/17) Accurately ripped
03 [d8563dad|6182caff] (10+07/17) Accurately ripped
04 [d422c324|69e0a418] (10+07/17) Accurately ripped
05 [d002ddda|72c917e4] (10+07/17) Accurately ripped
06 [d5854257|e509f517] (09+08/17) Accurately ripped
07 [27a62aa3|c27134ed] (10+07/17) Accurately ripped
08 [6bf2acb8|1b508c8c] (10+08/18) Accurately ripped
09 [43727da1|4377b802] (10+08/18) Accurately ripped
10 [4da1f1f0|cddc66c6] (10+07/17) Accurately ripped
11 [e95f1467|21c750cd] (10+07/17) Accurately ripped
12 [bdc94a18|f21729cc] (10+08/18) Accurately ripped
13 [548b1127|d103af70] (10+07/17) Accurately ripped
14 [e429a1df|e8c04940] (10+07/17) Accurately ripped
15 [e64dd0ca|eb3afd82] (11+07/18) Accurately ripped
16 [f2f041b8|701e0a10] (10+07/17) Accurately ripped
17 [65b4148a|19f81c6a] (11+07/18) Accurately ripped

Track Peak [ CRC32 ] [W/O NULL] [ LOG ]
– 97,1 [EBCC0B3C] [A77C4C26] CRC32
01 93,7 [3A96C183] [324D909E]
02 97,1 [0B6455F8] [B9F68ABA]
03 97,1 [F9B75C80] [88E1CF46]
04 90,2 [21AA06A8] [20EB8533]
05 97,1 [828ADBAA] [25757FE6]
06 94,1 [F5D359E3] [43BDA8BD]
07 81,3 [07AAEFEB] [21BB1034]
08 83,3 [7147B924] [97EEF8FB]
09 65,8 [EDA81C27] [4D322285]
10 87,0 [B20D28FB] [569B9497]
11 52,4 [176BDA47] [C5F9E5FC]
12 55,7 [A086F19C] [C20254F3]
13 97,1 [C7552BF0] [9D17282D]
14 90,5 [15BB5CB1] [D6A0FD20]
15 97,1 [459FB746] [8B094581]
16 80,1 [1C18A842] [3FCDE537]
17 97,1 [4669C857] [BD103B35]

VA - The Best Smooth Jazz ...Ever! (2003) {4CD Box Set, Deluxe Edition}

All thanks go to sergych

>>> My Blog <<<

Download from icerbox.com: