Tags
Language
Tags

VA - The Greatest Easy Listening Album (2004) 2CDs

Posted By: Designol
VA - The Greatest Easy Listening Album (2004) 2CDs

VA - The Greatest Easy Listening Album (2004) 2CD
EAC | FLAC | Image (Cue&Log) ~ 642 Mb | Mp3 (CBR320) ~ 254 Mb | Scans included | 01:47:39
Vocal Jazz, Vocal Pop, Standarts, Easy Listening | Label: EMI Gold | # 7243 8 66259 2 2

36 tracks. Dean Martin, Tony Bennett, Sammy Davis, Matt Monro, Julie London, Bobby Darin, Louis Armstrong, Ella Fitzgerald, Andy Williams, Shirley Bassey, Engelbert Humperdinck, Peggy Lee, Al Martino, Nina Simone, Fred Astaire, Eartha Kitt, Bing Crosby, Mel Torme and more, and more…

VA - The Greatest Easy Listening Album (2004) 2CDs


Tracklist:

CD1:

01. Dean Martin - That's Amore (03:08)
02. Tony Bennett - Chicago (02:07)
03. Vic Damone - On the Street Where You Live (02:38)
04. Sammy Davis Jr - Please Don't Talk about Me when I'm Gone (02:39)
05. Matt Monro - Strangers in the Night (02:29)
06. Julie London - Mad about the Boy (02:10)
07. Bobby Darin - Fly Me to the Moon (02:54)
08. Danny Williams - I've Got You Under My Skin (03:16)
09. Louis Prima & Keely Smith - The at Old Black Magic (02:56)
10. Louis Armstrong - I Got It Bad and That Ain't Good (05:32)
11. Ella Fitzgerald - Misty Blue (02:28)
12. Nancy Wilson - The Very Thought of You (02:53)
13. Andy Williams - She'll Never Know (03:02)
14. Dick Haymes - The More I See You (02:50)
15. Alma Cogan - Eight Days a Week (03:52)
16. Dakota Staton - Dedicated to You (03:06)
17. Gordon McRae - I've Grown Accustomed to Her Face (02:37)
18. Shirley Bassey - Love Story (03:16)

CD2:

01. Engelbert Humperdinck - As Time Goes By (03:27)
02. Dean Martin - Kiss (02:22)
03. Peggy Lee - Always Something There to Remind Me (02:45)
04. Louis Armstrong - It Don't Mean a Thing (03:59)
05. Nina Simone - Try a Little Tenderness (03:26)
06. Al Martino - Spanish Eyes (02:47)
07. Julie London - Cry Me a River (02:49)
08. Dinah Washington - Call Me Irresponsible (02:19)
09. Bing Crosby - We've Only Just Begun (03:06)
10. Matt Monro - Born Free (02:47)
11. Michael Holliday - Story of My Life (02:14)
12. Fred Astaire - Cheek to Cheek (03:47)
13. Shirley Bassey - Something (03:35)
14. Eartha Kitt - The Girl from Ipanema (03:04)
15. Jo Stafford - The Best Things in Life Are Free (02:23)
16. Dinah Shore - It Had to Be You (03:23)
17. Chet Baker - They All Laughed (02:09)
18. Mel Torme - You're Getting to Be a Habit with Me (03:06)


Exact Audio Copy V0.99 prebeta 4 from 23. January 2008

Отчёт EAC об извлечении, выполненном 5. апреля 2009, 18:41

Various / The Greatest Easy Listening Album (disc 1)

Дисковод: Optiarc DVD RW AD-7203S Adapter: 3 ID: 1

Режим чтения : Достоверность
Использование точного потока : Да
Отключение кэша аудио : Да
Использование указателей C2 : Нет

Коррекция смещения при чтении : 48
Способность читать области Lead-in и Lead-out : Нет
Заполнение пропущенных сэмплов тишиной : Да
Удаление блоков с тишиной в начале и конце : Нет
При вычислениях CRC использовались нулевые сэмплы : Да
Интерфейс : Встроенный Win32-интерфейс для Win NT/2000

Выходной формат : Пользовательский кодировщик
Выбранный битрейт : 896 kBit/s
Качество : Высокий
Добавление ID3-тэга : Нет
Утилита сжатия : C:\Program Files\Exact Audio Copy\Flac\flac.exe
Дополнительные параметры : -0 -V -T "ARTIST=%a" -T "TITLE=%t" -T "ALBUM=%g" -T "DATE=%y" -T "TRACKNUMBER=%n" -T "GENRE=%m" -T "COMMENT=EAC FLAC -8" %s


TOC извлечённого CD

Трек | Старт | Длительность | Начальный сектор | Конечный сектор
––––––––––––––––––––––––––––––––––-
1 | 0:00.00 | 3:08.29 | 0 | 14128
2 | 3:08.29 | 2:07.51 | 14129 | 23704
3 | 5:16.05 | 2:38.63 | 23705 | 35617
4 | 7:54.68 | 2:39.37 | 35618 | 47579
5 | 10:34.30 | 2:29.16 | 47580 | 58770
6 | 13:03.46 | 2:10.47 | 58771 | 68567
7 | 15:14.18 | 2:54.61 | 68568 | 81678
8 | 18:09.04 | 3:16.23 | 81679 | 96401
9 | 21:25.27 | 2:56.59 | 96402 | 109660
10 | 24:22.11 | 5:32.16 | 109661 | 134576
11 | 29:54.27 | 2:28.66 | 134577 | 145742
12 | 32:23.18 | 2:53.05 | 145743 | 158722
13 | 35:16.23 | 3:02.15 | 158723 | 172387
14 | 38:18.38 | 2:50.31 | 172388 | 185168
15 | 41:08.69 | 3:52.70 | 185169 | 202638
16 | 45:01.64 | 3:06.63 | 202639 | 216651
17 | 48:08.52 | 2:37.47 | 216652 | 228473
18 | 50:46.24 | 3:16.33 | 228474 | 243206


Характеристики диапазона извлечения и сообщения об ошибках

Выбранный диапазон

Имя файла K:\Torrent\Jazz\The Greatest Easy Listening\CD-1\Various - The Greatest Easy Listening Album (disc 1).wav

Пиковый уровень 100.0 %
Качество диапазона 100.0 %
CRC теста 6794C28A
CRC копии 6794C28A
Копирование… OK

Ошибок не произошло


AccurateRip: сводка

Трек 1 нет в базе данных
Трек 2 нет в базе данных
Трек 3 нет в базе данных
Трек 4 нет в базе данных
Трек 5 нет в базе данных
Трек 6 нет в базе данных
Трек 7 нет в базе данных
Трек 8 нет в базе данных
Трек 9 нет в базе данных
Трек 10 нет в базе данных
Трек 11 нет в базе данных
Трек 12 нет в базе данных
Трек 13 нет в базе данных
Трек 14 нет в базе данных
Трек 15 нет в базе данных
Трек 16 нет в базе данных
Трек 17 нет в базе данных
Трек 18 нет в базе данных

Ни одного трека нет в базе AccurateRip

Конец отчёта

[CUETools log; Date: 21.10.2015 14:32:37; Version: 2.1.4]
[CTDB TOCID: nWQdYKGJPRWZkpsBkZt9mNahdXY-] found.
Track | CTDB Status
1 | (3/3) Accurately ripped
2 | (3/3) Accurately ripped
3 | (3/3) Accurately ripped
4 | (3/3) Accurately ripped
5 | (3/3) Accurately ripped
6 | (3/3) Accurately ripped
7 | (3/3) Accurately ripped
8 | (3/3) Accurately ripped
9 | (3/3) Accurately ripped
10 | (3/3) Accurately ripped
11 | (3/3) Accurately ripped
12 | (3/3) Accurately ripped
13 | (3/3) Accurately ripped
14 | (3/3) Accurately ripped
15 | (3/3) Accurately ripped
16 | (3/3) Accurately ripped
17 | (3/3) Accurately ripped
18 | (3/3) Accurately ripped
[AccurateRip ID: 0021ee45-01cade5a-fe0caa12] found.
Track [ CRC | V2 ] Status
01 [e7416a1f|e253977e] (0+1/1) Accurately ripped
02 [2f2d9e35|4ef2140e] (0+1/1) Accurately ripped
03 [e5945f71|86ee3fe4] (0+1/1) Accurately ripped
04 [679e65f4|fce276dd] (0+1/1) Accurately ripped
05 [aa9d6eab|5e5bb5bd] (0+1/1) Accurately ripped
06 [9ff73147|5d2d2cce] (0+1/1) Accurately ripped
07 [4fe374a1|53c6a06d] (0+1/1) Accurately ripped
08 [ba7a92fc|c5d2337d] (0+1/1) Accurately ripped
09 [c7f57d01|87c2c248] (0+1/1) Accurately ripped
10 [0cae1597|00a918ee] (0+1/1) Accurately ripped
11 [095a4835|9b7ae702] (0+1/1) Accurately ripped
12 [ef5caaf7|79c8903a] (0+1/1) Accurately ripped
13 [13e66ed4|24534d26] (0+1/1) Accurately ripped
14 [3896f9df|f9295dd5] (0+1/1) Accurately ripped
15 [1e779598|6187682a] (0+1/1) Accurately ripped
16 [39ba4796|151f8359] (0+1/1) Accurately ripped
17 [4c678b5d|1fbaf943] (0+1/1) Accurately ripped
18 [e486c783|d7d16e66] (0+1/1) Accurately ripped

Track Peak [ CRC32 ] [W/O NULL] [ LOG ]
– 100,0 [6794C28A] [4242ABFF] CRC32
01 100,0 [D3C9A425] [118D818C]
02 100,0 [249B1453] [E1606C18]
03 100,0 [C600DBF0] [9EFEAAD2]
04 100,0 [173C6828] [177C913A]
05 100,0 [F21498AD] [CCB4118D]
06 84,8 [0E1B6CBC] [88F82C4F]
07 100,0 [2AFEDA52] [3F78DD2F]
08 100,0 [B80121D9] [1CEBE51A]
09 100,0 [A81DC399] [E6074410]
10 100,0 [D9764F78] [0BC117C3]
11 87,9 [07A79F44] [7AB0C60C]
12 93,7 [EFA0F3D7] [C36A3CF3]
13 90,3 [7B161F53] [9ABDA2A6]
14 81,3 [FB9BD782] [B6597E3F]
15 61,7 [8DCCB11E] [637953AC]
16 100,0 [DB14E78C] [29FD7C09]
17 100,0 [D405F226] [146E45CB]
18 85,4 [831DE55F] [099A4014]

foobar2000 1.2 / Dynamic Range Meter 1.1.1
log date: 2015-10-21 12:40:40

––––––––––––––––––––––––––––––––––––––––
Statistics for: 13-She'll Never Know
Number of samples: 8035020
Duration: 3:02
––––––––––––––––––––––––––––––––––––––––

Left Right

Peak Value: -0.88 dB –- -1.97 dB
Avg RMS: -18.19 dB –- -17.77 dB
DR channel: 13.03 dB –- 11.87 dB
––––––––––––––––––––––––––––––––––––––––

Official DR Value: DR12

Samplerate: 44100 Hz
Channels: 2
Bits per sample: 16
Bitrate: 830 kbps
Codec: FLAC
================================================================================
––––––––––––––––––––––––––––––––––––––––
Analyzed: Bobby Darin / The Greatest Easy Listening Album (disc 1) (1)
Dakota Staton / The Greatest Easy Listening Album (disc 1) (2)
––––––––––––––––––––––––––––––––––––––––

DR Peak RMS Duration Track
––––––––––––––––––––––––––––––––––––––––
DR12 0.00 dB -15.79 dB 2:55 07-Fly Me to the Moon
DR13 0.00 dB -16.79 dB 3:07 16-Dedicated to You
––––––––––––––––––––––––––––––––––––––––

Number of tracks: 2
Official DR value: DR12

Samplerate: 44100 Hz
Channels: 2
Bits per sample: 16
Bitrate: 830 kbps
Codec: FLAC
================================================================================

––––––––––––––––––––––––––––––––––––––––
Statistics for: 08-I've Got You Under My Skin
Number of samples: 8657124
Duration: 3:16
––––––––––––––––––––––––––––––––––––––––

Left Right

Peak Value: 0.00 dB –- 0.00 dB
Avg RMS: -14.98 dB –- -12.46 dB
DR channel: 10.64 dB –- 9.26 dB
––––––––––––––––––––––––––––––––––––––––

Official DR Value: DR10

Samplerate: 44100 Hz
Channels: 2
Bits per sample: 16
Bitrate: 830 kbps
Codec: FLAC
================================================================================
––––––––––––––––––––––––––––––––––––––––
Analyzed: Dean Martin / The Greatest Easy Listening Album (disc 1) (1)
Dick Haymes / The Greatest Easy Listening Album (disc 1) (2)
––––––––––––––––––––––––––––––––––––––––

DR Peak RMS Duration Track
––––––––––––––––––––––––––––––––––––––––
DR12 0.00 dB -14.20 dB 3:08 01-That's Amore
DR10 -1.79 dB -15.52 dB 2:50 14-The More I See You
––––––––––––––––––––––––––––––––––––––––

Number of tracks: 2
Official DR value: DR11

Samplerate: 44100 Hz
Channels: 2
Bits per sample: 16
Bitrate: 830 kbps
Codec: FLAC
================================================================================

––––––––––––––––––––––––––––––––––––––––
Analyzed: Ella Fitzgerald / The Greatest Easy Listening Album (disc 1) (1)
Gordon McRae / The Greatest Easy Listening Album (disc 1) (2)
––––––––––––––––––––––––––––––––––––––––

DR Peak RMS Duration Track
––––––––––––––––––––––––––––––––––––––––
DR11 -1.12 dB -15.02 dB 2:29 11-Misty Blue
DR13 0.00 dB -14.05 dB 2:38 17-I've Grown Accustomed to Her Face
––––––––––––––––––––––––––––––––––––––––

Number of tracks: 2
Official DR value: DR12

Samplerate: 44100 Hz
Channels: 2
Bits per sample: 16
Bitrate: 830 kbps
Codec: FLAC
================================================================================

––––––––––––––––––––––––––––––––––––––––
Analyzed: Julie London / The Greatest Easy Listening Album (disc 1) (1)
Louis Armstrong / The Greatest Easy Listening Album (disc 1) (2)
––––––––––––––––––––––––––––––––––––––––

DR Peak RMS Duration Track
––––––––––––––––––––––––––––––––––––––––
DR10 -1.42 dB -14.48 dB 2:11 06-Mad about the Boy
DR13 0.00 dB -17.29 dB 5:32 10-I Got It Bad and That Ain't Good
––––––––––––––––––––––––––––––––––––––––

Number of tracks: 2
Official DR value: DR12

Samplerate: 44100 Hz
Channels: 2
Bits per sample: 16
Bitrate: 830 kbps
Codec: FLAC
================================================================================

––––––––––––––––––––––––––––––––––––––––
Statistics for: 09-The at Old Black Magic
Number of samples: 7796292
Duration: 2:57
––––––––––––––––––––––––––––––––––––––––

Left Right

Peak Value: 0.00 dB –- 0.00 dB
Avg RMS: -15.07 dB –- -14.87 dB
DR channel: 12.37 dB –- 11.95 dB
––––––––––––––––––––––––––––––––––––––––

Official DR Value: DR12

Samplerate: 44100 Hz
Channels: 2
Bits per sample: 16
Bitrate: 830 kbps
Codec: FLAC
================================================================================
––––––––––––––––––––––––––––––––––––––––
Analyzed: Matt Monro / The Greatest Easy Listening Album (disc 1) (1)
Nancy Wilson / The Greatest Easy Listening Album (disc 1) (2)
––––––––––––––––––––––––––––––––––––––––

DR Peak RMS Duration Track
––––––––––––––––––––––––––––––––––––––––
DR13 0.00 dB -14.92 dB 2:29 05-Strangers in the Night
DR11 -0.56 dB -15.37 dB 2:53 12-The Very Thought of You
––––––––––––––––––––––––––––––––––––––––

Number of tracks: 2
Official DR value: DR12

Samplerate: 44100 Hz
Channels: 2
Bits per sample: 16
Bitrate: 830 kbps
Codec: FLAC
================================================================================

––––––––––––––––––––––––––––––––––––––––
Analyzed: Sammy Davis Nr / The Greatest Easy Listening Album (disc 1) (1)
Shirley Bassey / The Greatest Easy Listening Album (disc 1) (2)
––––––––––––––––––––––––––––––––––––––––

DR Peak RMS Duration Track
––––––––––––––––––––––––––––––––––––––––
DR12 0.00 dB -13.96 dB 2:39 04-Please Don't Talk about Me when I'm Gone
DR11 -1.37 dB -15.16 dB 3:16 18-Love Story
––––––––––––––––––––––––––––––––––––––––

Number of tracks: 2
Official DR value: DR11

Samplerate: 44100 Hz
Channels: 2
Bits per sample: 16
Bitrate: 830 kbps
Codec: FLAC
================================================================================

––––––––––––––––––––––––––––––––––––––––
Analyzed: Tony Bennett / The Greatest Easy Listening Album (disc 1) (1)
Vic Damone / The Greatest Easy Listening Album (disc 1) (2)
––––––––––––––––––––––––––––––––––––––––

DR Peak RMS Duration Track
––––––––––––––––––––––––––––––––––––––––
DR10 0.00 dB -12.38 dB 2:08 02-Chicago
DR8 0.00 dB -10.91 dB 2:39 03-On the Street Where You Live
––––––––––––––––––––––––––––––––––––––––

Number of tracks: 2
Official DR value: DR9

Samplerate: 44100 Hz
Channels: 2
Bits per sample: 16
Bitrate: 830 kbps
Codec: FLAC
================================================================================

foobar2000 1.2 / Dynamic Range Meter 1.1.1
log date: 2015-10-21 12:40:39

––––––––––––––––––––––––––––––––––––––––
Statistics for: 15-Eight Days a Week
Number of samples: 10272360
Duration: 3:53
––––––––––––––––––––––––––––––––––––––––

Left Right

Peak Value: -4.18 dB –- -4.18 dB
Avg RMS: -14.56 dB –- -14.56 dB
DR channel: 8.20 dB –- 8.20 dB
––––––––––––––––––––––––––––––––––––––––

Official DR Value: DR8

Samplerate: 44100 Hz
Channels: 2
Bits per sample: 16
Bitrate: 830 kbps
Codec: FLAC
================================================================================


Exact Audio Copy V0.99 prebeta 4 from 23. January 2008

Отчёт EAC об извлечении, выполненном 5. апреля 2009, 19:18

Various / The Greatest Easy Listening Album (disc 2)

Дисковод: Optiarc DVD RW AD-7203S Adapter: 3 ID: 1

Режим чтения : Достоверность
Использование точного потока : Да
Отключение кэша аудио : Да
Использование указателей C2 : Нет

Коррекция смещения при чтении : 48
Способность читать области Lead-in и Lead-out : Нет
Заполнение пропущенных сэмплов тишиной : Да
Удаление блоков с тишиной в начале и конце : Нет
При вычислениях CRC использовались нулевые сэмплы : Да
Интерфейс : Встроенный Win32-интерфейс для Win NT/2000

Выходной формат : Пользовательский кодировщик
Выбранный битрейт : 896 kBit/s
Качество : Высокий
Добавление ID3-тэга : Нет
Утилита сжатия : C:\Program Files\Exact Audio Copy\Flac\flac.exe
Дополнительные параметры : -0 -V -T "ARTIST=%a" -T "TITLE=%t" -T "ALBUM=%g" -T "DATE=%y" -T "TRACKNUMBER=%n" -T "GENRE=%m" -T "COMMENT=EAC FLAC -8" %s


TOC извлечённого CD

Трек | Старт | Длительность | Начальный сектор | Конечный сектор
––––––––––––––––––––––––––––––––––-
1 | 0:00.00 | 3:27.00 | 0 | 15524
2 | 3:27.00 | 2:22.44 | 15525 | 26218
3 | 5:49.44 | 2:45.12 | 26219 | 38605
4 | 8:34.56 | 3:59.47 | 38606 | 56577
5 | 12:34.28 | 3:26.21 | 56578 | 72048
6 | 16:00.49 | 2:47.21 | 72049 | 84594
7 | 18:47.70 | 2:49.12 | 84595 | 97281
8 | 21:37.07 | 2:19.32 | 97282 | 107738
9 | 23:56.39 | 3:06.50 | 107739 | 121738
10 | 27:03.14 | 2:47.68 | 121739 | 134331
11 | 29:51.07 | 2:14.40 | 134332 | 144421
12 | 32:05.47 | 3:47.67 | 144422 | 161513
13 | 35:53.39 | 3:35.32 | 161514 | 177670
14 | 39:28.71 | 3:04.39 | 177671 | 191509
15 | 42:33.35 | 2:23.37 | 191510 | 202271
16 | 44:56.72 | 3:23.15 | 202272 | 217511
17 | 48:20.12 | 2:09.34 | 217512 | 227220
18 | 50:29.46 | 3:06.73 | 227221 | 241243


Характеристики диапазона извлечения и сообщения об ошибках

Выбранный диапазон

Имя файла K:\Torrent\Jazz\The Greatest Easy Listening\CD-2\Various - The Greatest Easy Listening Album (disc 2).wav

Пиковый уровень 100.0 %
Качество диапазона 100.0 %
CRC теста B098F640
CRC копии B098F640
Копирование… OK

Ошибок не произошло


AccurateRip: сводка

Трек 1 нет в базе данных
Трек 2 нет в базе данных
Трек 3 нет в базе данных
Трек 4 нет в базе данных
Трек 5 нет в базе данных
Трек 6 нет в базе данных
Трек 7 нет в базе данных
Трек 8 нет в базе данных
Трек 9 нет в базе данных
Трек 10 нет в базе данных
Трек 11 нет в базе данных
Трек 12 нет в базе данных
Трек 13 нет в базе данных
Трек 14 нет в базе данных
Трек 15 нет в базе данных
Трек 16 нет в базе данных
Трек 17 нет в базе данных
Трек 18 нет в базе данных

Ни одного трека нет в базе AccurateRip

Конец отчёта

[CUETools log; Date: 21.10.2015 14:32:50; Version: 2.1.4]
[CTDB TOCID: NqFKFTau6y7LFBRnu3xhj.FyRmg-] found.
Track | CTDB Status
1 | (3/3) Accurately ripped
2 | (3/3) Accurately ripped
3 | (3/3) Accurately ripped
4 | (3/3) Accurately ripped
5 | (3/3) Accurately ripped
6 | (3/3) Accurately ripped
7 | (3/3) Accurately ripped
8 | (3/3) Accurately ripped
9 | (3/3) Accurately ripped
10 | (3/3) Accurately ripped
11 | (3/3) Accurately ripped
12 | (3/3) Accurately ripped
13 | (3/3) Accurately ripped
14 | (3/3) Accurately ripped
15 | (3/3) Accurately ripped
16 | (3/3) Accurately ripped
17 | (3/3) Accurately ripped
18 | (3/3) Accurately ripped
[AccurateRip ID: 00235ece-01d632aa-040c9012] found.
Track [ CRC | V2 ] Status
01 [e00717ad|05c00651] (0+1/1) Accurately ripped
02 [30b67b3e|f420c3c4] (0+1/1) Accurately ripped
03 [e9e5d820|4664c3c4] (0+1/1) Accurately ripped
04 [6d144da0|40c2790f] (0+1/1) Accurately ripped
05 [2fa0f05d|9aa1d801] (0+1/1) Accurately ripped
06 [2ed22764|e721f9d6] (0+1/1) Accurately ripped
07 [e5d15b0e|280a04d2] (0+1/1) Accurately ripped
08 [bd604c3d|b2434726] (0+1/1) Accurately ripped
09 [a3ce3a97|16b4b854] (0+1/1) Accurately ripped
10 [96fda5cf|4a0ee7e5] (0+1/1) Accurately ripped
11 [d482f2dd|06c0b203] (0+1/1) Accurately ripped
12 [a5ffede6|b9b5fef1] (0+1/1) Accurately ripped
13 [3fbe1b8d|d5a31efd] (0+1/1) Accurately ripped
14 [5a7c4158|e7fa9ec2] (0+1/1) Accurately ripped
15 [933084b6|6713fcd1] (0+1/1) Accurately ripped
16 [7348a58a|9d90373a] (0+1/1) Accurately ripped
17 [aeedc5d5|f9070178] (0+1/1) Accurately ripped
18 [8b9c469f|1e450fa5] (0+1/1) Accurately ripped

Track Peak [ CRC32 ] [W/O NULL] [ LOG ]
– 100,0 [B098F640] [C6474088] CRC32
01 73,4 [729DB100] [FA620C0F]
02 71,2 [5F686019] [6CE6D58E]
03 82,2 [2641467B] [F144C9A5]
04 94,7 [C57D9670] [8B5794D4]
05 96,5 [FB2962F2] [9A51A16A]
06 65,9 [1DA2C989] [C5460715]
07 85,2 [12BA0327] [FED673C0]
08 91,6 [063A895B] [A24356BD]
09 52,6 [E2EE53E0] [AC7F3281]
10 74,6 [9D7C5B8C] [3F606945]
11 92,8 [3D10198A] [4CA4617A]
12 61,9 [7D715D85] [0A0A984E]
13 89,9 [C84178E6] [0C786C64]
14 83,6 [68D10C2A] [99396BF6]
15 100,0 [9A315954] [23F5C540]
16 82,9 [725594E4] [E7079832]
17 78,5 [67D142C0] [6AAA0D07]
18 100,0 [B655C809] [1B989EF0]

foobar2000 1.2 / Dynamic Range Meter 1.1.1
log date: 2015-10-21 12:40:55

––––––––––––––––––––––––––––––––––––––––
Analyzed: Al Martino / The Greatest Easy Listening Album (disc 2) (1)
Bing Crosby / The Greatest Easy Listening Album (disc 2) (2)
Chet Baker / The Greatest Easy Listening Album (disc 2) (3)
––––––––––––––––––––––––––––––––––––––––

DR Peak RMS Duration Track
––––––––––––––––––––––––––––––––––––––––
DR10 -3.61 dB -15.88 dB 2:47 06-Spanish Eyes
DR9 -5.57 dB -17.93 dB 3:07 09-We've Only Just Begun
DR12 -2.09 dB -16.54 dB 2:09 17-They All Laughed
––––––––––––––––––––––––––––––––––––––––

Number of tracks: 3
Official DR value: DR10

Samplerate: 44100 Hz
Channels: 2
Bits per sample: 16
Bitrate: 817 kbps
Codec: FLAC
================================================================================

––––––––––––––––––––––––––––––––––––––––
Analyzed: Dean Martin / The Greatest Easy Listening Album (disc 2) (1)
Dinah Shore / The Greatest Easy Listening Album (disc 2) (2)
––––––––––––––––––––––––––––––––––––––––

DR Peak RMS Duration Track
––––––––––––––––––––––––––––––––––––––––
DR11 -2.94 dB -16.54 dB 2:23 02-Kiss
DR13 -1.63 dB -18.59 dB 3:23 16-It Had to Be You
––––––––––––––––––––––––––––––––––––––––

Number of tracks: 2
Official DR value: DR12

Samplerate: 44100 Hz
Channels: 2
Bits per sample: 16
Bitrate: 817 kbps
Codec: FLAC
================================================================================

––––––––––––––––––––––––––––––––––––––––
Analyzed: Dinah Washington / The Greatest Easy Listening Album (disc 2) (1)
Eartha Kitt / The Greatest Easy Listening Album (disc 2) (2)
––––––––––––––––––––––––––––––––––––––––

DR Peak RMS Duration Track
––––––––––––––––––––––––––––––––––––––––
DR12 -0.76 dB -17.85 dB 2:19 08-Call Me Irresponsible
DR11 -1.55 dB -15.05 dB 3:05 14-The Girl from Ipanema
––––––––––––––––––––––––––––––––––––––––

Number of tracks: 2
Official DR value: DR12

Samplerate: 44100 Hz
Channels: 2
Bits per sample: 16
Bitrate: 817 kbps
Codec: FLAC
================================================================================

––––––––––––––––––––––––––––––––––––––––
Analyzed: Engelbert Humperdinck / The Greatest Easy Listening Album (disc 2) (1)
Fred Astaire / The Greatest Easy Listening Album (disc 2) (2)
Jo Stafford / The Greatest Easy Listening Album (disc 2) (3)
––––––––––––––––––––––––––––––––––––––––

DR Peak RMS Duration Track
––––––––––––––––––––––––––––––––––––––––
DR11 -2.68 dB -18.91 dB 3:27 01-As Time Goes By
DR10 -4.15 dB -16.23 dB 3:48 12-Cheek to Cheek
DR14 0.00 dB -16.10 dB 2:23 15-The Best Things in Life Are Free
––––––––––––––––––––––––––––––––––––––––

Number of tracks: 3
Official DR value: DR12

Samplerate: 44100 Hz
Channels: 2
Bits per sample: 16
Bitrate: 817 kbps
Codec: FLAC
================================================================================

––––––––––––––––––––––––––––––––––––––––
Statistics for: 07-Cry Me a River
Number of samples: 7459956
Duration: 2:49
––––––––––––––––––––––––––––––––––––––––

Left Right

Peak Value: -1.39 dB –- -2.19 dB
Avg RMS: -15.53 dB –- -15.81 dB
DR channel: 11.10 dB –- 11.29 dB
––––––––––––––––––––––––––––––––––––––––

Official DR Value: DR11

Samplerate: 44100 Hz
Channels: 2
Bits per sample: 16
Bitrate: 817 kbps
Codec: FLAC
================================================================================
––––––––––––––––––––––––––––––––––––––––
Analyzed: Louis Armstrong / The Greatest Easy Listening Album (disc 2) (1)
Matt Monro / The Greatest Easy Listening Album (disc 2) (2)
Mel Torme / The Greatest Easy Listening Album (disc 2) (3)
––––––––––––––––––––––––––––––––––––––––

DR Peak RMS Duration Track
––––––––––––––––––––––––––––––––––––––––
DR14 -0.47 dB -17.62 dB 4:00 04-It Don't Mean a Thing
DR9 -2.54 dB -14.45 dB 2:48 10-Born Free
DR14 0.00 dB -18.07 dB 3:07 18-You're Getting to Be a Habit with Me
––––––––––––––––––––––––––––––––––––––––

Number of tracks: 3
Official DR value: DR13

Samplerate: 44100 Hz
Channels: 2
Bits per sample: 16
Bitrate: 817 kbps
Codec: FLAC
================================================================================

––––––––––––––––––––––––––––––––––––––––
Statistics for: 11-Story of My Life
Number of samples: 5932920
Duration: 2:15
––––––––––––––––––––––––––––––––––––––––

Left Right

Peak Value: -0.66 dB –- -0.64 dB
Avg RMS: -16.85 dB –- -16.81 dB
DR channel: 12.61 dB –- 12.59 dB
––––––––––––––––––––––––––––––––––––––––

Official DR Value: DR13

Samplerate: 44100 Hz
Channels: 2
Bits per sample: 16
Bitrate: 817 kbps
Codec: FLAC
================================================================================
––––––––––––––––––––––––––––––––––––––––
Statistics for: 05-Try a Little Tenderness
Number of samples: 9096948
Duration: 3:26
––––––––––––––––––––––––––––––––––––––––

Left Right

Peak Value: -0.30 dB –- -1.00 dB
Avg RMS: -14.66 dB –- -15.09 dB
DR channel: 9.28 dB –- 8.74 dB
––––––––––––––––––––––––––––––––––––––––

Official DR Value: DR9

Samplerate: 44100 Hz
Channels: 2
Bits per sample: 16
Bitrate: 817 kbps
Codec: FLAC
================================================================================
––––––––––––––––––––––––––––––––––––––––
Analyzed: Peggy Lee / The Greatest Easy Listening Album (disc 2) (1)
Shirley Bassey / The Greatest Easy Listening Album (disc 2) (2)
––––––––––––––––––––––––––––––––––––––––

DR Peak RMS Duration Track
––––––––––––––––––––––––––––––––––––––––
DR13 -1.70 dB -17.07 dB 2:45 03-Always Something There to Remind Me
DR10 -0.92 dB -14.98 dB 3:35 13-Something
––––––––––––––––––––––––––––––––––––––––

Number of tracks: 2
Official DR value: DR11

Samplerate: 44100 Hz
Channels: 2
Bits per sample: 16
Bitrate: 817 kbps
Codec: FLAC
================================================================================

VA - The Greatest Easy Listening Album (2004) 2CDs

All thanks to original releaser - raozn

More interesting music in My Blog