Subcategories
Tags
Language
Tags

VA - The Many Faces Of The Cure (2016) {3CD Box Set}

Posted By: popsakov
VA - The Many Faces Of The Cure (2016) {3CD Box Set}

VA - The Many Faces Of The Cure (2016) {3CD Box Set}
EAC Rip | FLAC (Img) + Cue + Log ~ 1,07 Gb | MP3 CBR320 ~ 387 Mb
Full Scans ~ 133 Mb | RAR 5% Recovery
Alternative Rock, Post Punk, New Wave | Music Brokers #MBB7235

Without a doubt, The Cure is one of the most essentials bands from the 80s with an iconic image that is on pair with superstars of that time such as Madonna, Michael Jackson, Duran Duran and Boy George. Surging as part of the post punk and dark-rock movement, The Cure and especially their leader, Robert Smith, had the cunning ability to create -within their large catalog- multiple hit songs that have become absolute pop classics, without compromising its credibility.

The Many Faces Of The Cure showcases the parallel paths of the band members, some of Robert Smith collaborations with other artists, the mostly unknown post-Cure projects by the band’s drummer / keyboardist Lol Tolhurst and by bassist Simon Gallup and of course, their songs, both performed by the band itself and by a large number of artists who have respectfully created fantastic new versions. With expanded liner notes, a luxurious cover art and remastered sound, The Many Faces Of The Cure is an album that every fan needs to add to his record collection… and that is not available on streaming platforms!

***************

VA - The Many Faces Of The Cure (2016) {3CD Box Set}

Track List CD1 - The Many Faces Of The Cure:

01. Junior Jack feat Robert Smith - Da Hype [3:04]
02. Presence feat Laurence Tolhurst - Never [4:25]
03. Presence feat Laurence Tolhurst - All I See [4:59]
04. Presence feat Laurence Tolhurst - Act Of Faith [4:09]
05. Presence feat Laurence Tolhurst - Fragments [3:44]
06. Fools Dance feat Simon Gallup - Happy Families Waiting (At The Skylab Landing Bay) [4:00]
07. Fools Dance feat Simon Gallup - They'll Never Know [3:19]
08. Fools Dance feat Simon Gallup - Sa'ha [4:28]
09. Fools Dance feat Simon Gallup - Empty Hours [3:32]
10. Fools Dance feat Simon Gallup - The Collector [3:27]
11. Reeves Gabrels - 119 Years Ago [6:22]
12. Reeves Gabrels - Thirteen [4:05]

Exact Audio Copy V1.0 beta 3 from 29. August 2011

EAC extraction logfile from 20. February 2017, 11:18

Various Artists / THE MANY FACES OF THE CURE CD1

Used drive : PIONEER BD-RW BDR-TD03 Adapter: 0 ID: 1

Read mode : Secure
Utilize accurate stream : Yes
Defeat audio cache : Yes
Make use of C2 pointers : No

Read offset correction : 667
Overread into Lead-In and Lead-Out : No
Fill up missing offset samples with silence : Yes
Delete leading and trailing silent blocks : No
Null samples used in CRC calculations : Yes
Used interface : Native Win32 interface for Win NT & 2000

Used output format : User Defined Encoder
Selected bitrate : 768 kBit/s
Quality : High
Add ID3 tag : No
Command line compressor : C:\Program Files (x86)\Exact Audio Copy\FLAC\FLAC.EXE
Additional command line options : -6 -V -T "ARTIST=%artist%" -T "TITLE=%title%" -T "ALBUM=%albumtitle%" -T "DATE=%year%" -T "TRACKNUMBER=%tracknr%" -T "GENRE=%genre%" -T "COMMENT=%comment%" -T "BAND=%albuminterpret%" -T "ALBUMARTIST=%albuminterpret%" -T "COMPOSER=%composer%" %haslyrics%–tag-from-file=LYRICS="%lyricsfile%"%haslyrics% -T "DISCNUMBER=%cdnumber%" -T "TOTALDISCS=%totalcds%" -T "TOTALTRACKS=%numtracks%" %hascover%–picture="%coverfile%"%hascover% %source% -o %dest%


TOC of the extracted CD

Track | Start | Length | Start sector | End sector
––––––––––––––––––––––––––––-
1 | 0:00.00 | 3:04.00 | 0 | 13799
2 | 3:04.00 | 4:25.00 | 13800 | 33674
3 | 7:29.00 | 4:59.00 | 33675 | 56099
4 | 12:28.00 | 4:09.19 | 56100 | 74793
5 | 16:37.19 | 3:44.00 | 74794 | 91593
6 | 20:21.19 | 4:00.19 | 91594 | 109612
7 | 24:21.38 | 3:18.38 | 109613 | 124500
8 | 27:40.01 | 4:27.57 | 124501 | 144582
9 | 32:07.58 | 3:31.38 | 144583 | 160445
10 | 35:39.21 | 3:26.38 | 160446 | 175933
11 | 39:05.59 | 6:22.00 | 175934 | 204583
12 | 45:27.59 | 4:04.57 | 204584 | 222940


Range status and errors

Selected range

Filename C:\Users\Deris\Desktop\kpnemo.eu\TriCur\CD1\Various Artists - THE MANY FACES OF THE CURE CD1.wav

Peak level 100.0 %
Extraction speed 4.7 X
Range quality 100.0 %
Test CRC 1133F50E
Copy CRC 1133F50E
Copy OK

No errors occurred


AccurateRip summary

Track 1 not present in database
Track 2 not present in database
Track 3 not present in database
Track 4 not present in database
Track 5 not present in database
Track 6 not present in database
Track 7 not present in database
Track 8 not present in database
Track 9 not present in database
Track 10 not present in database
Track 11 not present in database
Track 12 not present in database

None of the tracks are present in the AccurateRip database

End of status report

–– CUETools DB Plugin V2.1.3

[CTDB TOCID: wTIS6L_E8_i1h3mjHFqvgbAH24o-] found, Submit result: wTIS6L_E8_i1h3mjHFqvgbAH24o- has been confirmed
[107abe9c] (4/4) Accurately ripped


==== Log checksum 6D5D0D25E0E4EB858D7660E32BB3446D6FB8F5AE0727FF82C06C588E20AA8E87 ====

foobar2000 1.2.6 / Dynamic Range Meter 1.1.1
log date: 2017-03-02 16:33:23

––––––––––––––––––––––––––––––––––––––––
Analyzed: Fools Dance feat Simon Gallup / THE MANY FACES OF THE CURE CD1
––––––––––––––––––––––––––––––––––––––––

DR Peak RMS Duration Track
––––––––––––––––––––––––––––––––––––––––
DR7 0.00 dB -8.27 dB 4:00 06-Happy Families Waiting (At The Skylab Landing Bay)
DR8 0.00 dB -9.17 dB 3:19 07-They'll Never Know
DR7 0.00 dB -8.48 dB 4:28 08-Sa'ha
DR6 0.00 dB -7.64 dB 3:32 09-Empty Hours
DR4 0.00 dB -4.99 dB 3:27 10-The Collector
––––––––––––––––––––––––––––––––––––––––

Number of tracks: 5
Official DR value: DR6

Samplerate: 44100 Hz
Channels: 2
Bits per sample: 16
Bitrate: 920 kbps
Codec: FLAC
================================================================================

––––––––––––––––––––––––––––––––––––––––
Analyzed: Junior Jack feat Robert Smith / THE MANY FACES OF THE CURE CD1 (1)
Presence feat Laurence Tolhurst / THE MANY FACES OF THE CURE CD1 (2-5)
Reeves Gabrels / THE MANY FACES OF THE CURE CD1 (6-7)
––––––––––––––––––––––––––––––––––––––––

DR Peak RMS Duration Track
––––––––––––––––––––––––––––––––––––––––
DR6 0.00 dB -8.07 dB 3:04 01-Da Hype
DR8 0.00 dB -8.99 dB 4:25 02-Never
DR8 0.00 dB -9.32 dB 4:59 03-All I See
DR8 0.00 dB -9.05 dB 4:09 04-Act Of Faith
DR8 0.00 dB -9.26 dB 3:44 05-Fragments
DR8 0.00 dB -9.61 dB 6:22 11-119 Years Ago
DR8 0.00 dB -11.43 dB 4:05 12-Thirteen
––––––––––––––––––––––––––––––––––––––––

Number of tracks: 7
Official DR value: DR8

Samplerate: 44100 Hz
Channels: 2
Bits per sample: 16
Bitrate: 920 kbps
Codec: FLAC
================================================================================

[CUETools log; Date: 02.03.2017 16:33:48; Version: 2.1.5]
[CTDB TOCID: wTIS6L_E8_i1h3mjHFqvgbAH24o-] found.
Track | CTDB Status
1 | (7/7) Accurately ripped
2 | (7/7) Accurately ripped
3 | (7/7) Accurately ripped
4 | (7/7) Accurately ripped
5 | (7/7) Accurately ripped
6 | (7/7) Accurately ripped
7 | (7/7) Accurately ripped
8 | (7/7) Accurately ripped
9 | (7/7) Accurately ripped
10 | (7/7) Accurately ripped
11 | (7/7) Accurately ripped
12 | (7/7) Accurately ripped
[AccurateRip ID: 00158dd5-00c9efa1-a80b9c0c] disk not present in database.

Track Peak [ CRC32 ] [W/O NULL] [ LOG ]
– 100,0 [1133F50E] [1012A735] CRC32
01 100,0 [1829C081] [00922384]
02 100,0 [A171F867] [6F8D749A]
03 100,0 [F4E6066D] [E076E60B]
04 100,0 [EFB452D4] [27B8387F]
05 100,0 [8D4E0DF5] [3E26AF33]
06 100,0 [81651FEF] [681377B4]
07 100,0 [F0F26469] [0E32D6C0]
08 100,0 [E4E1BFB6] [A3BC6856]
09 100,0 [B426EE62] [070F9B70]
10 100,0 [D3A05533] [4FB7E3F7]
11 100,0 [B3BD3547] [06494A12]
12 100,0 [CE4C3E42] [A8725093]

VA - The Many Faces Of The Cure (2016) {3CD Box Set}

Track List CD2 - The Cure Live 2011:

01. The Cure - Lovesong [3:37]
02. The Cure - Just Like Heaven [3:58]
03. The Cure - The Walk [3:31]
04. The Cure - Friday I'm In Love [3:26]
05. The Cure - In Between Days [2:55]
06. The Cure - A Forest [6:41]
07. The Cure - Lullaby [4:40]
08. The Cure - Boys Don't Cry [3:03]
09. The Cure - High [3:32]
10. The Cure - Push [4:36]
11. The Cure - Pictures Of You [7:06]
12. The Cure - The Caterpillar [3:51]
13. The Cure - Trust [5:06]
14. The Cure - Primary [4:15]

Exact Audio Copy V1.0 beta 3 from 29. August 2011

EAC extraction logfile from 23. February 2017, 1:13

The Cure / THE MANY FACES OF THE CURE CD2 The Cure Live 2011

Used drive : PIONEER BD-RW BDR-TD03 Adapter: 0 ID: 1

Read mode : Secure
Utilize accurate stream : Yes
Defeat audio cache : Yes
Make use of C2 pointers : No

Read offset correction : 667
Overread into Lead-In and Lead-Out : No
Fill up missing offset samples with silence : Yes
Delete leading and trailing silent blocks : No
Null samples used in CRC calculations : Yes
Used interface : Native Win32 interface for Win NT & 2000

Used output format : User Defined Encoder
Selected bitrate : 768 kBit/s
Quality : High
Add ID3 tag : No
Command line compressor : C:\Program Files (x86)\Exact Audio Copy\FLAC\FLAC.EXE
Additional command line options : -6 -V -T "ARTIST=%artist%" -T "TITLE=%title%" -T "ALBUM=%albumtitle%" -T "DATE=%year%" -T "TRACKNUMBER=%tracknr%" -T "GENRE=%genre%" -T "COMMENT=%comment%" -T "BAND=%albuminterpret%" -T "ALBUMARTIST=%albuminterpret%" -T "COMPOSER=%composer%" %haslyrics%–tag-from-file=LYRICS="%lyricsfile%"%haslyrics% -T "DISCNUMBER=%cdnumber%" -T "TOTALDISCS=%totalcds%" -T "TOTALTRACKS=%numtracks%" %hascover%–picture="%coverfile%"%hascover% %source% -o %dest%


TOC of the extracted CD

Track | Start | Length | Start sector | End sector
––––––––––––––––––––––––––––-
1 | 0:00.00 | 3:36.68 | 0 | 16267
2 | 3:36.68 | 3:57.63 | 16268 | 34105
3 | 7:34.56 | 3:31.36 | 34106 | 49966
4 | 11:06.17 | 3:26.18 | 49967 | 65434
5 | 14:32.35 | 2:55.18 | 65435 | 78577
6 | 17:27.53 | 6:40.72 | 78578 | 108649
7 | 24:08.50 | 4:40.18 | 108650 | 129667
8 | 28:48.68 | 3:02.74 | 129668 | 143391
9 | 31:51.67 | 3:31.73 | 143392 | 159289
10 | 35:23.65 | 4:36.35 | 159290 | 180024
11 | 40:00.25 | 7:05.72 | 180025 | 211971
12 | 47:06.22 | 3:51.14 | 211972 | 229310
13 | 50:57.36 | 5:05.73 | 229311 | 252258
14 | 56:03.34 | 4:15.00 | 252259 | 271383


Range status and errors

Selected range

Filename C:\Users\Deris\Desktop\kpnemo.eu\TriCur\CD2\The Cure - THE MANY FACES OF THE CURE CD2 The Cure Live 2011.wav

Peak level 100.0 %
Extraction speed 1.9 X
Range quality 100.0 %
Test CRC AA18D6AA
Copy CRC AA18D6AA
Copy OK

No errors occurred


AccurateRip summary

Track 1 not present in database
Track 2 not present in database
Track 3 not present in database
Track 4 not present in database
Track 5 not present in database
Track 6 not present in database
Track 7 not present in database
Track 8 not present in database
Track 9 not present in database
Track 10 not present in database
Track 11 not present in database
Track 12 not present in database
Track 13 not present in database
Track 14 not present in database

None of the tracks are present in the AccurateRip database

End of status report

–– CUETools DB Plugin V2.1.3

[CTDB TOCID: YoMibbTQF8nmsaNto_sb_GKkzog-] found, Submit result: YoMibbTQF8nmsaNto_sb_GKkzog- has been confirmed
[b986db33] (6/6) Accurately ripped


==== Log checksum FFB12F31486330F31766AE7803417F9D58B3B4D869FE88F8793DEE447C7891E7 ====

foobar2000 1.2.6 / Dynamic Range Meter 1.1.1
log date: 2017-03-02 16:32:37

––––––––––––––––––––––––––––––––––––––––
Analyzed: The Cure / THE MANY FACES OF THE CURE CD2 The Cure Live 2011
––––––––––––––––––––––––––––––––––––––––

DR Peak RMS Duration Track
––––––––––––––––––––––––––––––––––––––––
DR9 0.00 dB -10.08 dB 3:37 01-Lovesong
DR9 0.00 dB -9.40 dB 3:58 02-Just Like Heaven
DR9 0.00 dB -9.74 dB 3:31 03-The Walk
DR9 0.00 dB -9.88 dB 3:26 04-Friday I'm In Love
DR9 0.00 dB -9.38 dB 2:55 05-In Between Days
DR9 0.00 dB -10.89 dB 6:41 06-A Forest
DR11 0.00 dB -11.82 dB 4:40 07-Lullaby
DR9 0.00 dB -10.00 dB 3:03 08-Boys Don't Cry
DR9 0.00 dB -10.43 dB 3:32 09-High
DR7 0.00 dB -8.26 dB 4:36 10-Push
DR9 0.00 dB -10.06 dB 7:06 11-Pictures Of You
DR8 0.00 dB -8.90 dB 3:51 12-The Caterpillar
DR10 0.00 dB -12.00 dB 5:06 13-Trust
DR10 0.00 dB -10.72 dB 4:15 14-Primary
––––––––––––––––––––––––––––––––––––––––

Number of tracks: 14
Official DR value: DR9

Samplerate: 44100 Hz
Channels: 2
Bits per sample: 16
Bitrate: 908 kbps
Codec: FLAC
================================================================================

[CUETools log; Date: 02.03.2017 16:32:59; Version: 2.1.5]
[CTDB TOCID: YoMibbTQF8nmsaNto_sb_GKkzog-] found.
Track | CTDB Status
1 | (8/8) Accurately ripped
2 | (8/8) Accurately ripped
3 | (8/8) Accurately ripped
4 | (8/8) Accurately ripped
5 | (8/8) Accurately ripped
6 | (8/8) Accurately ripped
7 | (8/8) Accurately ripped
8 | (8/8) Accurately ripped
9 | (8/8) Accurately ripped
10 | (8/8) Accurately ripped
11 | (8/8) Accurately ripped
12 | (8/8) Accurately ripped
13 | (8/8) Accurately ripped
14 | (8/8) Accurately ripped
[AccurateRip ID: 001d7441-013f3ec8-bc0e220e] disk not present in database.

Track Peak [ CRC32 ] [W/O NULL] [ LOG ]
– 100,0 [AA18D6AA] [E0F4A35B] CRC32
01 100,0 [27624D62] [1B5E34B4]
02 100,0 [E16CAB35] [9DC3A813]
03 100,0 [44B35292] [5425002C]
04 100,0 [B74BC20B] [CFBDB072]
05 100,0 [E4056D96] [DF99FEFB]
06 100,0 [8500CF09] [DD0B44D9]
07 100,0 [57E2F911] [C0CDC11A]
08 100,0 [78E170C2] [F79240AA]
09 100,0 [67B0ED6D] [AB864E0B]
10 100,0 [DEC80E92] [76713922]
11 100,0 [D3F5679B] [5032BFF4]
12 100,0 [CAE4F70C] [0729A1A2]
13 100,0 [C7152DBD] [8F32F014]
14 100,0 [435A6BF6] [57EE59A8]

VA - The Many Faces Of The Cure (2016) {3CD Box Set}

Track List CD3 - The Songs:

01. Joy Zipper - Just Like Heaven [2:46]
02. Tanya Donelli & Dylan In The Movies - The Lovecats [3:42]
03. The Wedding Present - High [2:25]
04. Dean & Britta - Friday I'm In Love [3:49]
05. Wayne Hussey - A Night Like This [3:42]
06. Devics - Catch [2:50]
07. The Brunettes - Lovesong [4:18]
08. Kitty Karlyle - In Between Days [2:51]
09. Cassettes Won't Listen - Let's Go To Bed [3:30]
10. The Submarines - Boys Don't Cry [3:33]
11. Elk City - Close To Me [5:15]
12. The Rosebuds - The Walk [3:29]
13. Elizabeth Harper & The Matinee - Pictures Of You [4:31]
14. Julie Peel - A Night Like This [4:30]

Exact Audio Copy V1.0 beta 3 from 29. August 2011

EAC extraction logfile from 25. February 2017, 13:19

The Cure / The Many Faces Of The Cure (CD3)

Used drive : PIONEER BD-RW BDR-TD03 Adapter: 0 ID: 1

Read mode : Secure
Utilize accurate stream : Yes
Defeat audio cache : Yes
Make use of C2 pointers : No

Read offset correction : 667
Overread into Lead-In and Lead-Out : No
Fill up missing offset samples with silence : Yes
Delete leading and trailing silent blocks : No
Null samples used in CRC calculations : Yes
Used interface : Native Win32 interface for Win NT & 2000

Used output format : User Defined Encoder
Selected bitrate : 768 kBit/s
Quality : High
Add ID3 tag : No
Command line compressor : C:\Program Files (x86)\Exact Audio Copy\FLAC\FLAC.EXE
Additional command line options : -6 -V -T "ARTIST=%artist%" -T "TITLE=%title%" -T "ALBUM=%albumtitle%" -T "DATE=%year%" -T "TRACKNUMBER=%tracknr%" -T "GENRE=%genre%" -T "COMMENT=%comment%" -T "BAND=%albuminterpret%" -T "ALBUMARTIST=%albuminterpret%" -T "COMPOSER=%composer%" %haslyrics%–tag-from-file=LYRICS="%lyricsfile%"%haslyrics% -T "DISCNUMBER=%cdnumber%" -T "TOTALDISCS=%totalcds%" -T "TOTALTRACKS=%numtracks%" %hascover%–picture="%coverfile%"%hascover% %source% -o %dest%


TOC of the extracted CD

Track | Start | Length | Start sector | End sector
––––––––––––––––––––––––––––-
1 | 0:00.00 | 2:46.19 | 0 | 12468
2 | 2:46.19 | 3:41.57 | 12469 | 29100
3 | 6:28.01 | 2:25.19 | 29101 | 39994
4 | 8:53.20 | 3:48.57 | 39995 | 57151
5 | 12:42.02 | 3:41.38 | 57152 | 73764
6 | 16:23.40 | 2:50.00 | 73765 | 86514
7 | 19:13.40 | 4:18.00 | 86515 | 105864
8 | 23:31.40 | 2:50.38 | 105865 | 118652
9 | 26:22.03 | 3:30.00 | 118653 | 134402
10 | 29:52.03 | 3:33.19 | 134403 | 150396
11 | 33:25.22 | 5:15.19 | 150397 | 174040
12 | 38:40.41 | 3:29.00 | 174041 | 189715
13 | 42:09.41 | 4:31.00 | 189716 | 210040
14 | 46:40.41 | 4:30.00 | 210041 | 230290


Range status and errors

Selected range

Filename C:\Users\Deris\Desktop\kpnemo.eu\TriCur\CD3\The Cure - The Many Faces Of The Cure (CD3).wav

Peak level 100.0 %
Extraction speed 4.7 X
Range quality 100.0 %
Test CRC D0F49042
Copy CRC D0F49042
Copy OK

No errors occurred


AccurateRip summary

Track 1 not present in database
Track 2 not present in database
Track 3 not present in database
Track 4 not present in database
Track 5 not present in database
Track 6 not present in database
Track 7 not present in database
Track 8 not present in database
Track 9 not present in database
Track 10 not present in database
Track 11 not present in database
Track 12 not present in database
Track 13 not present in database
Track 14 not present in database

None of the tracks are present in the AccurateRip database

End of status report

–– CUETools DB Plugin V2.1.3

[CTDB TOCID: UwzpKcEagWDEldo2Z37MI5E5BEQ-] found, Submit result: UwzpKcEagWDEldo2Z37MI5E5BEQ- has been confirmed
[eff85103] (5/5) Accurately ripped


==== Log checksum A2F07D2F006F45D58FB78AAD382DE8C1380680E06834E8FA7B43A250BE9ABD48 ====

foobar2000 1.2.6 / Dynamic Range Meter 1.1.1
log date: 2017-03-02 16:31:34

––––––––––––––––––––––––––––––––––––––––
Analyzed: The Cure / The Many Faces Of The Cure (CD3)
––––––––––––––––––––––––––––––––––––––––

DR Peak RMS Duration Track
––––––––––––––––––––––––––––––––––––––––
DR6 -0.04 dB -7.31 dB 2:46 01-Joy Zipper / Just Like Heaven
DR7 0.00 dB -9.26 dB 3:42 02-Tanya Donelli & Dylan In The Movies / The Lovecats
DR6 -0.51 dB -8.35 dB 2:25 03-The Wedding Present / High
DR5 0.00 dB -7.85 dB 3:49 04-Dean & Britta / Friday I'm In Love
DR7 -0.38 dB -9.00 dB 3:42 05-Wayne Hussey / A Night Like This
DR6 0.00 dB -7.61 dB 2:50 06-Devics / Catch
DR8 0.00 dB -9.17 dB 4:18 07-The Brunettes / Lovesong
DR7 0.00 dB -8.06 dB 2:51 08-Kitty Karlyle / In Between Days
DR6 0.00 dB -6.80 dB 3:30 09-Cassettes Won't Listen / Let's Go To Bed
DR6 0.00 dB -7.69 dB 3:33 10-The Submarines / Boys Don't Cry
DR6 -0.47 dB -8.45 dB 5:15 11-Elk City / Close To Me
DR7 0.00 dB -8.57 dB 3:29 12-The Rosebuds / The Walk
DR6 -0.43 dB -8.09 dB 4:31 13-Elizabeth Harper & The Matinee / Pictures Of You
DR6 0.00 dB -7.88 dB 4:30 14-Julie Peel / A Night Like This
––––––––––––––––––––––––––––––––––––––––

Number of tracks: 14
Official DR value: DR6

Samplerate: 44100 Hz
Channels: 2
Bits per sample: 16
Bitrate: 905 kbps
Codec: FLAC
================================================================================

[CUETools log; Date: 02.03.2017 16:31:56; Version: 2.1.5]
[CTDB TOCID: UwzpKcEagWDEldo2Z37MI5E5BEQ-] found.
Track | CTDB Status
1 | (7/7) Accurately ripped
2 | (7/7) Accurately ripped
3 | (7/7) Accurately ripped
4 | (7/7) Accurately ripped
5 | (7/7) Accurately ripped
6 | (7/7) Accurately ripped
7 | (7/7) Accurately ripped
8 | (7/7) Accurately ripped
9 | (7/7) Accurately ripped
10 | (7/7) Accurately ripped
11 | (7/7) Accurately ripped
12 | (7/7) Accurately ripped
13 | (7/7) Accurately ripped
14 | (7/7) Accurately ripped
[AccurateRip ID: 00189a74-010a8eb6-b60bfe0e] disk not present in database.

Track Peak [ CRC32 ] [W/O NULL] [ LOG ]
– 100,0 [D0F49042] [E5A065C7] CRC32
01 99,5 [BA6FEA31] [751094F1]
02 100,0 [2A6F084A] [EB4BEFD1]
03 94,3 [68DCFF8A] [91FBFFB1]
04 100,0 [59274A21] [74553BDC]
05 95,7 [C02862AA] [503563F1]
06 100,0 [72C7D846] [21E0C578]
07 100,0 [F8AD498B] [53D5F4EA]
08 100,0 [55E52D8A] [BD681517]
09 100,0 [6E71239A] [225327A9]
10 100,0 [B934F7F6] [CF20F98B]
11 94,7 [8FCC0B50] [00228C20]
12 100,0 [1A1ACD59] [640128F9]
13 95,2 [3FF1131B] [95FE047A]
14 100,0 [1C57D123] [5CF3F0C9]

VA - The Many Faces Of The Cure (2016) {3CD Box Set}


All thanks go to Boris1

>>> My Blog <<<