Subcategories

VA - The Ultimate Rockin Christmas Collection (2CD, 2019)

Posted By: ciklon5
VA - The Ultimate Rockin Christmas Collection (2CD, 2019)

VA - The Ultimate Rockin Christmas Collection (2CD, 2019)
FLAC tracks +cue+log / MP3 320 kbps | 2:22:10 | 330 / 965 Mb
Genre: Rock, Pop Rock, Rock & Roll, Rockabilly, Folk, Christmas / Label: Western Star

Just in time for the holidays - this double CD contains 45 Christmas/holiday themed tunes, mostly rockabilly and rock n' roll, recording at the Western Star Recording Studio in the UK!

Track List:
CD 1
01. Darrel Higham - Our Last Night
02. The Holloway Echoes - The Colours of my Childhood Christmas
03. The Strays - Freaky Tikki Christmas
04. The Dellatones - Ding Dong Merrily in Debt
05. El Camino - Beer for Christmas
06. Jack Rabbit Slim - The Christmas Twist
07. Little Timmy Tinsel & The Fairy Lights - The Office Christmas Party
08. The Elfish Presleys - Santa was a Rockin'
09. Thee Elfmen - Snowman Fred
10. The Flat Caps - Melancholic Christmas
11. Henry & the Bleeders - Dear Santa
12. Mary Criddell & The Western All-Stars - Another Cold Christmas Day
13. The Bad Detectives - Go go Surfin' Santa
14. The Elfish Presleys - (Do the) Santa Stroll
15. Haney's Big House - Swing Out Christmas
16. Little Timmy Tinsel & The Fairy Lights - Blotto in the Grotto (Radio edit)
17. The Devil's Deuce - Rudy The Rockabilly Reindeer
18. The Pat Winn Combo - Christmas is in December
19. El Camino - Santa Claus is Coming to Town
20. The Deadshots with Sharna Mae - Yule be Mine
21. The Epileptic Hillbillys - Another Christmas Without You
22. Hotrod The Crawlin' Kingsnakes - Souped up Santa's
23. Thee Elfmen - Cruel Yule

CD 2
01. The Bad Detectives - Cadillac Under my Christmas Tree
02. Delta 88 - Ballad of a Bauble
03. The Nuggets - Hey Mr Christmas
04. Butch Day & The Nights - Giblet Gravy
05. Mary Criddell & The Western All-Stars - Santa Rockefella
06. Little Timmy Tinsel & The Fairy Lights - Santa's Lost on the Underground
07. Thee Elfmen - Santa's Here
08. The Bad Detectives - Black Eye Friday
09. El Camino - I Wish You Were Mine at Christmas Time
10. The Gruffs - Elf on the Shelf
11. The Dellatones - The Santa Special
12. The Elfish Presleys - Home This Christmas
13. Thee Elfmen - Santa Santa
14. Mary Kissmas & The Mistletoe - Blue Misstletoe
15. El Camino - Psycho Ho Ho
16. The Bad Detectives - Keep the Receipt
17. The Elfish Presleys - Will Santa Come Down the Chimney
18. Darrel Higham - Our Last Night (Piano version)
19. Little Timmy Tinsel & the Fairy Lights - Blotto in the Grotto (Original version)
20. El Camino - I Want Christmas
21. Weazeldust - Santa Claus You Dirty Rat (Bring Back My Guitar)
22. Henry & the Bleeders - While I was Away

Exact Audio Copy V1.3 from 2. September 2016

EAC extraction logfile from 3. November 2019, 18:46

Various Artists / The Ultimate Rockin' Christmas Collection

Used drive : PLEXTOR PX-891SAF Adapter: 1 ID: 0

Read mode : Secure
Utilize accurate stream : Yes
Defeat audio cache : Yes
Make use of C2 pointers : No

Read offset correction : 6
Overread into Lead-In and Lead-Out : No
Fill up missing offset samples with silence : Yes
Delete leading and trailing silent blocks : No
Null samples used in CRC calculations : Yes
Used interface : Native Win32 interface for Win NT & 2000
Gap handling : Appended to previous track

Used output format : User Defined Encoder
Selected bitrate : 1024 kBit/s
Quality : High
Add ID3 tag : No
Command line compressor : C:\Program Files (x86)\Exact Audio Copy\Flac\flac.exe
Additional command line options : -8 -V -T "ARTIST=%artist%" -T "TITLE=%title%" -T "ALBUM=%albumtitle%" -T "DATE=%year%" -T "TRACKNUMBER=%tracknr%" -T "GENRE=%genre%" -T "PERFORMER=%albuminterpret%" -T "COMPOSER=%composer%" %haslyrics%–tag-from-file=LYRICS="%lyricsfile%"%haslyrics% -T "ALBUMARTIST=%albumartist%" -T "DISCNUMBER=%cdnumber%" -T "TOTALDISCS=%totalcds%" -T "TOTALTRACKS=%numtracks%" -T "COMMENT=%comment%" %source% -o %dest%


TOC of the extracted CD

Track | Start | Length | Start sector | End sector
––––––––––––––––––––––––––––-
1 | 0:00.00 | 2:43.69 | 0 | 12293
2 | 2:43.69 | 3:43.10 | 12294 | 29028
3 | 6:27.04 | 2:31.44 | 29029 | 40397
4 | 8:58.48 | 2:38.19 | 40398 | 52266
5 | 11:36.67 | 3:35.59 | 52267 | 68450
6 | 15:12.51 | 2:21.10 | 68451 | 79035
7 | 17:33.61 | 3:32.67 | 79036 | 95002
8 | 21:06.53 | 2:17.63 | 95003 | 105340
9 | 23:24.41 | 3:35.28 | 105341 | 121493
10 | 26:59.69 | 4:25.26 | 121494 | 141394
11 | 31:25.20 | 2:58.37 | 141395 | 154781
12 | 34:23.57 | 3:32.19 | 154782 | 170700
13 | 37:56.01 | 2:25.00 | 170701 | 181575
14 | 40:21.01 | 3:03.17 | 181576 | 195317
15 | 43:24.18 | 3:17.73 | 195318 | 210165
16 | 46:42.16 | 3:25.33 | 210166 | 225573
17 | 50:07.49 | 3:19.29 | 225574 | 240527
18 | 53:27.03 | 3:36.59 | 240528 | 256786
19 | 57:03.62 | 3:31.72 | 256787 | 272683
20 | 60:35.59 | 2:57.13 | 272684 | 285971
21 | 63:32.72 | 4:00.37 | 285972 | 304008
22 | 67:33.34 | 3:26.23 | 304009 | 319481
23 | 70:59.57 | 2:43.40 | 319482 | 331746


Track 1

Filename D:\#cdr\#wav+flac\VA - The Ultimate Rockin' Christmas Collection\cd 1\01. Darrel Higham - Our Last Night.wav

Pre-gap length 0:00:02.00

Peak level 94.4 %
Extraction speed 5.1 X
Track quality 100.0 %
Test CRC 4F9F7D6B
Copy CRC 4F9F7D6B
Track not present in AccurateRip database
Copy OK

Track 2

Filename D:\#cdr\#wav+flac\VA - The Ultimate Rockin' Christmas Collection\cd 1\02. The Holloway Echoes - The Colours of my Childhood Christmas.wav

Pre-gap length 0:00:01.76

Peak level 94.4 %
Extraction speed 5.7 X
Track quality 100.0 %
Test CRC D5D9F078
Copy CRC D5D9F078
Track not present in AccurateRip database
Copy OK

Track 3

Filename D:\#cdr\#wav+flac\VA - The Ultimate Rockin' Christmas Collection\cd 1\03. The Strays - Freaky Tikki Christmas.wav

Pre-gap length 0:00:01.76

Peak level 94.4 %
Extraction speed 5.7 X
Track quality 100.0 %
Test CRC 8167E565
Copy CRC 8167E565
Track not present in AccurateRip database
Copy OK

Track 4

Filename D:\#cdr\#wav+flac\VA - The Ultimate Rockin' Christmas Collection\cd 1\04. The Dellatones - Ding Dong Merrily in Debt.wav

Pre-gap length 0:00:01.76

Peak level 94.4 %
Extraction speed 6.0 X
Track quality 100.0 %
Test CRC D71EBFEE
Copy CRC D71EBFEE
Track not present in AccurateRip database
Copy OK

Track 5

Filename D:\#cdr\#wav+flac\VA - The Ultimate Rockin' Christmas Collection\cd 1\05. El Camino - Beer for Christmas.wav

Pre-gap length 0:00:01.76

Peak level 94.4 %
Extraction speed 5.4 X
Track quality 99.9 %
Test CRC 8A8706D9
Copy CRC 8A8706D9
Track not present in AccurateRip database
Copy OK

Track 6

Filename D:\#cdr\#wav+flac\VA - The Ultimate Rockin' Christmas Collection\cd 1\06. Jack Rabbit Slim - The Christmas Twist.wav

Pre-gap length 0:00:01.76

Peak level 94.4 %
Extraction speed 6.5 X
Track quality 100.0 %
Test CRC BB6D2538
Copy CRC BB6D2538
Track not present in AccurateRip database
Copy OK

Track 7

Filename D:\#cdr\#wav+flac\VA - The Ultimate Rockin' Christmas Collection\cd 1\07. Little Timmy Tinsel & The Fairy Lights - The Office Christmas Party.wav

Pre-gap length 0:00:01.76

Peak level 94.4 %
Extraction speed 7.2 X
Track quality 100.0 %
Test CRC 9E5C3BB0
Copy CRC 9E5C3BB0
Track not present in AccurateRip database
Copy OK

Track 8

Filename D:\#cdr\#wav+flac\VA - The Ultimate Rockin' Christmas Collection\cd 1\08. The Elfish Presleys - Santa was a Rockin'.wav

Pre-gap length 0:00:01.76

Peak level 86.2 %
Extraction speed 6.9 X
Track quality 100.0 %
Test CRC 8D114FB7
Copy CRC 8D114FB7
Track not present in AccurateRip database
Copy OK

Track 9

Filename D:\#cdr\#wav+flac\VA - The Ultimate Rockin' Christmas Collection\cd 1\09. Thee Elfmen - Snowman Fred.wav

Pre-gap length 0:00:01.66

Peak level 90.3 %
Extraction speed 7.7 X
Track quality 100.0 %
Test CRC 4B2E6455
Copy CRC 4B2E6455
Track not present in AccurateRip database
Copy OK

Track 10

Filename D:\#cdr\#wav+flac\VA - The Ultimate Rockin' Christmas Collection\cd 1\10. The Flat Caps - Melancholic Christmas.wav

Pre-gap length 0:00:01.76

Peak level 86.2 %
Extraction speed 8.2 X
Track quality 100.0 %
Test CRC FC26F7CA
Copy CRC FC26F7CA
Track not present in AccurateRip database
Copy OK

Track 11

Filename D:\#cdr\#wav+flac\VA - The Ultimate Rockin' Christmas Collection\cd 1\11. Henry & the Bleeders - Dear Santa.wav

Pre-gap length 0:00:01.76

Peak level 94.4 %
Extraction speed 8.1 X
Track quality 100.0 %
Test CRC E74ACF6E
Copy CRC E74ACF6E
Track not present in AccurateRip database
Copy OK

Track 12

Filename D:\#cdr\#wav+flac\VA - The Ultimate Rockin' Christmas Collection\cd 1\12. Mary Criddell & The Western All-Stars - Another Cold Christmas Day.wav

Pre-gap length 0:00:01.76

Peak level 94.4 %
Extraction speed 8.6 X
Track quality 100.0 %
Test CRC EF140423
Copy CRC EF140423
Track not present in AccurateRip database
Copy OK

Track 13

Filename D:\#cdr\#wav+flac\VA - The Ultimate Rockin' Christmas Collection\cd 1\13. The Bad Detectives - Go go Surfin' Santa.wav

Pre-gap length 0:00:01.76

Peak level 94.4 %
Extraction speed 8.2 X
Track quality 100.0 %
Test CRC 8AC1A9EC
Copy CRC 8AC1A9EC
Track not present in AccurateRip database
Copy OK

Track 14

Filename D:\#cdr\#wav+flac\VA - The Ultimate Rockin' Christmas Collection\cd 1\14. The Elfish Presleys - (Do the) Santa Stroll.wav

Pre-gap length 0:00:01.76

Peak level 94.4 %
Extraction speed 7.0 X
Track quality 99.9 %
Test CRC D4213F02
Copy CRC D4213F02
Track not present in AccurateRip database
Copy OK

Track 15

Filename D:\#cdr\#wav+flac\VA - The Ultimate Rockin' Christmas Collection\cd 1\15. Haney's Big House - Swing Out Christmas.wav

Pre-gap length 0:00:01.76

Peak level 94.4 %
Extraction speed 9.0 X
Track quality 100.0 %
Test CRC BE64C033
Copy CRC BE64C033
Track not present in AccurateRip database
Copy OK

Track 16

Filename D:\#cdr\#wav+flac\VA - The Ultimate Rockin' Christmas Collection\cd 1\16. Little Timmy Tinsel & The Fairy Lights - Blotto in the Grotto (Radio edit).wav

Pre-gap length 0:00:01.76

Peak level 94.4 %
Extraction speed 9.3 X
Track quality 100.0 %
Test CRC 3AF7FF13
Copy CRC 3AF7FF13
Track not present in AccurateRip database
Copy OK

Track 17

Filename D:\#cdr\#wav+flac\VA - The Ultimate Rockin' Christmas Collection\cd 1\17. The Devil's Deuce - Rudy The Rockabilly Reindeer.wav

Pre-gap length 0:00:01.76

Peak level 94.4 %
Extraction speed 9.5 X
Track quality 100.0 %
Test CRC C014F593
Copy CRC C014F593
Track not present in AccurateRip database
Copy OK

Track 18

Filename D:\#cdr\#wav+flac\VA - The Ultimate Rockin' Christmas Collection\cd 1\18. The Pat Winn Combo - Christmas is in December.wav

Pre-gap length 0:00:01.76

Peak level 94.4 %
Extraction speed 8.0 X
Track quality 99.9 %
Test CRC 81EBCFBD
Copy CRC 81EBCFBD
Track not present in AccurateRip database
Copy OK

Track 19

Filename D:\#cdr\#wav+flac\VA - The Ultimate Rockin' Christmas Collection\cd 1\19. El Camino - Santa Claus is Coming to Town.wav

Pre-gap length 0:00:01.76

Peak level 94.4 %
Extraction speed 10.0 X
Track quality 100.0 %
Test CRC 7ED1752D
Copy CRC 7ED1752D
Track not present in AccurateRip database
Copy OK

Track 20

Filename D:\#cdr\#wav+flac\VA - The Ultimate Rockin' Christmas Collection\cd 1\20. The Deadshots with Sharna Mae - Yule be Mine.wav

Pre-gap length 0:00:01.76

Peak level 94.4 %
Extraction speed 9.9 X
Track quality 100.0 %
Test CRC 367A6380
Copy CRC 367A6380
Track not present in AccurateRip database
Copy OK

Track 21

Filename D:\#cdr\#wav+flac\VA - The Ultimate Rockin' Christmas Collection\cd 1\21. The Epileptic Hillbillys - Another Christmas Without You.wav

Pre-gap length 0:00:01.76

Peak level 94.4 %
Extraction speed 10.5 X
Track quality 100.0 %
Test CRC 3B0D91FD
Copy CRC 3B0D91FD
Track not present in AccurateRip database
Copy OK

Track 22

Filename D:\#cdr\#wav+flac\VA - The Ultimate Rockin' Christmas Collection\cd 1\22. Hotrod The Crawlin' Kingsnakes - Souped up Santa's.wav

Pre-gap length 0:00:01.76

Peak level 94.4 %
Extraction speed 10.4 X
Track quality 100.0 %
Test CRC A9E2F0F0
Copy CRC A9E2F0F0
Track not present in AccurateRip database
Copy OK

Track 23

Filename D:\#cdr\#wav+flac\VA - The Ultimate Rockin' Christmas Collection\cd 1\23. Thee Elfmen - Cruel Yule.wav

Pre-gap length 0:00:01.76

Peak level 94.4 %
Extraction speed 10.3 X
Track quality 100.0 %
Test CRC 30C4B9D2
Copy CRC 30C4B9D2
Track not present in AccurateRip database
Copy OK


None of the tracks are present in the AccurateRip database

No errors occurred

End of status report

–– CUETools DB Plugin V2.1.6

[CTDB TOCID: ckO4XAV8E_O3yfvLHfSqq1MVmtQ-] disk not present in database
Submit result: ckO4XAV8E_O3yfvLHfSqq1MVmtQ- has been uploaded


==== Log checksum F8141536CDEC0C70009A992B04F49B6846FC81567B6411F22849206048852F65 ====

––––––––––––––––––––––––––––––

Exact Audio Copy V1.3 from 2. September 2016

EAC extraction logfile from 3. November 2019, 18:46

Various Artists / The Ultimate Rockin' Christmas Collection

Used drive : PLEXTOR PX-891SAF Adapter: 1 ID: 0

Read mode : Secure
Utilize accurate stream : Yes
Defeat audio cache : Yes
Make use of C2 pointers : No

Read offset correction : 6
Overread into Lead-In and Lead-Out : No
Fill up missing offset samples with silence : Yes
Delete leading and trailing silent blocks : No
Null samples used in CRC calculations : Yes
Used interface : Native Win32 interface for Win NT & 2000
Gap handling : Appended to previous track

Used output format : User Defined Encoder
Selected bitrate : 1024 kBit/s
Quality : High
Add ID3 tag : No
Command line compressor : C:\Program Files (x86)\Exact Audio Copy\Flac\flac.exe
Additional command line options : -8 -V -T "ARTIST=%artist%" -T "TITLE=%title%" -T "ALBUM=%albumtitle%" -T "DATE=%year%" -T "TRACKNUMBER=%tracknr%" -T "GENRE=%genre%" -T "PERFORMER=%albuminterpret%" -T "COMPOSER=%composer%" %haslyrics%–tag-from-file=LYRICS="%lyricsfile%"%haslyrics% -T "ALBUMARTIST=%albumartist%" -T "DISCNUMBER=%cdnumber%" -T "TOTALDISCS=%totalcds%" -T "TOTALTRACKS=%numtracks%" -T "COMMENT=%comment%" %source% -o %dest%


TOC of the extracted CD

Track | Start | Length | Start sector | End sector
––––––––––––––––––––––––––––-
1 | 0:00.00 | 2:43.69 | 0 | 12293
2 | 2:43.69 | 3:43.10 | 12294 | 29028
3 | 6:27.04 | 2:31.44 | 29029 | 40397
4 | 8:58.48 | 2:38.19 | 40398 | 52266
5 | 11:36.67 | 3:35.59 | 52267 | 68450
6 | 15:12.51 | 2:21.10 | 68451 | 79035
7 | 17:33.61 | 3:32.67 | 79036 | 95002
8 | 21:06.53 | 2:17.63 | 95003 | 105340
9 | 23:24.41 | 3:35.28 | 105341 | 121493
10 | 26:59.69 | 4:25.26 | 121494 | 141394
11 | 31:25.20 | 2:58.37 | 141395 | 154781
12 | 34:23.57 | 3:32.19 | 154782 | 170700
13 | 37:56.01 | 2:25.00 | 170701 | 181575
14 | 40:21.01 | 3:03.17 | 181576 | 195317
15 | 43:24.18 | 3:17.73 | 195318 | 210165
16 | 46:42.16 | 3:25.33 | 210166 | 225573
17 | 50:07.49 | 3:19.29 | 225574 | 240527
18 | 53:27.03 | 3:36.59 | 240528 | 256786
19 | 57:03.62 | 3:31.72 | 256787 | 272683
20 | 60:35.59 | 2:57.13 | 272684 | 285971
21 | 63:32.72 | 4:00.37 | 285972 | 304008
22 | 67:33.34 | 3:26.23 | 304009 | 319481
23 | 70:59.57 | 2:43.40 | 319482 | 331746


Track 1

Filename D:\#cdr\#wav+flac\VA - The Ultimate Rockin' Christmas Collection\cd 1\01. Darrel Higham - Our Last Night.wav

Pre-gap length 0:00:02.00

Peak level 94.4 %
Extraction speed 5.1 X
Track quality 100.0 %
Test CRC 4F9F7D6B
Copy CRC 4F9F7D6B
Track not present in AccurateRip database
Copy OK

Track 2

Filename D:\#cdr\#wav+flac\VA - The Ultimate Rockin' Christmas Collection\cd 1\02. The Holloway Echoes - The Colours of my Childhood Christmas.wav

Pre-gap length 0:00:01.76

Peak level 94.4 %
Extraction speed 5.7 X
Track quality 100.0 %
Test CRC D5D9F078
Copy CRC D5D9F078
Track not present in AccurateRip database
Copy OK

Track 3

Filename D:\#cdr\#wav+flac\VA - The Ultimate Rockin' Christmas Collection\cd 1\03. The Strays - Freaky Tikki Christmas.wav

Pre-gap length 0:00:01.76

Peak level 94.4 %
Extraction speed 5.7 X
Track quality 100.0 %
Test CRC 8167E565
Copy CRC 8167E565
Track not present in AccurateRip database
Copy OK

Track 4

Filename D:\#cdr\#wav+flac\VA - The Ultimate Rockin' Christmas Collection\cd 1\04. The Dellatones - Ding Dong Merrily in Debt.wav

Pre-gap length 0:00:01.76

Peak level 94.4 %
Extraction speed 6.0 X
Track quality 100.0 %
Test CRC D71EBFEE
Copy CRC D71EBFEE
Track not present in AccurateRip database
Copy OK

Track 5

Filename D:\#cdr\#wav+flac\VA - The Ultimate Rockin' Christmas Collection\cd 1\05. El Camino - Beer for Christmas.wav

Pre-gap length 0:00:01.76

Peak level 94.4 %
Extraction speed 5.4 X
Track quality 99.9 %
Test CRC 8A8706D9
Copy CRC 8A8706D9
Track not present in AccurateRip database
Copy OK

Track 6

Filename D:\#cdr\#wav+flac\VA - The Ultimate Rockin' Christmas Collection\cd 1\06. Jack Rabbit Slim - The Christmas Twist.wav

Pre-gap length 0:00:01.76

Peak level 94.4 %
Extraction speed 6.5 X
Track quality 100.0 %
Test CRC BB6D2538
Copy CRC BB6D2538
Track not present in AccurateRip database
Copy OK

Track 7

Filename D:\#cdr\#wav+flac\VA - The Ultimate Rockin' Christmas Collection\cd 1\07. Little Timmy Tinsel & The Fairy Lights - The Office Christmas Party.wav

Pre-gap length 0:00:01.76

Peak level 94.4 %
Extraction speed 7.2 X
Track quality 100.0 %
Test CRC 9E5C3BB0
Copy CRC 9E5C3BB0
Track not present in AccurateRip database
Copy OK

Track 8

Filename D:\#cdr\#wav+flac\VA - The Ultimate Rockin' Christmas Collection\cd 1\08. The Elfish Presleys - Santa was a Rockin'.wav

Pre-gap length 0:00:01.76

Peak level 86.2 %
Extraction speed 6.9 X
Track quality 100.0 %
Test CRC 8D114FB7
Copy CRC 8D114FB7
Track not present in AccurateRip database
Copy OK

Track 9

Filename D:\#cdr\#wav+flac\VA - The Ultimate Rockin' Christmas Collection\cd 1\09. Thee Elfmen - Snowman Fred.wav

Pre-gap length 0:00:01.66

Peak level 90.3 %
Extraction speed 7.7 X
Track quality 100.0 %
Test CRC 4B2E6455
Copy CRC 4B2E6455
Track not present in AccurateRip database
Copy OK

Track 10

Filename D:\#cdr\#wav+flac\VA - The Ultimate Rockin' Christmas Collection\cd 1\10. The Flat Caps - Melancholic Christmas.wav

Pre-gap length 0:00:01.76

Peak level 86.2 %
Extraction speed 8.2 X
Track quality 100.0 %
Test CRC FC26F7CA
Copy CRC FC26F7CA
Track not present in AccurateRip database
Copy OK

Track 11

Filename D:\#cdr\#wav+flac\VA - The Ultimate Rockin' Christmas Collection\cd 1\11. Henry & the Bleeders - Dear Santa.wav

Pre-gap length 0:00:01.76

Peak level 94.4 %
Extraction speed 8.1 X
Track quality 100.0 %
Test CRC E74ACF6E
Copy CRC E74ACF6E
Track not present in AccurateRip database
Copy OK

Track 12

Filename D:\#cdr\#wav+flac\VA - The Ultimate Rockin' Christmas Collection\cd 1\12. Mary Criddell & The Western All-Stars - Another Cold Christmas Day.wav

Pre-gap length 0:00:01.76

Peak level 94.4 %
Extraction speed 8.6 X
Track quality 100.0 %
Test CRC EF140423
Copy CRC EF140423
Track not present in AccurateRip database
Copy OK

Track 13

Filename D:\#cdr\#wav+flac\VA - The Ultimate Rockin' Christmas Collection\cd 1\13. The Bad Detectives - Go go Surfin' Santa.wav

Pre-gap length 0:00:01.76

Peak level 94.4 %
Extraction speed 8.2 X
Track quality 100.0 %
Test CRC 8AC1A9EC
Copy CRC 8AC1A9EC
Track not present in AccurateRip database
Copy OK

Track 14

Filename D:\#cdr\#wav+flac\VA - The Ultimate Rockin' Christmas Collection\cd 1\14. The Elfish Presleys - (Do the) Santa Stroll.wav

Pre-gap length 0:00:01.76

Peak level 94.4 %
Extraction speed 7.0 X
Track quality 99.9 %
Test CRC D4213F02
Copy CRC D4213F02
Track not present in AccurateRip database
Copy OK

Track 15

Filename D:\#cdr\#wav+flac\VA - The Ultimate Rockin' Christmas Collection\cd 1\15. Haney's Big House - Swing Out Christmas.wav

Pre-gap length 0:00:01.76

Peak level 94.4 %
Extraction speed 9.0 X
Track quality 100.0 %
Test CRC BE64C033
Copy CRC BE64C033
Track not present in AccurateRip database
Copy OK

Track 16

Filename D:\#cdr\#wav+flac\VA - The Ultimate Rockin' Christmas Collection\cd 1\16. Little Timmy Tinsel & The Fairy Lights - Blotto in the Grotto (Radio edit).wav

Pre-gap length 0:00:01.76

Peak level 94.4 %
Extraction speed 9.3 X
Track quality 100.0 %
Test CRC 3AF7FF13
Copy CRC 3AF7FF13
Track not present in AccurateRip database
Copy OK

Track 17

Filename D:\#cdr\#wav+flac\VA - The Ultimate Rockin' Christmas Collection\cd 1\17. The Devil's Deuce - Rudy The Rockabilly Reindeer.wav

Pre-gap length 0:00:01.76

Peak level 94.4 %
Extraction speed 9.5 X
Track quality 100.0 %
Test CRC C014F593
Copy CRC C014F593
Track not present in AccurateRip database
Copy OK

Track 18

Filename D:\#cdr\#wav+flac\VA - The Ultimate Rockin' Christmas Collection\cd 1\18. The Pat Winn Combo - Christmas is in December.wav

Pre-gap length 0:00:01.76

Peak level 94.4 %
Extraction speed 8.0 X
Track quality 99.9 %
Test CRC 81EBCFBD
Copy CRC 81EBCFBD
Track not present in AccurateRip database
Copy OK

Track 19

Filename D:\#cdr\#wav+flac\VA - The Ultimate Rockin' Christmas Collection\cd 1\19. El Camino - Santa Claus is Coming to Town.wav

Pre-gap length 0:00:01.76

Peak level 94.4 %
Extraction speed 10.0 X
Track quality 100.0 %
Test CRC 7ED1752D
Copy CRC 7ED1752D
Track not present in AccurateRip database
Copy OK

Track 20

Filename D:\#cdr\#wav+flac\VA - The Ultimate Rockin' Christmas Collection\cd 1\20. The Deadshots with Sharna Mae - Yule be Mine.wav

Pre-gap length 0:00:01.76

Peak level 94.4 %
Extraction speed 9.9 X
Track quality 100.0 %
Test CRC 367A6380
Copy CRC 367A6380
Track not present in AccurateRip database
Copy OK

Track 21

Filename D:\#cdr\#wav+flac\VA - The Ultimate Rockin' Christmas Collection\cd 1\21. The Epileptic Hillbillys - Another Christmas Without You.wav

Pre-gap length 0:00:01.76

Peak level 94.4 %
Extraction speed 10.5 X
Track quality 100.0 %
Test CRC 3B0D91FD
Copy CRC 3B0D91FD
Track not present in AccurateRip database
Copy OK

Track 22

Filename D:\#cdr\#wav+flac\VA - The Ultimate Rockin' Christmas Collection\cd 1\22. Hotrod The Crawlin' Kingsnakes - Souped up Santa's.wav

Pre-gap length 0:00:01.76

Peak level 94.4 %
Extraction speed 10.4 X
Track quality 100.0 %
Test CRC A9E2F0F0
Copy CRC A9E2F0F0
Track not present in AccurateRip database
Copy OK

Track 23

Filename D:\#cdr\#wav+flac\VA - The Ultimate Rockin' Christmas Collection\cd 1\23. Thee Elfmen - Cruel Yule.wav

Pre-gap length 0:00:01.76

Peak level 94.4 %
Extraction speed 10.3 X
Track quality 100.0 %
Test CRC 30C4B9D2
Copy CRC 30C4B9D2
Track not present in AccurateRip database
Copy OK


None of the tracks are present in the AccurateRip database

No errors occurred

End of status report

–– CUETools DB Plugin V2.1.6

[CTDB TOCID: ckO4XAV8E_O3yfvLHfSqq1MVmtQ-] disk not present in database
Submit result: ckO4XAV8E_O3yfvLHfSqq1MVmtQ- has been uploaded


==== Log checksum F8141536CDEC0C70009A992B04F49B6846FC81567B6411F22849206048852F65 ====

Exact Audio Copy V1.3 from 2. September 2016

EAC extraction logfile from 3. November 2019, 19:24

Various Artists / The Ultimate Rockin' Christmas Collection

Used drive : PLEXTOR PX-891SAF Adapter: 1 ID: 0

Read mode : Secure
Utilize accurate stream : Yes
Defeat audio cache : Yes
Make use of C2 pointers : No

Read offset correction : 6
Overread into Lead-In and Lead-Out : No
Fill up missing offset samples with silence : Yes
Delete leading and trailing silent blocks : No
Null samples used in CRC calculations : Yes
Used interface : Native Win32 interface for Win NT & 2000
Gap handling : Appended to previous track

Used output format : User Defined Encoder
Selected bitrate : 1024 kBit/s
Quality : High
Add ID3 tag : No
Command line compressor : C:\Program Files (x86)\Exact Audio Copy\Flac\flac.exe
Additional command line options : -8 -V -T "ARTIST=%artist%" -T "TITLE=%title%" -T "ALBUM=%albumtitle%" -T "DATE=%year%" -T "TRACKNUMBER=%tracknr%" -T "GENRE=%genre%" -T "PERFORMER=%albuminterpret%" -T "COMPOSER=%composer%" %haslyrics%–tag-from-file=LYRICS="%lyricsfile%"%haslyrics% -T "ALBUMARTIST=%albumartist%" -T "DISCNUMBER=%cdnumber%" -T "TOTALDISCS=%totalcds%" -T "TOTALTRACKS=%numtracks%" -T "COMMENT=%comment%" %source% -o %dest%


TOC of the extracted CD

Track | Start | Length | Start sector | End sector
––––––––––––––––––––––––––––-
1 | 0:00.00 | 2:26.17 | 0 | 10966
2 | 2:26.17 | 3:13.28 | 10967 | 25469
3 | 5:39.45 | 2:15.55 | 25470 | 35649
4 | 7:55.25 | 2:27.42 | 35650 | 46716
5 | 10:22.67 | 2:18.26 | 46717 | 57092
6 | 12:41.18 | 2:30.39 | 57093 | 68381
7 | 15:11.57 | 2:34.43 | 68382 | 79974
8 | 17:46.25 | 2:45.33 | 79975 | 92382
9 | 20:31.58 | 4:06.69 | 92383 | 110901
10 | 24:38.52 | 2:46.44 | 110902 | 123395
11 | 27:25.21 | 2:35.19 | 123396 | 135039
12 | 30:00.40 | 3:37.32 | 135040 | 151346
13 | 33:37.72 | 1:59.19 | 151347 | 160290
14 | 35:37.16 | 3:01.71 | 160291 | 173936
15 | 38:39.12 | 2:19.08 | 173937 | 184369
16 | 40:58.20 | 3:59.15 | 184370 | 202309
17 | 44:57.35 | 4:04.16 | 202310 | 220625
18 | 49:01.51 | 2:43.34 | 220626 | 232884
19 | 51:45.10 | 3:27.06 | 232885 | 248415
20 | 55:12.16 | 2:24.20 | 248416 | 259235
21 | 57:36.36 | 4:21.70 | 259236 | 278880
22 | 61:58.31 | 6:32.16 | 278881 | 308296


Track 1

Filename D:\#cdr\#wav+flac\VA - The Ultimate Rockin' Christmas Collection\cd 2\01. The Bad Detectives - Cadillac Under my Christmas Tree.wav

Pre-gap length 0:00:02.00

Peak level 94.4 %
Extraction speed 4.7 X
Track quality 100.0 %
Test CRC E87EA686
Copy CRC E87EA686
Track not present in AccurateRip database
Copy OK

Track 2

Filename D:\#cdr\#wav+flac\VA - The Ultimate Rockin' Christmas Collection\cd 2\02. Delta 88 - Ballad of a Bauble.wav

Pre-gap length 0:00:01.76

Peak level 94.4 %
Extraction speed 5.2 X
Track quality 100.0 %
Test CRC 309AF5DD
Copy CRC 309AF5DD
Track not present in AccurateRip database
Copy OK

Track 3

Filename D:\#cdr\#wav+flac\VA - The Ultimate Rockin' Christmas Collection\cd 2\03. The Nuggets - Hey Mr Christmas.wav

Pre-gap length 0:00:01.76

Peak level 94.4 %
Extraction speed 5.2 X
Track quality 100.0 %
Test CRC 94229739
Copy CRC 94229739
Track not present in AccurateRip database
Copy OK

Track 4

Filename D:\#cdr\#wav+flac\VA - The Ultimate Rockin' Christmas Collection\cd 2\04. Butch Day & The Nights - Giblet Gravy.wav

Pre-gap length 0:00:01.76

Peak level 86.2 %
Extraction speed 5.5 X
Track quality 100.0 %
Test CRC 2A127093
Copy CRC 2A127093
Track not present in AccurateRip database
Copy OK

Track 5

Filename D:\#cdr\#wav+flac\VA - The Ultimate Rockin' Christmas Collection\cd 2\05. Mary Criddell & The Western All-Stars - Santa Rockefella.wav

Pre-gap length 0:00:01.76

Peak level 94.4 %
Extraction speed 5.7 X
Track quality 100.0 %
Test CRC 0E057341
Copy CRC 0E057341
Track not present in AccurateRip database
Copy OK

Track 6

Filename D:\#cdr\#wav+flac\VA - The Ultimate Rockin' Christmas Collection\cd 2\06. Little Timmy Tinsel & The Fairy Lights - Santa's Lost on the Underground.wav

Pre-gap length 0:00:01.76

Peak level 94.4 %
Extraction speed 6.1 X
Track quality 100.0 %
Test CRC FEEE9A6E
Copy CRC FEEE9A6E
Track not present in AccurateRip database
Copy OK

Track 7

Filename D:\#cdr\#wav+flac\VA - The Ultimate Rockin' Christmas Collection\cd 2\07. Thee Elfmen - Santa's Here.wav

Pre-gap length 0:00:01.76

Peak level 94.4 %
Extraction speed 6.3 X
Track quality 100.0 %
Test CRC A92D732B
Copy CRC A92D732B
Track not present in AccurateRip database
Copy OK

Track 8

Filename D:\#cdr\#wav+flac\VA - The Ultimate Rockin' Christmas Collection\cd 2\08. The Bad Detectives - Black Eye Friday.wav

Pre-gap length 0:00:01.76

Peak level 94.4 %
Extraction speed 6.6 X
Track quality 100.0 %
Test CRC 1EE092BF
Copy CRC 1EE092BF
Track not present in AccurateRip database
Copy OK

Track 9

Filename D:\#cdr\#wav+flac\VA - The Ultimate Rockin' Christmas Collection\cd 2\09. El Camino - I Wish You Were Mine at Christmas Time.wav

Pre-gap length 0:00:01.76

Peak level 94.4 %
Extraction speed 7.3 X
Track quality 100.0 %
Test CRC 310F3D16
Copy CRC 310F3D16
Track not present in AccurateRip database
Copy OK

Track 10

Filename D:\#cdr\#wav+flac\VA - The Ultimate Rockin' Christmas Collection\cd 2\10. The Gruffs - Elf on the Shelf.wav

Pre-gap length 0:00:01.76

Peak level 94.4 %
Extraction speed 7.2 X
Track quality 100.0 %
Test CRC A76A6296
Copy CRC A76A6296
Track not present in AccurateRip database
Copy OK

Track 11

Filename D:\#cdr\#wav+flac\VA - The Ultimate Rockin' Christmas Collection\cd 2\11. The Dellatones - The Santa Special.wav

Pre-gap length 0:00:01.76

Peak level 94.4 %
Extraction speed 7.3 X
Track quality 100.0 %
Test CRC EEFAEFB4
Copy CRC EEFAEFB4
Track not present in AccurateRip database
Copy OK

Track 12

Filename D:\#cdr\#wav+flac\VA - The Ultimate Rockin' Christmas Collection\cd 2\12. The Elfish Presleys - Home This Christmas.wav

Pre-gap length 0:00:01.76

Peak level 94.4 %
Extraction speed 6.6 X
Track quality 99.9 %
Test CRC CEB9506B
Copy CRC CEB9506B
Track not present in AccurateRip database
Copy OK

Track 13

Filename D:\#cdr\#wav+flac\VA - The Ultimate Rockin' Christmas Collection\cd 2\13. Thee Elfmen - Santa Santa.wav

Pre-gap length 0:00:01.76

Peak level 94.4 %
Extraction speed 7.3 X
Track quality 100.0 %
Test CRC 4C653BD4
Copy CRC 4C653BD4
Track not present in AccurateRip database
Copy OK

Track 14

Filename D:\#cdr\#wav+flac\VA - The Ultimate Rockin' Christmas Collection\cd 2\14. Mary Kissmas & The Mistletoe - Blue Misstletoe.wav

Pre-gap length 0:00:01.76

Peak level 94.4 %
Extraction speed 6.3 X
Track quality 99.9 %
Test CRC 3EC51C7B
Copy CRC 3EC51C7B
Track not present in AccurateRip database
Copy OK

Track 15

Filename D:\#cdr\#wav+flac\VA - The Ultimate Rockin' Christmas Collection\cd 2\15. El Camino - Psycho Ho Ho.wav

Pre-gap length 0:00:01.76

Peak level 94.4 %
Extraction speed 6.0 X
Track quality 99.9 %
Test CRC C7E62686
Copy CRC C7E62686
Track not present in AccurateRip database
Copy OK

Track 16

Filename D:\#cdr\#wav+flac\VA - The Ultimate Rockin' Christmas Collection\cd 2\16. The Bad Detectives - Keep the Receipt.wav

Pre-gap length 0:00:01.76

Peak level 94.4 %
Extraction speed 8.9 X
Track quality 100.0 %
Test CRC D37BDBC7
Copy CRC D37BDBC7
Track not present in AccurateRip database
Copy OK

Track 17

Filename D:\#cdr\#wav+flac\VA - The Ultimate Rockin' Christmas Collection\cd 2\17. The Elfish Presleys - Will Santa Come Down the Chimney.wav

Pre-gap length 0:00:01.76

Peak level 94.4 %
Extraction speed 9.1 X
Track quality 100.0 %
Test CRC AB29B1F5
Copy CRC AB29B1F5
Track not present in AccurateRip database
Copy OK

Track 18

Filename D:\#cdr\#wav+flac\VA - The Ultimate Rockin' Christmas Collection\cd 2\18. Darrel Higham - Our Last Night (Piano version).wav

Pre-gap length 0:00:01.76

Peak level 94.4 %
Extraction speed 8.8 X
Track quality 100.0 %
Test CRC 081A246C
Copy CRC 081A246C
Track not present in AccurateRip database
Copy OK

Track 19

Filename D:\#cdr\#wav+flac\VA - The Ultimate Rockin' Christmas Collection\cd 2\19. Little Timmy Tinsel & the Fairy Lights - Blotto in the Grotto (Original version).wav

Pre-gap length 0:00:01.76

Peak level 94.4 %
Extraction speed 9.3 X
Track quality 100.0 %
Test CRC 458005C2
Copy CRC 458005C2
Track not present in AccurateRip database
Copy OK

Track 20

Filename D:\#cdr\#wav+flac\VA - The Ultimate Rockin' Christmas Collection\cd 2\20. El Camino - I Want Christmas.wav

Pre-gap length 0:00:01.76

Peak level 94.4 %
Extraction speed 8.9 X
Track quality 100.0 %
Test CRC 5826CF6F
Copy CRC 5826CF6F
Track not present in AccurateRip database
Copy OK

Track 21

Filename D:\#cdr\#wav+flac\VA - The Ultimate Rockin' Christmas Collection\cd 2\21. Weazeldust - Santa Claus You Dirty Rat (Bring Back My Guitar).wav

Pre-gap length 0:00:01.76

Peak level 94.4 %
Extraction speed 8.5 X
Track quality 99.9 %
Test CRC 9F0D2D9E
Copy CRC 9F0D2D9E
Track not present in AccurateRip database
Copy OK

Track 22

Filename D:\#cdr\#wav+flac\VA - The Ultimate Rockin' Christmas Collection\cd 2\22. Henry & the Bleeders - While I was Away.wav

Pre-gap length 0:00:01.76

Peak level 90.3 %
Extraction speed 10.7 X
Track quality 100.0 %
Test CRC 421893D3
Copy CRC 421893D3
Track not present in AccurateRip database
Copy OK


None of the tracks are present in the AccurateRip database

No errors occurred

End of status report

–– CUETools DB Plugin V2.1.6

[CTDB TOCID: DIXfzf.UIkZixV5UuN3uUVwQdis-] disk not present in database
Submit result: DIXfzf.UIkZixV5UuN3uUVwQdis- has been uploaded


==== Log checksum 8D722B54DECDCCA0D26D509B0415BAFE87175DB29DE7FA981E577E3859FCFDA3 ====

––––––––––––––––––––––––––––––

Exact Audio Copy V1.3 from 2. September 2016

EAC extraction logfile from 3. November 2019, 19:24

Various Artists / The Ultimate Rockin' Christmas Collection

Used drive : PLEXTOR PX-891SAF Adapter: 1 ID: 0

Read mode : Secure
Utilize accurate stream : Yes
Defeat audio cache : Yes
Make use of C2 pointers : No

Read offset correction : 6
Overread into Lead-In and Lead-Out : No
Fill up missing offset samples with silence : Yes
Delete leading and trailing silent blocks : No
Null samples used in CRC calculations : Yes
Used interface : Native Win32 interface for Win NT & 2000
Gap handling : Appended to previous track

Used output format : User Defined Encoder
Selected bitrate : 1024 kBit/s
Quality : High
Add ID3 tag : No
Command line compressor : C:\Program Files (x86)\Exact Audio Copy\Flac\flac.exe
Additional command line options : -8 -V -T "ARTIST=%artist%" -T "TITLE=%title%" -T "ALBUM=%albumtitle%" -T "DATE=%year%" -T "TRACKNUMBER=%tracknr%" -T "GENRE=%genre%" -T "PERFORMER=%albuminterpret%" -T "COMPOSER=%composer%" %haslyrics%–tag-from-file=LYRICS="%lyricsfile%"%haslyrics% -T "ALBUMARTIST=%albumartist%" -T "DISCNUMBER=%cdnumber%" -T "TOTALDISCS=%totalcds%" -T "TOTALTRACKS=%numtracks%" -T "COMMENT=%comment%" %source% -o %dest%


TOC of the extracted CD

Track | Start | Length | Start sector | End sector
––––––––––––––––––––––––––––-
1 | 0:00.00 | 2:26.17 | 0 | 10966
2 | 2:26.17 | 3:13.28 | 10967 | 25469
3 | 5:39.45 | 2:15.55 | 25470 | 35649
4 | 7:55.25 | 2:27.42 | 35650 | 46716
5 | 10:22.67 | 2:18.26 | 46717 | 57092
6 | 12:41.18 | 2:30.39 | 57093 | 68381
7 | 15:11.57 | 2:34.43 | 68382 | 79974
8 | 17:46.25 | 2:45.33 | 79975 | 92382
9 | 20:31.58 | 4:06.69 | 92383 | 110901
10 | 24:38.52 | 2:46.44 | 110902 | 123395
11 | 27:25.21 | 2:35.19 | 123396 | 135039
12 | 30:00.40 | 3:37.32 | 135040 | 151346
13 | 33:37.72 | 1:59.19 | 151347 | 160290
14 | 35:37.16 | 3:01.71 | 160291 | 173936
15 | 38:39.12 | 2:19.08 | 173937 | 184369
16 | 40:58.20 | 3:59.15 | 184370 | 202309
17 | 44:57.35 | 4:04.16 | 202310 | 220625
18 | 49:01.51 | 2:43.34 | 220626 | 232884
19 | 51:45.10 | 3:27.06 | 232885 | 248415
20 | 55:12.16 | 2:24.20 | 248416 | 259235
21 | 57:36.36 | 4:21.70 | 259236 | 278880
22 | 61:58.31 | 6:32.16 | 278881 | 308296


Track 1

Filename D:\#cdr\#wav+flac\VA - The Ultimate Rockin' Christmas Collection\cd 2\01. The Bad Detectives - Cadillac Under my Christmas Tree.wav

Pre-gap length 0:00:02.00

Peak level 94.4 %
Extraction speed 4.7 X
Track quality 100.0 %
Test CRC E87EA686
Copy CRC E87EA686
Track not present in AccurateRip database
Copy OK

Track 2

Filename D:\#cdr\#wav+flac\VA - The Ultimate Rockin' Christmas Collection\cd 2\02. Delta 88 - Ballad of a Bauble.wav

Pre-gap length 0:00:01.76

Peak level 94.4 %
Extraction speed 5.2 X
Track quality 100.0 %
Test CRC 309AF5DD
Copy CRC 309AF5DD
Track not present in AccurateRip database
Copy OK

Track 3

Filename D:\#cdr\#wav+flac\VA - The Ultimate Rockin' Christmas Collection\cd 2\03. The Nuggets - Hey Mr Christmas.wav

Pre-gap length 0:00:01.76

Peak level 94.4 %
Extraction speed 5.2 X
Track quality 100.0 %
Test CRC 94229739
Copy CRC 94229739
Track not present in AccurateRip database
Copy OK

Track 4

Filename D:\#cdr\#wav+flac\VA - The Ultimate Rockin' Christmas Collection\cd 2\04. Butch Day & The Nights - Giblet Gravy.wav

Pre-gap length 0:00:01.76

Peak level 86.2 %
Extraction speed 5.5 X
Track quality 100.0 %
Test CRC 2A127093
Copy CRC 2A127093
Track not present in AccurateRip database
Copy OK

Track 5

Filename D:\#cdr\#wav+flac\VA - The Ultimate Rockin' Christmas Collection\cd 2\05. Mary Criddell & The Western All-Stars - Santa Rockefella.wav

Pre-gap length 0:00:01.76

Peak level 94.4 %
Extraction speed 5.7 X
Track quality 100.0 %
Test CRC 0E057341
Copy CRC 0E057341
Track not present in AccurateRip database
Copy OK

Track 6

Filename D:\#cdr\#wav+flac\VA - The Ultimate Rockin' Christmas Collection\cd 2\06. Little Timmy Tinsel & The Fairy Lights - Santa's Lost on the Underground.wav

Pre-gap length 0:00:01.76

Peak level 94.4 %
Extraction speed 6.1 X
Track quality 100.0 %
Test CRC FEEE9A6E
Copy CRC FEEE9A6E
Track not present in AccurateRip database
Copy OK

Track 7

Filename D:\#cdr\#wav+flac\VA - The Ultimate Rockin' Christmas Collection\cd 2\07. Thee Elfmen - Santa's Here.wav

Pre-gap length 0:00:01.76

Peak level 94.4 %
Extraction speed 6.3 X
Track quality 100.0 %
Test CRC A92D732B
Copy CRC A92D732B
Track not present in AccurateRip database
Copy OK

Track 8

Filename D:\#cdr\#wav+flac\VA - The Ultimate Rockin' Christmas Collection\cd 2\08. The Bad Detectives - Black Eye Friday.wav

Pre-gap length 0:00:01.76

Peak level 94.4 %
Extraction speed 6.6 X
Track quality 100.0 %
Test CRC 1EE092BF
Copy CRC 1EE092BF
Track not present in AccurateRip database
Copy OK

Track 9

Filename D:\#cdr\#wav+flac\VA - The Ultimate Rockin' Christmas Collection\cd 2\09. El Camino - I Wish You Were Mine at Christmas Time.wav

Pre-gap length 0:00:01.76

Peak level 94.4 %
Extraction speed 7.3 X
Track quality 100.0 %
Test CRC 310F3D16
Copy CRC 310F3D16
Track not present in AccurateRip database
Copy OK

Track 10

Filename D:\#cdr\#wav+flac\VA - The Ultimate Rockin' Christmas Collection\cd 2\10. The Gruffs - Elf on the Shelf.wav

Pre-gap length 0:00:01.76

Peak level 94.4 %
Extraction speed 7.2 X
Track quality 100.0 %
Test CRC A76A6296
Copy CRC A76A6296
Track not present in AccurateRip database
Copy OK

Track 11

Filename D:\#cdr\#wav+flac\VA - The Ultimate Rockin' Christmas Collection\cd 2\11. The Dellatones - The Santa Special.wav

Pre-gap length 0:00:01.76

Peak level 94.4 %
Extraction speed 7.3 X
Track quality 100.0 %
Test CRC EEFAEFB4
Copy CRC EEFAEFB4
Track not present in AccurateRip database
Copy OK

Track 12

Filename D:\#cdr\#wav+flac\VA - The Ultimate Rockin' Christmas Collection\cd 2\12. The Elfish Presleys - Home This Christmas.wav

Pre-gap length 0:00:01.76

Peak level 94.4 %
Extraction speed 6.6 X
Track quality 99.9 %
Test CRC CEB9506B
Copy CRC CEB9506B
Track not present in AccurateRip database
Copy OK

Track 13

Filename D:\#cdr\#wav+flac\VA - The Ultimate Rockin' Christmas Collection\cd 2\13. Thee Elfmen - Santa Santa.wav

Pre-gap length 0:00:01.76

Peak level 94.4 %
Extraction speed 7.3 X
Track quality 100.0 %
Test CRC 4C653BD4
Copy CRC 4C653BD4
Track not present in AccurateRip database
Copy OK

Track 14

Filename D:\#cdr\#wav+flac\VA - The Ultimate Rockin' Christmas Collection\cd 2\14. Mary Kissmas & The Mistletoe - Blue Misstletoe.wav

Pre-gap length 0:00:01.76

Peak level 94.4 %
Extraction speed 6.3 X
Track quality 99.9 %
Test CRC 3EC51C7B
Copy CRC 3EC51C7B
Track not present in AccurateRip database
Copy OK

Track 15

Filename D:\#cdr\#wav+flac\VA - The Ultimate Rockin' Christmas Collection\cd 2\15. El Camino - Psycho Ho Ho.wav

Pre-gap length 0:00:01.76

Peak level 94.4 %
Extraction speed 6.0 X
Track quality 99.9 %
Test CRC C7E62686
Copy CRC C7E62686
Track not present in AccurateRip database
Copy OK

Track 16

Filename D:\#cdr\#wav+flac\VA - The Ultimate Rockin' Christmas Collection\cd 2\16. The Bad Detectives - Keep the Receipt.wav

Pre-gap length 0:00:01.76

Peak level 94.4 %
Extraction speed 8.9 X
Track quality 100.0 %
Test CRC D37BDBC7
Copy CRC D37BDBC7
Track not present in AccurateRip database
Copy OK

Track 17

Filename D:\#cdr\#wav+flac\VA - The Ultimate Rockin' Christmas Collection\cd 2\17. The Elfish Presleys - Will Santa Come Down the Chimney.wav

Pre-gap length 0:00:01.76

Peak level 94.4 %
Extraction speed 9.1 X
Track quality 100.0 %
Test CRC AB29B1F5
Copy CRC AB29B1F5
Track not present in AccurateRip database
Copy OK

Track 18

Filename D:\#cdr\#wav+flac\VA - The Ultimate Rockin' Christmas Collection\cd 2\18. Darrel Higham - Our Last Night (Piano version).wav

Pre-gap length 0:00:01.76

Peak level 94.4 %
Extraction speed 8.8 X
Track quality 100.0 %
Test CRC 081A246C
Copy CRC 081A246C
Track not present in AccurateRip database
Copy OK

Track 19

Filename D:\#cdr\#wav+flac\VA - The Ultimate Rockin' Christmas Collection\cd 2\19. Little Timmy Tinsel & the Fairy Lights - Blotto in the Grotto (Original version).wav

Pre-gap length 0:00:01.76

Peak level 94.4 %
Extraction speed 9.3 X
Track quality 100.0 %
Test CRC 458005C2
Copy CRC 458005C2
Track not present in AccurateRip database
Copy OK

Track 20

Filename D:\#cdr\#wav+flac\VA - The Ultimate Rockin' Christmas Collection\cd 2\20. El Camino - I Want Christmas.wav

Pre-gap length 0:00:01.76

Peak level 94.4 %
Extraction speed 8.9 X
Track quality 100.0 %
Test CRC 5826CF6F
Copy CRC 5826CF6F
Track not present in AccurateRip database
Copy OK

Track 21

Filename D:\#cdr\#wav+flac\VA - The Ultimate Rockin' Christmas Collection\cd 2\21. Weazeldust - Santa Claus You Dirty Rat (Bring Back My Guitar).wav

Pre-gap length 0:00:01.76

Peak level 94.4 %
Extraction speed 8.5 X
Track quality 99.9 %
Test CRC 9F0D2D9E
Copy CRC 9F0D2D9E
Track not present in AccurateRip database
Copy OK

Track 22

Filename D:\#cdr\#wav+flac\VA - The Ultimate Rockin' Christmas Collection\cd 2\22. Henry & the Bleeders - While I was Away.wav

Pre-gap length 0:00:01.76

Peak level 90.3 %
Extraction speed 10.7 X
Track quality 100.0 %
Test CRC 421893D3
Copy CRC 421893D3
Track not present in AccurateRip database
Copy OK


None of the tracks are present in the AccurateRip database

No errors occurred

End of status report

–– CUETools DB Plugin V2.1.6

[CTDB TOCID: DIXfzf.UIkZixV5UuN3uUVwQdis-] disk not present in database
Submit result: DIXfzf.UIkZixV5UuN3uUVwQdis- has been uploaded


==== Log checksum 8D722B54DECDCCA0D26D509B0415BAFE87175DB29DE7FA981E577E3859FCFDA3 ====