Subcategories

VA - Yulesville! 33 Rockin' Rollin' Christmas Blasters for the Cool Season (2019)

Posted By: ciklon5
VA - Yulesville! 33 Rockin' Rollin' Christmas Blasters for the Cool Season (2019)

VA - Yulesville! 33 Rockin' Rollin' Christmas Blasters for the Cool Season (2019)
FLAC (tracks+.cue, sleeves) | 01:14:46 | 358 Mb
Genre: Pop, Rock, Christmas / Label: Bear Family

Christmas is generally regarded as the feast of love, even if Christmas is not always beautiful for everyone. The Rock'n'Roll contemporaries of the 1950s already recognized this when they tried to break out of established family traditions. The songs in this compilation represent both opposites sharply to each other. On the one hand Paul Anka's It's Christmas Everywhere, with all its lights and snowflakes, but Bobbie & Boobie keep it cool with their Cool, Cool Christmas. And in-between Patti Page's Santa Claus dances the boogie woogie and Edd 'Kookie' Byrnes teaches us the Christmas time under the Beatniks!

Track List:
01. - Intro (Radio Commercial)
02. Cordell Jackson - Be Boppers' Christmas
03. Allan & The Flames - Winter Wonderland
04. Three Aces & A Joker - Sleigh Bell Rock
05. The Melodeers - Rudolph, The Red Nosed Reindeer
06. Bobbie & Boobie - Cool, Cool Xmas
07. Patti Page - Boogie Woogie Santa Claus
08. Santo & Johnny - Twistin' Bells
09. Dodie Stevens with Milt Rogers & His Orchestra - Merry Christmas Baby
10. Edd 'Kookie' Byrnes - Yulesville
11. Barry & The Highlights - Xmas Bell Rock
12. Little Joey (Sonny Bono) - Comin' Down The Chimney
13. Barbara Mann - All I Want For Christmas Is A Steady Eddie
14. Augie Rios - Dónde Está Santa Claus? (Where Is Santa Claus?)
15. Tommy Lee & The Orbits - Jingle Rock
16. Little Joey Farr - Big White Cadillac
17. The Drifters with Clyde McPhatter - White Christmas
18. Kerry Adams - Lonely Christmas
19. Linda Laurie - All Winter Long
20. The Bookends & Ray Anthony - Christmas Kisses
21. The Penguins - Jingle Jangle
22. The Melodeers - Wishing Is For Fools
23. Cordell Jackson - Rock And Roll Christmas
24. Lightnin' Hopkins - Happy New Year
25. The McGuire Sisters - The Cactus Christmas Tree
26. The Uniques - Rock'n Rudolph
27. The Four Imperials - Santa's Got A Coupe De Ville
28. The Four Seasons - I Saw Mommy Kissing Santa Claus
29. Dee Dee Ford - Good Morning Blues
30. Paul Anka - It's Christmas Everywhere
31. Little Joey Farr - Rock'n'Roll Santa
32. Dinah Washington - Silent Night
33. Huey 'Piano' Smith & The Clowns - Happy New Year

Exact Audio Copy V1.3 from 2. September 2016

EAC extraction logfile from 3. November 2019, 17:37

Various Artists / Yulesville! - 33 Rockin' Rollin' Christmas Blasters For The Cool Season

Used drive : PLEXTOR PX-891SAF Adapter: 1 ID: 0

Read mode : Secure
Utilize accurate stream : Yes
Defeat audio cache : Yes
Make use of C2 pointers : No

Read offset correction : 6
Overread into Lead-In and Lead-Out : No
Fill up missing offset samples with silence : Yes
Delete leading and trailing silent blocks : No
Null samples used in CRC calculations : Yes
Used interface : Native Win32 interface for Win NT & 2000
Gap handling : Appended to previous track

Used output format : User Defined Encoder
Selected bitrate : 1024 kBit/s
Quality : High
Add ID3 tag : No
Command line compressor : C:\Program Files (x86)\Exact Audio Copy\Flac\flac.exe
Additional command line options : -8 -V -T "ARTIST=%artist%" -T "TITLE=%title%" -T "ALBUM=%albumtitle%" -T "DATE=%year%" -T "TRACKNUMBER=%tracknr%" -T "GENRE=%genre%" -T "PERFORMER=%albuminterpret%" -T "COMPOSER=%composer%" %haslyrics%–tag-from-file=LYRICS="%lyricsfile%"%haslyrics% -T "ALBUMARTIST=%albumartist%" -T "DISCNUMBER=%cdnumber%" -T "TOTALDISCS=%totalcds%" -T "TOTALTRACKS=%numtracks%" -T "COMMENT=%comment%" %source% -o %dest%


TOC of the extracted CD

Track | Start | Length | Start sector | End sector
––––––––––––––––––––––––––––-
1 | 0:00.00 | 0:33.22 | 0 | 2496
2 | 0:33.22 | 1:59.06 | 2497 | 11427
3 | 2:32.28 | 1:53.18 | 11428 | 19920
4 | 4:25.46 | 1:50.57 | 19921 | 28227
5 | 6:16.28 | 2:17.60 | 28228 | 38562
6 | 8:34.13 | 2:02.22 | 38563 | 47734
7 | 10:36.35 | 2:12.07 | 47735 | 57641
8 | 12:48.42 | 2:18.57 | 57642 | 68048
9 | 15:07.24 | 2:13.69 | 68049 | 78092
10 | 17:21.18 | 1:56.57 | 78093 | 86849
11 | 19:18.00 | 2:29.05 | 86850 | 98029
12 | 21:47.05 | 2:20.15 | 98030 | 108544
13 | 24:07.20 | 2:13.27 | 108545 | 118546
14 | 26:20.47 | 2:22.28 | 118547 | 129224
15 | 28:43.00 | 2:50.39 | 129225 | 142013
16 | 31:33.39 | 2:10.14 | 142014 | 151777
17 | 33:43.53 | 2:38.61 | 151778 | 163688
18 | 36:22.39 | 2:26.55 | 163689 | 174693
19 | 38:49.19 | 2:02.61 | 174694 | 183904
20 | 40:52.05 | 1:56.63 | 183905 | 192667
21 | 42:48.68 | 2:22.12 | 192668 | 203329
22 | 45:11.05 | 2:07.27 | 203330 | 212881
23 | 47:18.32 | 2:47.63 | 212882 | 225469
24 | 50:06.20 | 3:15.15 | 225470 | 240109
25 | 53:21.35 | 2:35.62 | 240110 | 251796
26 | 55:57.22 | 1:44.39 | 251797 | 259635
27 | 57:41.61 | 2:30.54 | 259636 | 270939
28 | 60:12.40 | 2:12.44 | 270940 | 280883
29 | 62:25.09 | 2:33.51 | 280884 | 292409
30 | 64:58.60 | 3:05.17 | 292410 | 306301
31 | 68:04.02 | 1:37.27 | 306302 | 313603
32 | 69:41.29 | 2:21.49 | 313604 | 324227
33 | 72:03.03 | 2:59.72 | 324228 | 337724


Track 1

Filename D:\#cdr\#wav+flac\VA - Yulesville! - 33 Rockin' Rollin' Christmas Blasters For The Cool Season\01. Various Artists - Intro (Radio Commercial).wav

Pre-gap length 0:00:02.00

Peak level 97.7 %
Extraction speed 2.9 X
Track quality 100.0 %
Test CRC B8EF82EC
Copy CRC B8EF82EC
Track not present in AccurateRip database
Copy OK

Track 2

Filename D:\#cdr\#wav+flac\VA - Yulesville! - 33 Rockin' Rollin' Christmas Blasters For The Cool Season\02. Cordell Jackson - Be Boppers' Christmas.wav

Pre-gap length 0:00:00.02

Peak level 97.7 %
Extraction speed 4.8 X
Track quality 100.0 %
Test CRC 4C7038E7
Copy CRC 4C7038E7
Track not present in AccurateRip database
Copy OK

Track 3

Filename D:\#cdr\#wav+flac\VA - Yulesville! - 33 Rockin' Rollin' Christmas Blasters For The Cool Season\03. Allan & The Flames - Winter Wonderland.wav

Pre-gap length 0:00:00.74

Peak level 97.7 %
Extraction speed 3.6 X
Track quality 99.9 %
Test CRC BC919B4B
Copy CRC BC919B4B
Track not present in AccurateRip database
Copy OK

Track 4

Filename D:\#cdr\#wav+flac\VA - Yulesville! - 33 Rockin' Rollin' Christmas Blasters For The Cool Season\04. Three Aces & A Joker - Sleigh Bell Rock.wav

Pre-gap length 0:00:00.74

Peak level 97.7 %
Extraction speed 5.2 X
Track quality 100.0 %
Test CRC 3F234B51
Copy CRC 3F234B51
Track not present in AccurateRip database
Copy OK

Track 5

Filename D:\#cdr\#wav+flac\VA - Yulesville! - 33 Rockin' Rollin' Christmas Blasters For The Cool Season\05. The Melodeers - Rudolph, The Red Nosed Reindeer.wav

Pre-gap length 0:00:00.06

Peak level 97.7 %
Extraction speed 4.3 X
Track quality 99.9 %
Test CRC 88597A0C
Copy CRC 88597A0C
Track not present in AccurateRip database
Copy OK

Track 6

Filename D:\#cdr\#wav+flac\VA - Yulesville! - 33 Rockin' Rollin' Christmas Blasters For The Cool Season\06. Bobbie & Boobie - Cool, Cool Xmas.wav

Pre-gap length 0:00:00.74

Peak level 97.7 %
Extraction speed 5.7 X
Track quality 100.0 %
Test CRC 9EAAD823
Copy CRC 9EAAD823
Track not present in AccurateRip database
Copy OK

Track 7

Filename D:\#cdr\#wav+flac\VA - Yulesville! - 33 Rockin' Rollin' Christmas Blasters For The Cool Season\07. Patti Page - Boogie Woogie Santa Claus.wav

Pre-gap length 0:00:00.74

Peak level 97.7 %
Extraction speed 6.0 X
Track quality 100.0 %
Test CRC 5646CE9F
Copy CRC 5646CE9F
Track not present in AccurateRip database
Copy OK

Track 8

Filename D:\#cdr\#wav+flac\VA - Yulesville! - 33 Rockin' Rollin' Christmas Blasters For The Cool Season\08. Santo & Johnny - Twistin' Bells.wav

Pre-gap length 0:00:01.26

Peak level 97.7 %
Extraction speed 4.7 X
Track quality 99.9 %
Test CRC 5C137996
Copy CRC 5C137996
Track not present in AccurateRip database
Copy OK

Track 9

Filename D:\#cdr\#wav+flac\VA - Yulesville! - 33 Rockin' Rollin' Christmas Blasters For The Cool Season\09. Dodie Stevens with Milt Rogers & His Orchestra - Merry Christmas Baby.wav

Pre-gap length 0:00:00.74

Peak level 97.7 %
Extraction speed 6.4 X
Track quality 100.0 %
Test CRC 8958706D
Copy CRC 8958706D
Track not present in AccurateRip database
Copy OK

Track 10

Filename D:\#cdr\#wav+flac\VA - Yulesville! - 33 Rockin' Rollin' Christmas Blasters For The Cool Season\10. Edd 'Kookie' Byrnes - Yulesville.wav

Pre-gap length 0:00:01.74

Peak level 97.7 %
Extraction speed 6.4 X
Track quality 100.0 %
Test CRC 5F1C8A85
Copy CRC 5F1C8A85
Track not present in AccurateRip database
Copy OK

Track 11

Filename D:\#cdr\#wav+flac\VA - Yulesville! - 33 Rockin' Rollin' Christmas Blasters For The Cool Season\11. Barry & The Highlights - Xmas Bell Rock.wav

Pre-gap length 0:00:01.26

Peak level 97.7 %
Extraction speed 5.2 X
Track quality 99.9 %
Test CRC 0452DEF0
Copy CRC 0452DEF0
Track not present in AccurateRip database
Copy OK

Track 12

Filename D:\#cdr\#wav+flac\VA - Yulesville! - 33 Rockin' Rollin' Christmas Blasters For The Cool Season\12. Little Joey (Sonny Bono) - Comin' Down The Chimney.wav

Pre-gap length 0:00:01.40

Peak level 97.7 %
Extraction speed 7.0 X
Track quality 100.0 %
Test CRC 2FE520E5
Copy CRC 2FE520E5
Track not present in AccurateRip database
Copy OK

Track 13

Filename D:\#cdr\#wav+flac\VA - Yulesville! - 33 Rockin' Rollin' Christmas Blasters For The Cool Season\13. Barbara Mann - All I Want For Christmas Is A Steady Eddie.wav

Pre-gap length 0:00:00.06

Peak level 97.7 %
Extraction speed 7.1 X
Track quality 100.0 %
Test CRC F3142F64
Copy CRC F3142F64
Track not present in AccurateRip database
Copy OK

Track 14

Filename D:\#cdr\#wav+flac\VA - Yulesville! - 33 Rockin' Rollin' Christmas Blasters For The Cool Season\14. Augie Rios - Dónde Está Santa Claus (Where Is Santa Claus).wav

Pre-gap length 0:00:00.74

Peak level 92.2 %
Extraction speed 7.4 X
Track quality 100.0 %
Test CRC 9FB148B0
Copy CRC 9FB148B0
Track not present in AccurateRip database
Copy OK

Track 15

Filename D:\#cdr\#wav+flac\VA - Yulesville! - 33 Rockin' Rollin' Christmas Blasters For The Cool Season\15. Tommy Lee & The Orbits - Jingle Rock.wav

Pre-gap length 0:00:00.20

Peak level 92.2 %
Extraction speed 7.8 X
Track quality 100.0 %
Test CRC ACA164E1
Copy CRC ACA164E1
Track not present in AccurateRip database
Copy OK

Track 16

Filename D:\#cdr\#wav+flac\VA - Yulesville! - 33 Rockin' Rollin' Christmas Blasters For The Cool Season\16. Little Joey Farr - Big White Cadillac.wav

Pre-gap length 0:00:00.74

Peak level 92.2 %
Extraction speed 7.6 X
Track quality 100.0 %
Test CRC 65B6C331
Copy CRC 65B6C331
Track not present in AccurateRip database
Copy OK

Track 17

Filename D:\#cdr\#wav+flac\VA - Yulesville! - 33 Rockin' Rollin' Christmas Blasters For The Cool Season\17. The Drifters with Clyde McPhatter - White Christmas.wav

Pre-gap length 0:00:01.74

Peak level 97.7 %
Extraction speed 8.1 X
Track quality 100.0 %
Test CRC 755ACB20
Copy CRC 755ACB20
Track not present in AccurateRip database
Copy OK

Track 18

Filename D:\#cdr\#wav+flac\VA - Yulesville! - 33 Rockin' Rollin' Christmas Blasters For The Cool Season\18. Kerry Adams - Lonely Christmas.wav

Pre-gap length 0:00:00.74

Peak level 97.7 %
Extraction speed 5.9 X
Track quality 99.9 %
Test CRC E73A18DD
Copy CRC E73A18DD
Track not present in AccurateRip database
Copy OK

Track 19

Filename D:\#cdr\#wav+flac\VA - Yulesville! - 33 Rockin' Rollin' Christmas Blasters For The Cool Season\19. Linda Laurie - All Winter Long.wav

Pre-gap length 0:00:00.74

Peak level 86.7 %
Extraction speed 5.8 X
Track quality 99.9 %
Test CRC 8E00CC15
Copy CRC 8E00CC15
Track not present in AccurateRip database
Copy OK

Track 20

Filename D:\#cdr\#wav+flac\VA - Yulesville! - 33 Rockin' Rollin' Christmas Blasters For The Cool Season\20. The Bookends & Ray Anthony - Christmas Kisses.wav

Pre-gap length 0:00:00.74

Peak level 97.7 %
Extraction speed 5.8 X
Track quality 99.9 %
Test CRC 8AF25FB0
Copy CRC 8AF25FB0
Track not present in AccurateRip database
Copy OK

Track 21

Filename D:\#cdr\#wav+flac\VA - Yulesville! - 33 Rockin' Rollin' Christmas Blasters For The Cool Season\21. The Penguins - Jingle Jangle.wav

Pre-gap length 0:00:00.74

Peak level 97.7 %
Extraction speed 8.5 X
Track quality 100.0 %
Test CRC 8862AE2B
Copy CRC 8862AE2B
Track not present in AccurateRip database
Copy OK

Track 22

Filename D:\#cdr\#wav+flac\VA - Yulesville! - 33 Rockin' Rollin' Christmas Blasters For The Cool Season\22. The Melodeers - Wishing Is For Fools.wav

Pre-gap length 0:00:00.40

Peak level 97.7 %
Extraction speed 8.3 X
Track quality 100.0 %
Test CRC AED44749
Copy CRC AED44749
Track not present in AccurateRip database
Copy OK

Track 23

Filename D:\#cdr\#wav+flac\VA - Yulesville! - 33 Rockin' Rollin' Christmas Blasters For The Cool Season\23. Cordell Jackson - Rock And Roll Christmas.wav

Pre-gap length 0:00:00.74

Peak level 97.7 %
Extraction speed 9.1 X
Track quality 100.0 %
Test CRC D1F3D46D
Copy CRC D1F3D46D
Track not present in AccurateRip database
Copy OK

Track 24

Filename D:\#cdr\#wav+flac\VA - Yulesville! - 33 Rockin' Rollin' Christmas Blasters For The Cool Season\24. Lightnin' Hopkins - Happy New Year.wav

Pre-gap length 0:00:00.74

Peak level 97.7 %
Extraction speed 7.6 X
Track quality 99.9 %
Test CRC AE73FFFF
Copy CRC AE73FFFF
Track not present in AccurateRip database
Copy OK

Track 25

Filename D:\#cdr\#wav+flac\VA - Yulesville! - 33 Rockin' Rollin' Christmas Blasters For The Cool Season\25. The McGuire Sisters - The Cactus Christmas Tree.wav

Pre-gap length 0:00:01.74

Peak level 97.7 %
Extraction speed 9.3 X
Track quality 100.0 %
Test CRC B8EEE6D6
Copy CRC B8EEE6D6
Track not present in AccurateRip database
Copy OK

Track 26

Filename D:\#cdr\#wav+flac\VA - Yulesville! - 33 Rockin' Rollin' Christmas Blasters For The Cool Season\26. The Uniques - Rock'n Rudolph.wav

Pre-gap length 0:00:00.74

Peak level 97.7 %
Extraction speed 8.7 X
Track quality 100.0 %
Test CRC 9A54655C
Copy CRC 9A54655C
Track not present in AccurateRip database
Copy OK

Track 27

Filename D:\#cdr\#wav+flac\VA - Yulesville! - 33 Rockin' Rollin' Christmas Blasters For The Cool Season\27. The Four Imperials - Santa's Got A Coupe De Ville.wav

Pre-gap length 0:00:00.74

Peak level 97.7 %
Extraction speed 7.1 X
Track quality 99.9 %
Test CRC 3E585671
Copy CRC 3E585671
Track not present in AccurateRip database
Copy OK

Track 28

Filename D:\#cdr\#wav+flac\VA - Yulesville! - 33 Rockin' Rollin' Christmas Blasters For The Cool Season\28. The Four Seasons - I Saw Mommy Kissing Santa Claus.wav

Pre-gap length 0:00:00.20

Peak level 97.7 %
Extraction speed 9.5 X
Track quality 100.0 %
Test CRC 62978075
Copy CRC 62978075
Track not present in AccurateRip database
Copy OK

Track 29

Filename D:\#cdr\#wav+flac\VA - Yulesville! - 33 Rockin' Rollin' Christmas Blasters For The Cool Season\29. Dee Dee Ford - Good Morning Blues.wav

Pre-gap length 0:00:00.74

Peak level 97.7 %
Extraction speed 7.5 X
Track quality 99.9 %
Test CRC E1CF4564
Copy CRC E1CF4564
Track not present in AccurateRip database
Copy OK

Track 30

Filename D:\#cdr\#wav+flac\VA - Yulesville! - 33 Rockin' Rollin' Christmas Blasters For The Cool Season\30. Paul Anka - It's Christmas Everywhere.wav

Pre-gap length 0:00:01.74

Peak level 96.3 %
Extraction speed 8.2 X
Track quality 99.9 %
Test CRC 74F5B3CA
Copy CRC 74F5B3CA
Track not present in AccurateRip database
Copy OK

Track 31

Filename D:\#cdr\#wav+flac\VA - Yulesville! - 33 Rockin' Rollin' Christmas Blasters For The Cool Season\31. Little Joey Farr - Rock'n'Roll Santa.wav

Pre-gap length 0:00:00.74

Peak level 97.7 %
Extraction speed 9.0 X
Track quality 100.0 %
Test CRC 23903375
Copy CRC 23903375
Track not present in AccurateRip database
Copy OK

Track 32

Filename D:\#cdr\#wav+flac\VA - Yulesville! - 33 Rockin' Rollin' Christmas Blasters For The Cool Season\32. Dinah Washington - Silent Night.wav

Pre-gap length 0:00:00.74

Peak level 85.8 %
Extraction speed 10.0 X
Track quality 100.0 %
Test CRC 9FBCE797
Copy CRC 9FBCE797
Track not present in AccurateRip database
Copy OK

Track 33

Filename D:\#cdr\#wav+flac\VA - Yulesville! - 33 Rockin' Rollin' Christmas Blasters For The Cool Season\33. Huey 'Piano' Smith & The Clowns - Happy New Year.wav

Pre-gap length 0:00:00.74

Peak level 97.7 %
Extraction speed 8.0 X
Track quality 99.9 %
Test CRC 402F47F1
Copy CRC 402F47F1
Track not present in AccurateRip database
Copy OK


None of the tracks are present in the AccurateRip database

No errors occurred

End of status report

–– CUETools DB Plugin V2.1.6

[CTDB TOCID: ftiKLa9CxSmWnJErWx31YARI95c-] disk not present in database
Submit result: ftiKLa9CxSmWnJErWx31YARI95c- has been uploaded


==== Log checksum 274C2BBEFDB1E0A6625436E0CE7A4EA0ACA942388AB3E55035693A372441E8F2 ====

––––––––––––––––––––––––––––––

Exact Audio Copy V1.3 from 2. September 2016

EAC extraction logfile from 3. November 2019, 17:37

Various Artists / Yulesville! - 33 Rockin' Rollin' Christmas Blasters For The Cool Season

Used drive : PLEXTOR PX-891SAF Adapter: 1 ID: 0

Read mode : Secure
Utilize accurate stream : Yes
Defeat audio cache : Yes
Make use of C2 pointers : No

Read offset correction : 6
Overread into Lead-In and Lead-Out : No
Fill up missing offset samples with silence : Yes
Delete leading and trailing silent blocks : No
Null samples used in CRC calculations : Yes
Used interface : Native Win32 interface for Win NT & 2000
Gap handling : Appended to previous track

Used output format : User Defined Encoder
Selected bitrate : 1024 kBit/s
Quality : High
Add ID3 tag : No
Command line compressor : C:\Program Files (x86)\Exact Audio Copy\Flac\flac.exe
Additional command line options : -8 -V -T "ARTIST=%artist%" -T "TITLE=%title%" -T "ALBUM=%albumtitle%" -T "DATE=%year%" -T "TRACKNUMBER=%tracknr%" -T "GENRE=%genre%" -T "PERFORMER=%albuminterpret%" -T "COMPOSER=%composer%" %haslyrics%–tag-from-file=LYRICS="%lyricsfile%"%haslyrics% -T "ALBUMARTIST=%albumartist%" -T "DISCNUMBER=%cdnumber%" -T "TOTALDISCS=%totalcds%" -T "TOTALTRACKS=%numtracks%" -T "COMMENT=%comment%" %source% -o %dest%


TOC of the extracted CD

Track | Start | Length | Start sector | End sector
––––––––––––––––––––––––––––-
1 | 0:00.00 | 0:33.22 | 0 | 2496
2 | 0:33.22 | 1:59.06 | 2497 | 11427
3 | 2:32.28 | 1:53.18 | 11428 | 19920
4 | 4:25.46 | 1:50.57 | 19921 | 28227
5 | 6:16.28 | 2:17.60 | 28228 | 38562
6 | 8:34.13 | 2:02.22 | 38563 | 47734
7 | 10:36.35 | 2:12.07 | 47735 | 57641
8 | 12:48.42 | 2:18.57 | 57642 | 68048
9 | 15:07.24 | 2:13.69 | 68049 | 78092
10 | 17:21.18 | 1:56.57 | 78093 | 86849
11 | 19:18.00 | 2:29.05 | 86850 | 98029
12 | 21:47.05 | 2:20.15 | 98030 | 108544
13 | 24:07.20 | 2:13.27 | 108545 | 118546
14 | 26:20.47 | 2:22.28 | 118547 | 129224
15 | 28:43.00 | 2:50.39 | 129225 | 142013
16 | 31:33.39 | 2:10.14 | 142014 | 151777
17 | 33:43.53 | 2:38.61 | 151778 | 163688
18 | 36:22.39 | 2:26.55 | 163689 | 174693
19 | 38:49.19 | 2:02.61 | 174694 | 183904
20 | 40:52.05 | 1:56.63 | 183905 | 192667
21 | 42:48.68 | 2:22.12 | 192668 | 203329
22 | 45:11.05 | 2:07.27 | 203330 | 212881
23 | 47:18.32 | 2:47.63 | 212882 | 225469
24 | 50:06.20 | 3:15.15 | 225470 | 240109
25 | 53:21.35 | 2:35.62 | 240110 | 251796
26 | 55:57.22 | 1:44.39 | 251797 | 259635
27 | 57:41.61 | 2:30.54 | 259636 | 270939
28 | 60:12.40 | 2:12.44 | 270940 | 280883
29 | 62:25.09 | 2:33.51 | 280884 | 292409
30 | 64:58.60 | 3:05.17 | 292410 | 306301
31 | 68:04.02 | 1:37.27 | 306302 | 313603
32 | 69:41.29 | 2:21.49 | 313604 | 324227
33 | 72:03.03 | 2:59.72 | 324228 | 337724


Track 1

Filename D:\#cdr\#wav+flac\VA - Yulesville! - 33 Rockin' Rollin' Christmas Blasters For The Cool Season\01. Various Artists - Intro (Radio Commercial).wav

Pre-gap length 0:00:02.00

Peak level 97.7 %
Extraction speed 2.9 X
Track quality 100.0 %
Test CRC B8EF82EC
Copy CRC B8EF82EC
Track not present in AccurateRip database
Copy OK

Track 2

Filename D:\#cdr\#wav+flac\VA - Yulesville! - 33 Rockin' Rollin' Christmas Blasters For The Cool Season\02. Cordell Jackson - Be Boppers' Christmas.wav

Pre-gap length 0:00:00.02

Peak level 97.7 %
Extraction speed 4.8 X
Track quality 100.0 %
Test CRC 4C7038E7
Copy CRC 4C7038E7
Track not present in AccurateRip database
Copy OK

Track 3

Filename D:\#cdr\#wav+flac\VA - Yulesville! - 33 Rockin' Rollin' Christmas Blasters For The Cool Season\03. Allan & The Flames - Winter Wonderland.wav

Pre-gap length 0:00:00.74

Peak level 97.7 %
Extraction speed 3.6 X
Track quality 99.9 %
Test CRC BC919B4B
Copy CRC BC919B4B
Track not present in AccurateRip database
Copy OK

Track 4

Filename D:\#cdr\#wav+flac\VA - Yulesville! - 33 Rockin' Rollin' Christmas Blasters For The Cool Season\04. Three Aces & A Joker - Sleigh Bell Rock.wav

Pre-gap length 0:00:00.74

Peak level 97.7 %
Extraction speed 5.2 X
Track quality 100.0 %
Test CRC 3F234B51
Copy CRC 3F234B51
Track not present in AccurateRip database
Copy OK

Track 5

Filename D:\#cdr\#wav+flac\VA - Yulesville! - 33 Rockin' Rollin' Christmas Blasters For The Cool Season\05. The Melodeers - Rudolph, The Red Nosed Reindeer.wav

Pre-gap length 0:00:00.06

Peak level 97.7 %
Extraction speed 4.3 X
Track quality 99.9 %
Test CRC 88597A0C
Copy CRC 88597A0C
Track not present in AccurateRip database
Copy OK

Track 6

Filename D:\#cdr\#wav+flac\VA - Yulesville! - 33 Rockin' Rollin' Christmas Blasters For The Cool Season\06. Bobbie & Boobie - Cool, Cool Xmas.wav

Pre-gap length 0:00:00.74

Peak level 97.7 %
Extraction speed 5.7 X
Track quality 100.0 %
Test CRC 9EAAD823
Copy CRC 9EAAD823
Track not present in AccurateRip database
Copy OK

Track 7

Filename D:\#cdr\#wav+flac\VA - Yulesville! - 33 Rockin' Rollin' Christmas Blasters For The Cool Season\07. Patti Page - Boogie Woogie Santa Claus.wav

Pre-gap length 0:00:00.74

Peak level 97.7 %
Extraction speed 6.0 X
Track quality 100.0 %
Test CRC 5646CE9F
Copy CRC 5646CE9F
Track not present in AccurateRip database
Copy OK

Track 8

Filename D:\#cdr\#wav+flac\VA - Yulesville! - 33 Rockin' Rollin' Christmas Blasters For The Cool Season\08. Santo & Johnny - Twistin' Bells.wav

Pre-gap length 0:00:01.26

Peak level 97.7 %
Extraction speed 4.7 X
Track quality 99.9 %
Test CRC 5C137996
Copy CRC 5C137996
Track not present in AccurateRip database
Copy OK

Track 9

Filename D:\#cdr\#wav+flac\VA - Yulesville! - 33 Rockin' Rollin' Christmas Blasters For The Cool Season\09. Dodie Stevens with Milt Rogers & His Orchestra - Merry Christmas Baby.wav

Pre-gap length 0:00:00.74

Peak level 97.7 %
Extraction speed 6.4 X
Track quality 100.0 %
Test CRC 8958706D
Copy CRC 8958706D
Track not present in AccurateRip database
Copy OK

Track 10

Filename D:\#cdr\#wav+flac\VA - Yulesville! - 33 Rockin' Rollin' Christmas Blasters For The Cool Season\10. Edd 'Kookie' Byrnes - Yulesville.wav

Pre-gap length 0:00:01.74

Peak level 97.7 %
Extraction speed 6.4 X
Track quality 100.0 %
Test CRC 5F1C8A85
Copy CRC 5F1C8A85
Track not present in AccurateRip database
Copy OK

Track 11

Filename D:\#cdr\#wav+flac\VA - Yulesville! - 33 Rockin' Rollin' Christmas Blasters For The Cool Season\11. Barry & The Highlights - Xmas Bell Rock.wav

Pre-gap length 0:00:01.26

Peak level 97.7 %
Extraction speed 5.2 X
Track quality 99.9 %
Test CRC 0452DEF0
Copy CRC 0452DEF0
Track not present in AccurateRip database
Copy OK

Track 12

Filename D:\#cdr\#wav+flac\VA - Yulesville! - 33 Rockin' Rollin' Christmas Blasters For The Cool Season\12. Little Joey (Sonny Bono) - Comin' Down The Chimney.wav

Pre-gap length 0:00:01.40

Peak level 97.7 %
Extraction speed 7.0 X
Track quality 100.0 %
Test CRC 2FE520E5
Copy CRC 2FE520E5
Track not present in AccurateRip database
Copy OK

Track 13

Filename D:\#cdr\#wav+flac\VA - Yulesville! - 33 Rockin' Rollin' Christmas Blasters For The Cool Season\13. Barbara Mann - All I Want For Christmas Is A Steady Eddie.wav

Pre-gap length 0:00:00.06

Peak level 97.7 %
Extraction speed 7.1 X
Track quality 100.0 %
Test CRC F3142F64
Copy CRC F3142F64
Track not present in AccurateRip database
Copy OK

Track 14

Filename D:\#cdr\#wav+flac\VA - Yulesville! - 33 Rockin' Rollin' Christmas Blasters For The Cool Season\14. Augie Rios - Dónde Está Santa Claus (Where Is Santa Claus).wav

Pre-gap length 0:00:00.74

Peak level 92.2 %
Extraction speed 7.4 X
Track quality 100.0 %
Test CRC 9FB148B0
Copy CRC 9FB148B0
Track not present in AccurateRip database
Copy OK

Track 15

Filename D:\#cdr\#wav+flac\VA - Yulesville! - 33 Rockin' Rollin' Christmas Blasters For The Cool Season\15. Tommy Lee & The Orbits - Jingle Rock.wav

Pre-gap length 0:00:00.20

Peak level 92.2 %
Extraction speed 7.8 X
Track quality 100.0 %
Test CRC ACA164E1
Copy CRC ACA164E1
Track not present in AccurateRip database
Copy OK

Track 16

Filename D:\#cdr\#wav+flac\VA - Yulesville! - 33 Rockin' Rollin' Christmas Blasters For The Cool Season\16. Little Joey Farr - Big White Cadillac.wav

Pre-gap length 0:00:00.74

Peak level 92.2 %
Extraction speed 7.6 X
Track quality 100.0 %
Test CRC 65B6C331
Copy CRC 65B6C331
Track not present in AccurateRip database
Copy OK

Track 17

Filename D:\#cdr\#wav+flac\VA - Yulesville! - 33 Rockin' Rollin' Christmas Blasters For The Cool Season\17. The Drifters with Clyde McPhatter - White Christmas.wav

Pre-gap length 0:00:01.74

Peak level 97.7 %
Extraction speed 8.1 X
Track quality 100.0 %
Test CRC 755ACB20
Copy CRC 755ACB20
Track not present in AccurateRip database
Copy OK

Track 18

Filename D:\#cdr\#wav+flac\VA - Yulesville! - 33 Rockin' Rollin' Christmas Blasters For The Cool Season\18. Kerry Adams - Lonely Christmas.wav

Pre-gap length 0:00:00.74

Peak level 97.7 %
Extraction speed 5.9 X
Track quality 99.9 %
Test CRC E73A18DD
Copy CRC E73A18DD
Track not present in AccurateRip database
Copy OK

Track 19

Filename D:\#cdr\#wav+flac\VA - Yulesville! - 33 Rockin' Rollin' Christmas Blasters For The Cool Season\19. Linda Laurie - All Winter Long.wav

Pre-gap length 0:00:00.74

Peak level 86.7 %
Extraction speed 5.8 X
Track quality 99.9 %
Test CRC 8E00CC15
Copy CRC 8E00CC15
Track not present in AccurateRip database
Copy OK

Track 20

Filename D:\#cdr\#wav+flac\VA - Yulesville! - 33 Rockin' Rollin' Christmas Blasters For The Cool Season\20. The Bookends & Ray Anthony - Christmas Kisses.wav

Pre-gap length 0:00:00.74

Peak level 97.7 %
Extraction speed 5.8 X
Track quality 99.9 %
Test CRC 8AF25FB0
Copy CRC 8AF25FB0
Track not present in AccurateRip database
Copy OK

Track 21

Filename D:\#cdr\#wav+flac\VA - Yulesville! - 33 Rockin' Rollin' Christmas Blasters For The Cool Season\21. The Penguins - Jingle Jangle.wav

Pre-gap length 0:00:00.74

Peak level 97.7 %
Extraction speed 8.5 X
Track quality 100.0 %
Test CRC 8862AE2B
Copy CRC 8862AE2B
Track not present in AccurateRip database
Copy OK

Track 22

Filename D:\#cdr\#wav+flac\VA - Yulesville! - 33 Rockin' Rollin' Christmas Blasters For The Cool Season\22. The Melodeers - Wishing Is For Fools.wav

Pre-gap length 0:00:00.40

Peak level 97.7 %
Extraction speed 8.3 X
Track quality 100.0 %
Test CRC AED44749
Copy CRC AED44749
Track not present in AccurateRip database
Copy OK

Track 23

Filename D:\#cdr\#wav+flac\VA - Yulesville! - 33 Rockin' Rollin' Christmas Blasters For The Cool Season\23. Cordell Jackson - Rock And Roll Christmas.wav

Pre-gap length 0:00:00.74

Peak level 97.7 %
Extraction speed 9.1 X
Track quality 100.0 %
Test CRC D1F3D46D
Copy CRC D1F3D46D
Track not present in AccurateRip database
Copy OK

Track 24

Filename D:\#cdr\#wav+flac\VA - Yulesville! - 33 Rockin' Rollin' Christmas Blasters For The Cool Season\24. Lightnin' Hopkins - Happy New Year.wav

Pre-gap length 0:00:00.74

Peak level 97.7 %
Extraction speed 7.6 X
Track quality 99.9 %
Test CRC AE73FFFF
Copy CRC AE73FFFF
Track not present in AccurateRip database
Copy OK

Track 25

Filename D:\#cdr\#wav+flac\VA - Yulesville! - 33 Rockin' Rollin' Christmas Blasters For The Cool Season\25. The McGuire Sisters - The Cactus Christmas Tree.wav

Pre-gap length 0:00:01.74

Peak level 97.7 %
Extraction speed 9.3 X
Track quality 100.0 %
Test CRC B8EEE6D6
Copy CRC B8EEE6D6
Track not present in AccurateRip database
Copy OK

Track 26

Filename D:\#cdr\#wav+flac\VA - Yulesville! - 33 Rockin' Rollin' Christmas Blasters For The Cool Season\26. The Uniques - Rock'n Rudolph.wav

Pre-gap length 0:00:00.74

Peak level 97.7 %
Extraction speed 8.7 X
Track quality 100.0 %
Test CRC 9A54655C
Copy CRC 9A54655C
Track not present in AccurateRip database
Copy OK

Track 27

Filename D:\#cdr\#wav+flac\VA - Yulesville! - 33 Rockin' Rollin' Christmas Blasters For The Cool Season\27. The Four Imperials - Santa's Got A Coupe De Ville.wav

Pre-gap length 0:00:00.74

Peak level 97.7 %
Extraction speed 7.1 X
Track quality 99.9 %
Test CRC 3E585671
Copy CRC 3E585671
Track not present in AccurateRip database
Copy OK

Track 28

Filename D:\#cdr\#wav+flac\VA - Yulesville! - 33 Rockin' Rollin' Christmas Blasters For The Cool Season\28. The Four Seasons - I Saw Mommy Kissing Santa Claus.wav

Pre-gap length 0:00:00.20

Peak level 97.7 %
Extraction speed 9.5 X
Track quality 100.0 %
Test CRC 62978075
Copy CRC 62978075
Track not present in AccurateRip database
Copy OK

Track 29

Filename D:\#cdr\#wav+flac\VA - Yulesville! - 33 Rockin' Rollin' Christmas Blasters For The Cool Season\29. Dee Dee Ford - Good Morning Blues.wav

Pre-gap length 0:00:00.74

Peak level 97.7 %
Extraction speed 7.5 X
Track quality 99.9 %
Test CRC E1CF4564
Copy CRC E1CF4564
Track not present in AccurateRip database
Copy OK

Track 30

Filename D:\#cdr\#wav+flac\VA - Yulesville! - 33 Rockin' Rollin' Christmas Blasters For The Cool Season\30. Paul Anka - It's Christmas Everywhere.wav

Pre-gap length 0:00:01.74

Peak level 96.3 %
Extraction speed 8.2 X
Track quality 99.9 %
Test CRC 74F5B3CA
Copy CRC 74F5B3CA
Track not present in AccurateRip database
Copy OK

Track 31

Filename D:\#cdr\#wav+flac\VA - Yulesville! - 33 Rockin' Rollin' Christmas Blasters For The Cool Season\31. Little Joey Farr - Rock'n'Roll Santa.wav

Pre-gap length 0:00:00.74

Peak level 97.7 %
Extraction speed 9.0 X
Track quality 100.0 %
Test CRC 23903375
Copy CRC 23903375
Track not present in AccurateRip database
Copy OK

Track 32

Filename D:\#cdr\#wav+flac\VA - Yulesville! - 33 Rockin' Rollin' Christmas Blasters For The Cool Season\32. Dinah Washington - Silent Night.wav

Pre-gap length 0:00:00.74

Peak level 85.8 %
Extraction speed 10.0 X
Track quality 100.0 %
Test CRC 9FBCE797
Copy CRC 9FBCE797
Track not present in AccurateRip database
Copy OK

Track 33

Filename D:\#cdr\#wav+flac\VA - Yulesville! - 33 Rockin' Rollin' Christmas Blasters For The Cool Season\33. Huey 'Piano' Smith & The Clowns - Happy New Year.wav

Pre-gap length 0:00:00.74

Peak level 97.7 %
Extraction speed 8.0 X
Track quality 99.9 %
Test CRC 402F47F1
Copy CRC 402F47F1
Track not present in AccurateRip database
Copy OK


None of the tracks are present in the AccurateRip database

No errors occurred

End of status report

–– CUETools DB Plugin V2.1.6

[CTDB TOCID: ftiKLa9CxSmWnJErWx31YARI95c-] disk not present in database
Submit result: ftiKLa9CxSmWnJErWx31YARI95c- has been uploaded


==== Log checksum 274C2BBEFDB1E0A6625436E0CE7A4EA0ACA942388AB3E55035693A372441E8F2 ====