Subcategories

VA - Cafe Del Mar: Chillhouse Mix 5 (2007)

Posted By: uff
VA - Cafe Del Mar: Chillhouse Mix 5 (2007)

VA - Cafe Del Mar: Chillhouse Mix 5 (2007)
Chillout | 2cd | EAC Rip | Ape + Cue + Log | covers
Cafe Del Mar, 01-2007-73 | rel: 2007 | 980Mb

EU two CD release, the fifth installment in Cafe Del Mar's Chill House series. Chill House Volume Five contains a selection of 20 tracks from the most prestigious names on the Dance scene including Dennis Ferrer, Machomovers, Phonique, Dubtribe Soundsystem, Franck Roger, and many more. Volume Five also includes four previously unreleased titles from DJ Ino, Steven Garcia, Dr. Deep House, and Valent!n Huedo. Two discs full of soft and elegant rhythms that will immediately become part of your favorite collection. ~Amazon

Track listing
cd1:
01. Deep Collective - Lies (5:16)
02. Steven Garcia - Mesmerize (6:00)
03. DJ Ino - Maruxa Wanna Dance (6:24)
04. Robin Masters Orchestra - Searching My Soul (4:34)
05. Trouble feat. Ian Whitelaw & Meitz - Phonique (5:53)
06. Dr. Deep House - Beautiful Morning (5:00)
07. Dennis Ferrer feat. Malena Perez - I Can't Go Under (5:24)
08. Francois Dubois - I Try (Original mix) (4:21)
09. Two Armadillos - Tunnel Of Light (5:22)
10. Fat Freddy's Drop - Hope (3 Generations Walking Remix) (7:00)

cd2:
01. Sunshine Jones - Anywhere You Are (10:48)
02. Hugo Giner - Dark Children (6:06)
03. Valentin H. & C. Banx - German Boys (6:09)
04. Franck Roger - Re-Birth (7:15)
05. Chubby Dubz - See It Thru (Machomovers Remix) (7:59)
06. Da Funk - Dig Dis (Cloudsteppers Remix) (6:56)
07. Jean F. Cochois - Electronique Love (Remix) (5:40)
08. Sendos Fuera - Running (7:53)
09. Audio Soul Project - Community (Fish Go Deep Vocal Mix) (6:23)
10. Solar Sides - Booty Call (5:04)


Exact Audio Copy V1.0 beta 1 from 15. November 2010

EAC extraction logfile from 15. October 2011, 16:30

Various / Cafe Del Mar Chillhouse Mix 5 CD1

Used drive : YAMAHA CRW-F1E Adapter: 8 ID: 4

Read mode : Secure
Utilize accurate stream : Yes
Defeat audio cache : Yes
Make use of C2 pointers : No

Read offset correction : 733
Overread into Lead-In and Lead-Out : No
Fill up missing offset samples with silence : Yes
Delete leading and trailing silent blocks : No
Null samples used in CRC calculations : Yes
Used interface : Native Win32 interface for Win NT & 2000
Gap handling : Appended to previous track

Used output format : Monkey's Audio Lossless Encoder
Selected bitrate : Fast Lossless Compression
Quality : High
Add ID3 tag : Yes
Command line compressor : C:\Program Files\Exact Audio Copy\Mac\MAC.exe
Additional command line options : %dest% -t "Genre=%genre%" -t "Artist=%artist%" -t "Title=%title%" -t "Album=%albumtitle%" -t "Year=%year%" -t "Track=%tracknr%" -t "Comment=%comment%" mac.exe %source% %dest% -c3000


TOC of the extracted CD

Track | Start | Length | Start sector | End sector
––––––––––––––––––––––––––––-
1 | 0:00.00 | 5:16.61 | 0 | 23760
2 | 5:16.61 | 6:00.35 | 23761 | 50795
3 | 11:17.21 | 6:24.37 | 50796 | 79632
4 | 17:41.58 | 4:34.27 | 79633 | 100209
5 | 22:16.10 | 5:53.54 | 100210 | 126738
6 | 28:09.64 | 5:00.10 | 126739 | 149248
7 | 33:09.74 | 5:24.68 | 149249 | 173616
8 | 38:34.67 | 4:21.33 | 173617 | 193224
9 | 42:56.25 | 5:22.71 | 193225 | 217445
10 | 48:19.21 | 7:00.26 | 217446 | 248971


Track 1

Filename F:\ЗАГРУЗКИ\ Cafe Del Mar Chillhouse Mix Collection vol.1 - vol.5\ Cafe Del Mar Chillhouse Mix 5 compiled by Valentin N. 2CD (2007)\ Cafe Del Mar Chillhouse Mix 5 CD1\01. Deep Collective - Lies.wav

Pre-gap length 0:00:02.00

Peak level 96.6 %
Extraction speed 9.6 X
Track quality 100.0 %
Test CRC F3692098
Copy CRC F3692098
Accurately ripped (confidence 2) [D233C02A]
Copy OK

Track 2

Filename F:\ЗАГРУЗКИ\ Cafe Del Mar Chillhouse Mix Collection vol.1 - vol.5\ Cafe Del Mar Chillhouse Mix 5 compiled by Valentin N. 2CD (2007)\ Cafe Del Mar Chillhouse Mix 5 CD1\02. Steven Garcia - Mesmerize.wav

Peak level 96.6 %
Extraction speed 10.8 X
Track quality 100.0 %
Test CRC 32AE298B
Copy CRC 32AE298B
Accurately ripped (confidence 2) [BD76419E]
Copy OK

Track 3

Filename F:\ЗАГРУЗКИ\ Cafe Del Mar Chillhouse Mix Collection vol.1 - vol.5\ Cafe Del Mar Chillhouse Mix 5 compiled by Valentin N. 2CD (2007)\ Cafe Del Mar Chillhouse Mix 5 CD1\03. DJ Ino - Maruxa Wanna Dance.wav

Peak level 96.6 %
Extraction speed 12.0 X
Track quality 99.9 %
Test CRC F359F2A3
Copy CRC F359F2A3
Cannot be verified as accurate (confidence 12) [F518C83F], AccurateRip returned [93BE34E1]
Copy OK

Track 4

Filename F:\ЗАГРУЗКИ\ Cafe Del Mar Chillhouse Mix Collection vol.1 - vol.5\ Cafe Del Mar Chillhouse Mix 5 compiled by Valentin N. 2CD (2007)\ Cafe Del Mar Chillhouse Mix 5 CD1\04. Robin Masters Orchestra - Searching My Soul.wav

Peak level 96.6 %
Extraction speed 13.0 X
Track quality 100.0 %
Test CRC E61854DA
Copy CRC E61854DA
Cannot be verified as accurate (confidence 12) [76DA307D], AccurateRip returned [C4325965]
Copy OK

Track 5

Filename F:\ЗАГРУЗКИ\ Cafe Del Mar Chillhouse Mix Collection vol.1 - vol.5\ Cafe Del Mar Chillhouse Mix 5 compiled by Valentin N. 2CD (2007)\ Cafe Del Mar Chillhouse Mix 5 CD1\05. Trouble feat. Ian Whitelaw & Meitz - Phonique.wav

Peak level 96.6 %
Extraction speed 13.9 X
Track quality 100.0 %
Test CRC A8E3E955
Copy CRC A8E3E955
Accurately ripped (confidence 2) [CE192A12]
Copy OK

Track 6

Filename F:\ЗАГРУЗКИ\ Cafe Del Mar Chillhouse Mix Collection vol.1 - vol.5\ Cafe Del Mar Chillhouse Mix 5 compiled by Valentin N. 2CD (2007)\ Cafe Del Mar Chillhouse Mix 5 CD1\06. Dr. Deep House - Beautiful Morning.wav

Peak level 96.6 %
Extraction speed 14.7 X
Track quality 100.0 %
Test CRC BFAF4801
Copy CRC BFAF4801
Accurately ripped (confidence 2) [1B6D16B2]
Copy OK

Track 7

Filename F:\ЗАГРУЗКИ\ Cafe Del Mar Chillhouse Mix Collection vol.1 - vol.5\ Cafe Del Mar Chillhouse Mix 5 compiled by Valentin N. 2CD (2007)\ Cafe Del Mar Chillhouse Mix 5 CD1\07. Dennis Ferrer feat. Malena Perez - I Can't Go Under.wav

Peak level 96.6 %
Extraction speed 15.4 X
Track quality 100.0 %
Test CRC 03E91CEA
Copy CRC 03E91CEA
Cannot be verified as accurate (confidence 12) [A5C1546C], AccurateRip returned [D5C25697]
Copy OK

Track 8

Filename F:\ЗАГРУЗКИ\ Cafe Del Mar Chillhouse Mix Collection vol.1 - vol.5\ Cafe Del Mar Chillhouse Mix 5 compiled by Valentin N. 2CD (2007)\ Cafe Del Mar Chillhouse Mix 5 CD1\08. Francois Dubois - I Try (Original mix).wav

Peak level 96.6 %
Extraction speed 16.1 X
Track quality 100.0 %
Test CRC CC854BBA
Copy CRC CC854BBA
Cannot be verified as accurate (confidence 12) [F0043B9D], AccurateRip returned [CE06846E]
Copy OK

Track 9

Filename F:\ЗАГРУЗКИ\ Cafe Del Mar Chillhouse Mix Collection vol.1 - vol.5\ Cafe Del Mar Chillhouse Mix 5 compiled by Valentin N. 2CD (2007)\ Cafe Del Mar Chillhouse Mix 5 CD1\09. Two Armadillos - Tunnel Of Light.wav

Peak level 96.6 %
Extraction speed 16.7 X
Track quality 100.0 %
Test CRC 8FE990E9
Copy CRC 8FE990E9
Cannot be verified as accurate (confidence 12) [E6FD6C9F], AccurateRip returned [44CC1BC4]
Copy OK

Track 10

Filename F:\ЗАГРУЗКИ\ Cafe Del Mar Chillhouse Mix Collection vol.1 - vol.5\ Cafe Del Mar Chillhouse Mix 5 compiled by Valentin N. 2CD (2007)\ Cafe Del Mar Chillhouse Mix 5 CD1\10. Fat Freddy's Drop - Hope (3 Generations Walking Remix).wav

Peak level 96.6 %
Extraction speed 14.7 X
Track quality 100.0 %
Test CRC 048CDFD9
Copy CRC 048CDFD9
Cannot be verified as accurate (confidence 12) [BCCC43C9], AccurateRip returned [9BB8BBBB]
Copy OK


4 track(s) accurately ripped
6 track(s) could not be verified as accurate

Some tracks could not be verified as accurate

No errors occurred

End of status report

–-

Exact Audio Copy V1.0 beta 1 from 15. November 2010

EAC extraction logfile from 15. October 2011, 19:39

Various / Cafe Del Mar Chillhouse Mix 5 CD2

Used drive : Optiarc DVD RW AD-7243S Adapter: 4 ID: 0

Read mode : Secure
Utilize accurate stream : Yes
Defeat audio cache : Yes
Make use of C2 pointers : No

Read offset correction : 48
Overread into Lead-In and Lead-Out : No
Fill up missing offset samples with silence : Yes
Delete leading and trailing silent blocks : No
Null samples used in CRC calculations : Yes
Used interface : Native Win32 interface for Win NT & 2000
Gap handling : Appended to previous track

Used output format : Monkey's Audio Lossless Encoder
Selected bitrate : Fast Lossless Compression
Quality : High
Add ID3 tag : Yes
Command line compressor : C:\Program Files\Exact Audio Copy\Mac\MAC.exe
Additional command line options : %dest% -t "Genre=%genre%" -t "Artist=%artist%" -t "Title=%title%" -t "Album=%albumtitle%" -t "Year=%year%" -t "Track=%tracknr%" -t "Comment=%comment%" mac.exe %source% %dest% -c3000


TOC of the extracted CD

Track | Start | Length | Start sector | End sector
––––––––––––––––––––––––––––-
1 | 0:00.00 | 10:48.01 | 0 | 48600
2 | 10:48.01 | 6:06.00 | 48601 | 76050
3 | 16:54.01 | 6:09.16 | 76051 | 103741
4 | 23:03.17 | 7:15.49 | 103742 | 136415
5 | 30:18.66 | 7:59.45 | 136416 | 172385
6 | 38:18.36 | 6:56.40 | 172386 | 203625
7 | 45:15.01 | 5:40.00 | 203626 | 229125
8 | 50:55.01 | 7:53.70 | 229126 | 264670
9 | 58:48.71 | 6:23.62 | 264671 | 293457
10 | 65:12.58 | 5:04.29 | 293458 | 316286


Track 1

Filename F:\ЗАГРУЗКИ\ Cafe Del Mar Chillhouse Mix Collection vol.1 - vol.5\ Cafe Del Mar Chillhouse Mix 5 compiled by Valentin N. 2CD (2007)\ Cafe Del Mar Chillhouse Mix 5 CD2\01. Sunshine Jones - Anywhere You Are.wav

Pre-gap length 0:00:02.00

Peak level 96.6 %
Extraction speed 4.5 X
Track quality 100.0 %
Test CRC 7FBA27A2
Copy CRC 7FBA27A2
Accurately ripped (confidence 2) [1E1FC6CD]
Copy OK

Track 2

Filename F:\ЗАГРУЗКИ\ Cafe Del Mar Chillhouse Mix Collection vol.1 - vol.5\ Cafe Del Mar Chillhouse Mix 5 compiled by Valentin N. 2CD (2007)\ Cafe Del Mar Chillhouse Mix 5 CD2\02. Hugo Giner - Dark Children.wav

Peak level 96.6 %
Extraction speed 5.3 X
Track quality 100.0 %
Test CRC 09341640
Copy CRC 09341640
Accurately ripped (confidence 3) [2F716A1E]
Copy OK

Track 3

Filename F:\ЗАГРУЗКИ\ Cafe Del Mar Chillhouse Mix Collection vol.1 - vol.5\ Cafe Del Mar Chillhouse Mix 5 compiled by Valentin N. 2CD (2007)\ Cafe Del Mar Chillhouse Mix 5 CD2\03. Valentin H. & C. Banx - German Boys.wav

Peak level 96.6 %
Extraction speed 5.7 X
Track quality 100.0 %
Test CRC 3DFC0F63
Copy CRC 3DFC0F63
Accurately ripped (confidence 2) [A8A5FE0C]
Copy OK

Track 4

Filename F:\ЗАГРУЗКИ\ Cafe Del Mar Chillhouse Mix Collection vol.1 - vol.5\ Cafe Del Mar Chillhouse Mix 5 compiled by Valentin N. 2CD (2007)\ Cafe Del Mar Chillhouse Mix 5 CD2\04. Franck Roger - Re-Birth.wav

Peak level 96.6 %
Extraction speed 6.3 X
Track quality 99.9 %
Test CRC 59FDE64B
Copy CRC 59FDE64B
Accurately ripped (confidence 3) [BD627A41]
Copy OK

Track 5

Filename F:\ЗАГРУЗКИ\ Cafe Del Mar Chillhouse Mix Collection vol.1 - vol.5\ Cafe Del Mar Chillhouse Mix 5 compiled by Valentin N. 2CD (2007)\ Cafe Del Mar Chillhouse Mix 5 CD2\05. Chubby Dubz - See It Thru (Machomovers Remix).wav

Peak level 96.6 %
Extraction speed 6.9 X
Track quality 100.0 %
Test CRC A7A726D1
Copy CRC A7A726D1
Accurately ripped (confidence 2) [53AE1C68]
Copy OK

Track 6

Filename F:\ЗАГРУЗКИ\ Cafe Del Mar Chillhouse Mix Collection vol.1 - vol.5\ Cafe Del Mar Chillhouse Mix 5 compiled by Valentin N. 2CD (2007)\ Cafe Del Mar Chillhouse Mix 5 CD2\06. Da Funk - Dig Dis (Cloudsteppers Remix).wav

Peak level 96.6 %
Extraction speed 6.5 X
Track quality 99.9 %
Test CRC BE7BDC4A
Copy CRC BE7BDC4A
Accurately ripped (confidence 2) [D946605D]
Copy OK

Track 7

Filename F:\ЗАГРУЗКИ\ Cafe Del Mar Chillhouse Mix Collection vol.1 - vol.5\ Cafe Del Mar Chillhouse Mix 5 compiled by Valentin N. 2CD (2007)\ Cafe Del Mar Chillhouse Mix 5 CD2\07. Jean F. Cochois - Electronique Love (Remix).wav

Peak level 96.6 %
Extraction speed 7.6 X
Track quality 100.0 %
Test CRC 57205DB7
Copy CRC 57205DB7
Accurately ripped (confidence 3) [A5D425B4]
Copy OK

Track 8

Filename F:\ЗАГРУЗКИ\ Cafe Del Mar Chillhouse Mix Collection vol.1 - vol.5\ Cafe Del Mar Chillhouse Mix 5 compiled by Valentin N. 2CD (2007)\ Cafe Del Mar Chillhouse Mix 5 CD2\08. Sendos Fuera - Running.wav

Peak level 96.6 %
Extraction speed 8.1 X
Track quality 100.0 %
Test CRC E3EFBD42
Copy CRC E3EFBD42
Accurately ripped (confidence 2) [8CA22722]
Copy OK

Track 9

Filename F:\ЗАГРУЗКИ\ Cafe Del Mar Chillhouse Mix Collection vol.1 - vol.5\ Cafe Del Mar Chillhouse Mix 5 compiled by Valentin N. 2CD (2007)\ Cafe Del Mar Chillhouse Mix 5 CD2\09. Audio Soul Project - Community (Fish Go Deep Vocal Mix).wav

Peak level 96.6 %
Extraction speed 8.4 X
Track quality 100.0 %
Test CRC 41F5F9A8
Copy CRC 41F5F9A8
Accurately ripped (confidence 3) [DE4503D5]
Copy OK

Track 10

Filename F:\ЗАГРУЗКИ\ Cafe Del Mar Chillhouse Mix Collection vol.1 - vol.5\ Cafe Del Mar Chillhouse Mix 5 compiled by Valentin N. 2CD (2007)\ Cafe Del Mar Chillhouse Mix 5 CD2\10. Solar Sides - Booty Call.wav

Peak level 96.6 %
Extraction speed 8.7 X
Track quality 100.0 %
Test CRC 5C6D8FF5
Copy CRC 5C6D8FF5
Accurately ripped (confidence 3) [7974FB0D]
Copy OK


All tracks accurately ripped

No errors occurred

End of status report



[CUETools log; Date: 2016. 07. 12. 15:13:01; Version: 2.1.6]
[CTDB TOCID: CuHF89Jq2WJWoZ12_QUYpjMAOCg-] found.
Track | CTDB Status
1 | (16/16) Accurately ripped
2 | (16/16) Accurately ripped
3 | (16/16) Accurately ripped
4 | (16/16) Accurately ripped
5 | (16/16) Accurately ripped
6 | (16/16) Accurately ripped
7 | (16/16) Accurately ripped
8 | (16/16) Accurately ripped
9 | (16/16) Accurately ripped
10 | (16/16) Accurately ripped
[AccurateRip ID: 0014cec0-00a5cc77-900cf70a] found.
Track [ CRC | V2 ] Status
01 [d233c02a|1ca598f9] (02+00/18) Accurately ripped
02 [bd76419e|7463932d] (02+00/17) Accurately ripped
03 [f518c83f|af6b9fd5] (00+00/16) No match
04 [76da307d|e59b8e18] (00+00/16) No match
05 [ce192a12|3b6b9651] (02+00/18) Accurately ripped
06 [1b6d16b2|a836b0bf] (02+00/18) Accurately ripped
07 [a5c1546c|2cc4be9f] (00+00/16) No match
08 [f0043b9d|7a42c179] (00+00/16) No match
09 [e6fd6c9f|01973bf9] (00+00/16) No match
10 [bccc43c9|eac68d76] (00+00/16) No match
Offsetted by 30:
01 [6ad7a3c0] (13/18) Accurately ripped
02 [a14fa7c4] (12/17) Accurately ripped
03 [93be34e1] (13/16) Accurately ripped
04 [c4325965] (13/16) Accurately ripped
05 [0f651328] (13/18) Accurately ripped
06 [719b3b87] (13/18) Accurately ripped
07 [d5c25697] (13/16) Accurately ripped
08 [ce06846e] (13/16) Accurately ripped
09 [44cc1bc4] (13/16) Accurately ripped
10 [9bb8bbbb] (13/16) Accurately ripped

Track Peak [ CRC32 ] [W/O NULL] [ LOG ]
– 96,6 [1502D0E1] [9E2AEF4E]
01 96,6 [F3692098] [BC92B0D7] CRC32
02 96,6 [32AE298B] [55988E02] CRC32
03 96,6 [F359F2A3] [572EE1FF] CRC32
04 96,6 [E61854DA] [91AE326F] CRC32
05 96,6 [A8E3E955] [38DFCB49] CRC32
06 96,6 [BFAF4801] [825FA291] CRC32
07 96,6 [03E91CEA] [0C73F3D2] CRC32
08 96,6 [CC854BBA] [BBCE7B6A] CRC32
09 96,6 [8FE990E9] [EA99BF7D] CRC32
10 96,6 [048CDFD9] [539651A5] CRC32

–-
[CUETools log; Date: 2016. 07. 12. 15:14:25; Version: 2.1.6]
[CTDB TOCID: jdNbyBddzmOZNOiJbtmIli97NYY-] found.
Track | CTDB Status
1 | (13/13) Accurately ripped
2 | (12/13) Accurately ripped
3 | (13/13) Accurately ripped
4 | (13/13) Accurately ripped
5 | (13/13) Accurately ripped
6 | (13/13) Accurately ripped
7 | (13/13) Accurately ripped
8 | (13/13) Accurately ripped
9 | (13/13) Accurately ripped
10 | (13/13) Accurately ripped
[AccurateRip ID: 001c248c-00dd6b26-7210790a] found.
Track [ CRC | V2 ] Status
01 [1e1fc6cd|85acf558] (02+00/17) Accurately ripped
02 [2f716a1e|df6f1f9a] (03+00/18) Accurately ripped
03 [a8a5fe0c|69a39fcf] (02+00/17) Accurately ripped
04 [bd627a41|c951e368] (03+00/18) Accurately ripped
05 [53ae1c68|21a0a939] (02+00/17) Accurately ripped
06 [d946605d|5be29580] (02+00/17) Accurately ripped
07 [a5d425b4|5b7d1bfb] (03+00/18) Accurately ripped
08 [8ca22722|bd532545] (02+00/16) Accurately ripped
09 [de4503d5|f20f7247] (03+00/18) Accurately ripped
10 [7974fb0d|79f3f6bf] (03+00/17) Accurately ripped
Offsetted by 30:
01 [b17315ff] (12/17) Accurately ripped
02 [4ece347c] (12/18) Accurately ripped
03 [47a804ad] (12/17) Accurately ripped
04 [be5fa41c] (12/18) Accurately ripped
05 [4cafbd6a] (12/17) Accurately ripped
06 [074cf110] (12/17) Accurately ripped
07 [44decea5] (12/18) Accurately ripped
08 [ee7714bb] (11/16) Accurately ripped
09 [87e069c8] (12/18) Accurately ripped
10 [a8633d5d] (11/17) Accurately ripped

Track Peak [ CRC32 ] [W/O NULL] [ LOG ]
– 96,6 [B25DADCF] [CA61BD17]
01 96,6 [7FBA27A2] [B292BF41] CRC32
02 96,6 [09341640] [76E83A52] CRC32
03 96,6 [3DFC0F63] [8BDF3E79] CRC32
04 96,6 [59FDE64B] [03AE2985] CRC32
05 96,6 [A7A726D1] [DC46EB5F] CRC32
06 96,6 [BE7BDC4A] [1E0DE8C8] CRC32
07 96,6 [57205DB7] [19C7DCD9] CRC32
08 96,6 [E3EFBD42] [103D2E2C] CRC32
09 96,6 [41F5F9A8] [60D09311] CRC32
10 96,6 [5C6D8FF5] [C2593D38] CRC32


Thx to oleandris
Bigfile
Yunfile

password: asd