Subcategories

VA - A Tribute To The Priest (2002) (Japanese KICP 911)

Posted By: Necromandus
VA - A Tribute To The Priest (2002) (Japanese KICP 911)

VA - A Tribute To The Priest (2002)
EAC Rip | FLAC, IMG+CUE+LOG | 470 MB | MP3 CBR 320 Kbps | 140 MB | Complete HQ Scans | PNG -> 110 MB
Metal | Label: King Records Co., Japan #KICP 911 | RAR 3% Rec. | FilePost

When we lay back and think about the glorious days when the first real metal bands came up, we might think about acts like Iron Maiden, Manowar, Black Sabbath, Metallica or Judas Priest, just to name a few of them. Judas Priest soon became a cult act, just after the release of their excellent debut album Rocka Rolla in 1974! Rob Halford, vocalist and frontman of Judas Priest back then, soon became the "Metal God"! The band has released many classic albums and influenced a whole scene. Classics like British Steel, Screaming For Vengeance or Painkiller should be in every record collection. 28 years after the band was founded, Nuclear Blast Records created a sensational collection of the best cover-versions ever done on Judas Priest. You can find the absolute elite of today's Heavy Metal scene like Primal Fear, Iced Earth, HammerFall, Annihilator and Therion. 14 bands paying tribute to the one and only Metal God - to the one and only Priest.Enjoy this unique album and excellent versions of some of the best Judas Priest tracks ever like Metal Gods, Breaking The Law, All Guns Blazing or Painkiller. Judas Priest will always stay in metal hearts around the world, and this tribute makes them even more immortal.

~ Nuclearblast.de
Tracklist :

1. Annihilator - Hell Bent For Leather - 2:49
2. Primal Fear - Metal Gods - 3:37
3. Onmyo-Za - Beyond The Realms Of Death - 7:00
4. Witchery - Riding On The Wind - 2:48
5. Iced Earth - Screaming For Vengeance - 4:37
6. Siebenburgen - Jawbreaker - 3:54
7. Hammerfall - Breaking The Law - 2:12
8. Benediction - Electric Eye - 4:18
9. Death - Painkiller - 6:02
10. Silent Force - All Guns Blazing - 3:24
11. Steel Prophet - Dreamer, Deciever - 5:25
12. Armored Saint - Never Satisfied - 4:34
13. Therion - Green Manalishi - 3:21
14. Thunderstone - Diamonds And Rust - 3:26

Exact Audio Copy V0.99 prebeta 5 from 4. May 2009

EAC extraction logfile from 28. May 2012, 23:17

Various / A Tribute to The Priest

Used drive : Optiarc BD RW BD-5740H Adapter: 0 ID: 1

Read mode : Secure
Utilize accurate stream : Yes
Defeat audio cache : Yes
Make use of C2 pointers : No

Read offset correction : 48
Overread into Lead-In and Lead-Out : No
Fill up missing offset samples with silence : Yes
Delete leading and trailing silent blocks : No
Null samples used in CRC calculations : Yes
Used interface : Native Win32 interface for Win NT & 2000

Used output format : User Defined Encoder
Selected bitrate : 128 kBit/s
Quality : High
Add ID3 tag : No
Command line compressor : C:\Program Files (x86)\FLAC\flac.exe
Additional command line options : -T "DATE=%y" -T "GENRE=%m" -8 -V %s


TOC of the extracted CD

Track | Start | Length | Start sector | End sector
––––––––––––––––––––––––––––-
1 | 0:00.00 | 2:49.20 | 0 | 12694
2 | 2:49.20 | 3:37.12 | 12695 | 28981
3 | 6:26.32 | 7:00.35 | 28982 | 60516
4 | 13:26.67 | 2:47.53 | 60517 | 73094
5 | 16:14.45 | 4:37.12 | 73095 | 93881
6 | 20:51.57 | 3:54.25 | 93882 | 111456
7 | 24:46.07 | 2:12.00 | 111457 | 121356
8 | 26:58.07 | 4:17.53 | 121357 | 140684
9 | 31:15.60 | 6:01.50 | 140685 | 167809
10 | 37:17.35 | 3:24.35 | 167810 | 183144
11 | 40:41.70 | 5:24.57 | 183145 | 207501
12 | 46:06.52 | 4:34.13 | 207502 | 228064
13 | 50:40.65 | 3:21.37 | 228065 | 243176
14 | 54:02.27 | 3:25.53 | 243177 | 258604


Range status and errors

Selected range

Filename C:\Ripped By liveevil\Various - A Tribute to The Priest.wav

Peak level 100.0 %
Range quality 100.0 %
Test CRC FBD51101
Copy CRC FBD51101
Copy OK

No errors occurred


AccurateRip summary

Track 1 not present in database
Track 2 not present in database
Track 3 not present in database
Track 4 not present in database
Track 5 not present in database
Track 6 not present in database
Track 7 not present in database
Track 8 not present in database
Track 9 not present in database
Track 10 not present in database
Track 11 not present in database
Track 12 not present in database
Track 13 not present in database
Track 14 not present in database

None of the tracks are present in the AccurateRip database

End of status report
Lossless (FLAC)*
http://filepost.com/files/f667d5e3/VA02ATTTPLOS.rar

All Covers.png
http://filepost.com/files/ed135m3d/VA02ATTTPCOV.rar

Lossy HQ (320 Kbps CBR)
http://filepost.com/files/746522c9/VA02ATTTPMP3.rar

* Original CD -> EAC image, embedded cuesheet & more, foobar2000 ready, etc.
(all CUEs, LOGs and other technical info includes in the internal "CD_Support" archive).

Huge thanks to my friend Sanych aka liveevil!