Subcategories

V.A. - Ambrosia (Selected by Fishimself) (2011)

Posted By: gribovar
V.A. - Ambrosia (Selected by Fishimself) (2011)

V.A. - Ambrosia (Selected by Fishimself) (2011)
EAC Rip | FLAC (image+.cue+log) - 532 MB | MP3 CBR 320 kbps (LAME 3.93) - 289 MB | Covers included
Genre: Downtempo, Ambient | RAR 3% Rec. | Label: Ultimae Records (inre 049)

'Ambrosia' is compiled by Fishimself and consists of 10 tracks composed by mainly Greek artists, whose names were seldom heard of, but who should quickly reach the pantheon of Psychill. The compilation forms a dense musical journey built upon warm, downtempo grooves with a touch of electronica, breakbeat and idm, wrapped in hypnotic atmospheres, pulsating basslines and melancholic pads. Featuring Max Million and Gusk, Miktek, Sygnals, Sesen, Alpha Tek, Memphidos, One Arc Degree, and two French guests, Aes Dana and Asura.
Tracklist:
01. Max Million & Gusk - Sub Strata
02. Miktek - Light Tails
03. One Arc Degree - Distant Industries
04. Aes Dana - Principles Of Gravity
05. Sygnals - Homo Imperceptibilis
06. Sesen - Sun Ritual
07. Alpha Tek - Hyades
08. Asura - V.A.N.T.A.
09. Memphidos - Why
10. Miktek - Ominous Ride

Total time: 01:14:58

Exact Audio Copy V1.0 beta 3 from 29. August 2011

EAC extraction logfile from 16. December 2012, 22:13

Fishimself / Ambrosia

Used drive : Optiarc DVD RW AD-7240S Adapter: 4 ID: 0

Read mode : Secure
Utilize accurate stream : Yes
Defeat audio cache : Yes
Make use of C2 pointers : No

Read offset correction : 48
Overread into Lead-In and Lead-Out : No
Fill up missing offset samples with silence : Yes
Delete leading and trailing silent blocks : No
Null samples used in CRC calculations : Yes
Used interface : Native Win32 interface for Win NT & 2000

Used output format : User Defined Encoder
Selected bitrate : 1024 kBit/s
Quality : High
Add ID3 tag : No
Command line compressor : C:\Program Files (x86)\Exact Audio Copy\Flac\flac.exe
Additional command line options : -8 -V -T "ARTIST=%artist%" -T "TITLE=%title%" -T "ALBUM=%albumtitle%" -T "DATE=%year%" -T "TRACKNUMBER=%tracknr%" -T "GENRE=%genre%" -T "COMMENT=%comment%" %source% -o %dest%


TOC of the extracted CD

Track | Start | Length | Start sector | End sector
––––––––––––––––––––––––––––-
1 | 0:00.00 | 6:33.46 | 0 | 29520
2 | 6:33.46 | 5:28.32 | 29521 | 54152
3 | 12:02.03 | 6:13.40 | 54153 | 82167
4 | 18:15.43 | 7:27.41 | 82168 | 115733
5 | 25:43.09 | 9:39.60 | 115734 | 159218
6 | 35:22.69 | 7:43.02 | 159219 | 193945
7 | 43:05.71 | 7:12.32 | 193946 | 226377
8 | 50:18.28 | 9:39.23 | 226378 | 269825
9 | 59:57.51 | 8:32.60 | 269826 | 308285
10 | 68:30.36 | 6:27.06 | 308286 | 337316


Range status and errors

Selected range

Filename R:\_EAC_Ripped\Fishimself - Ambrosia.wav

Peak level 98.6 %
Extraction speed 4.5 X
Range quality 100.0 %
Test CRC 2A814642
Copy CRC 2A814642
Copy OK

No errors occurred


AccurateRip summary

Track 1 accurately ripped (confidence 2) [39608D27] (AR v2)
Track 2 accurately ripped (confidence 2) [5430F977] (AR v2)
Track 3 accurately ripped (confidence 2) [46FDD611] (AR v2)
Track 4 accurately ripped (confidence 2) [1887F2F8] (AR v2)
Track 5 accurately ripped (confidence 2) [EC54032A] (AR v2)
Track 6 accurately ripped (confidence 2) [CDD4684B] (AR v2)
Track 7 accurately ripped (confidence 2) [00A25464] (AR v2)
Track 8 accurately ripped (confidence 2) [ACBCA9B0] (AR v2)
Track 9 accurately ripped (confidence 2) [CF7A17BC] (AR v2)
Track 10 accurately ripped (confidence 2) [88E378EE] (AR v2)

All tracks accurately ripped

End of status report

==== Log checksum 92551F4E6A0C3A23664A7E1D2EF097F0395F4220642D1B6C0B61B31E05CAAAEE ====

Thanks to EPSmuz

More Ultimae Records' releases from my blog:
Ultimae Records
LOSSLESS:

Filepost.com
________________

MP3 320 kbps:

Filepost.com