Subcategories

V.A. - Best Of Chillout Lemongrassmusic Vol. II (2013)

Posted By: gribovar
V.A. - Best Of Chillout Lemongrassmusic Vol. II (2013)

V.A. - Best Of Chillout Lemongrassmusic Vol. II (2013)
EAC Rip | FLAC (tracks+.cue+log) - 751 MB | MP3 CBR 320 kbps (LAME 3.93) - 312 MB | Covers - 147 MB
Genre: Chillout, Downtempo, Ambient | RAR 3% Rec. | Label: DreaMusic (ПРЗ CD06346)

Openzone Bar, Faro, Beach Hoppers, Jane Maximova, Five Seasons, Lemongrass and more.
CD 1 Tracklist:
01. Tim Angrave - Midnight Waves
02. Openzone Bar - Tranquility
03. Faro - Flee
04. Beach Hoppers - Bit By Bit
05. Weathertunes - Confidence
06. Around Midnight - Skylent
07. S.W. - Within A Dream
08. Jane Maximova feat. Dmitry Raschepkin - Morning Bird
09. Five Seasons - Love Apple (Lemongrass Wet Dreams Remix)
10. Kiwi Twist - Jazz Lady
11. Dub Mars - Bask In The Sun
12. Lemongrass - Daydreamer
13. Airily - Shinjiru

Total time: 01:01:39

CD 2 Tracklist:
01. Dub Mars - Between The Lines
02. Faro - Bridge Of Sighs
03. Lemongrass - Behind The Scenes
04. Openzone Bar - Old And Cold
05. Keisuke Sakai - Mizu Sumu
06. Tim Angrave - Heartbeat
07. Tafubar + Eskadet feat. Airily - Paradise Reconquered
08. Placid Larry - Dew Drops
09. Eskadet - New Conditions
10. Synapsis - Alluring Force
11. S.W. - Terokh Jeruth
12. InnamoratoDellaMusica - Warm Place
13. Weathertunes - Healing Water

Total time: 01:11:02

Exact Audio Copy V1.0 beta 3 from 29. August 2011

EAC extraction logfile from 4. March 2013, 19:00

VA / Best Of Chillout Lemongrassmusic Volume II (CD1)

Used drive : HL-DT-STDVDRAM GT31N Adapter: 0 ID: 1

Read mode : Secure
Utilize accurate stream : Yes
Defeat audio cache : Yes
Make use of C2 pointers : No

Read offset correction : 103
Overread into Lead-In and Lead-Out : No
Fill up missing offset samples with silence : Yes
Delete leading and trailing silent blocks : No
Null samples used in CRC calculations : Yes
Used interface : Native Win32 interface for Win NT & 2000
Gap handling : Appended to previous track

Used output format : User Defined Encoder
Selected bitrate : 128 kBit/s
Quality : High
Add ID3 tag : No
Command line compressor : C:\Program Files (x86)\Exact Audio Copy\Flac\flac.exe
Additional command line options : -8 -V -T "ARTIST=%artist%" -T "TITLE=%title%" -T "ALBUM=%albumtitle%" -T "DATE=%year%" -T "TRACKNUMBER=%tracknr%" -T "GENRE=%genre%" -T "COMMENT=ripped by serginho199®" %source%


TOC of the extracted CD

Track | Start | Length | Start sector | End sector
––––––––––––––––––––––––––––-
1 | 0:00.00 | 6:36.00 | 0 | 29699
2 | 6:36.00 | 4:00.06 | 29700 | 47705
3 | 10:36.06 | 6:00.02 | 47706 | 74707
4 | 16:36.08 | 5:45.63 | 74708 | 100645
5 | 22:21.71 | 4:13.26 | 100646 | 119646
6 | 26:35.22 | 4:20.00 | 119647 | 139146
7 | 30:55.22 | 4:29.39 | 139147 | 159360
8 | 35:24.61 | 5:53.10 | 159361 | 185845
9 | 41:17.71 | 3:50.74 | 185846 | 203169
10 | 45:08.70 | 3:13.20 | 203170 | 217664
11 | 48:22.15 | 3:46.57 | 217665 | 234671
12 | 52:08.72 | 3:55.45 | 234672 | 252341
13 | 56:04.42 | 5:35.27 | 252342 | 277493


Track 1

Filename C:\EACrips\VA - Best Of Chillout Lemongrassmusic Volume II (2013) [FLAC]\1.01. Tim Angrave - Midnight Waves.wav

Pre-gap length 0:00:02.00

Peak level 98.7 %
Extraction speed 1.3 X
Track quality 100.0 %
Test CRC 742ABD7B
Copy CRC 742ABD7B
Track not present in AccurateRip database
Copy OK

Track 2

Filename C:\EACrips\VA - Best Of Chillout Lemongrassmusic Volume II (2013) [FLAC]\1.02. Openzone Bar - Tranquility.wav

Peak level 99.9 %
Extraction speed 1.4 X
Track quality 100.0 %
Test CRC 8F4FE56C
Copy CRC 8F4FE56C
Track not present in AccurateRip database
Copy OK

Track 3

Filename C:\EACrips\VA - Best Of Chillout Lemongrassmusic Volume II (2013) [FLAC]\1.03. Faro - Flee.wav

Peak level 100.0 %
Extraction speed 1.6 X
Track quality 100.0 %
Test CRC A0CA8CAA
Copy CRC A0CA8CAA
Track not present in AccurateRip database
Copy OK

Track 4

Filename C:\EACrips\VA - Best Of Chillout Lemongrassmusic Volume II (2013) [FLAC]\1.04. Beach Hoppers - Bit By Bit.wav

Peak level 98.7 %
Extraction speed 1.8 X
Track quality 100.0 %
Test CRC 7E3ADBC1
Copy CRC 7E3ADBC1
Track not present in AccurateRip database
Copy OK

Track 5

Filename C:\EACrips\VA - Best Of Chillout Lemongrassmusic Volume II (2013) [FLAC]\1.05. Weathertunes - Confidence.wav

Peak level 98.6 %
Extraction speed 1.9 X
Track quality 100.0 %
Test CRC 741F326D
Copy CRC 741F326D
Track not present in AccurateRip database
Copy OK

Track 6

Filename C:\EACrips\VA - Best Of Chillout Lemongrassmusic Volume II (2013) [FLAC]\1.06. Around Midnight - Skylent.wav

Peak level 100.0 %
Extraction speed 2.0 X
Track quality 100.0 %
Test CRC 184E8ED0
Copy CRC 184E8ED0
Track not present in AccurateRip database
Copy OK

Track 7

Filename C:\EACrips\VA - Best Of Chillout Lemongrassmusic Volume II (2013) [FLAC]\1.07. S.W. - Within A Dream.wav

Peak level 98.4 %
Extraction speed 2.1 X
Track quality 100.0 %
Test CRC 6CE50C5D
Copy CRC 6CE50C5D
Track not present in AccurateRip database
Copy OK

Track 8

Filename C:\EACrips\VA - Best Of Chillout Lemongrassmusic Volume II (2013) [FLAC]\1.08. Jane Maximova feat. Dmitry Raschepkin - Morning Bird.wav

Peak level 96.6 %
Extraction speed 2.3 X
Track quality 100.0 %
Test CRC 3CD78293
Copy CRC 3CD78293
Track not present in AccurateRip database
Copy OK

Track 9

Filename C:\EACrips\VA - Best Of Chillout Lemongrassmusic Volume II (2013) [FLAC]\1.09. Five Seasons - Love Apple (Lemongrass Wet Dreams Remix).wav

Peak level 100.0 %
Extraction speed 2.2 X
Track quality 100.0 %
Test CRC EC3E9DE8
Copy CRC EC3E9DE8
Track not present in AccurateRip database
Copy OK

Track 10

Filename C:\EACrips\VA - Best Of Chillout Lemongrassmusic Volume II (2013) [FLAC]\1.10. Kiwi Twist - Jazz Lady.wav

Peak level 97.0 %
Extraction speed 2.2 X
Track quality 100.0 %
Test CRC F46EC729
Copy CRC F46EC729
Track not present in AccurateRip database
Copy OK

Track 11

Filename C:\EACrips\VA - Best Of Chillout Lemongrassmusic Volume II (2013) [FLAC]\1.11. Dub Mars - Bask In The Sun.wav

Peak level 98.8 %
Extraction speed 2.1 X
Track quality 99.9 %
Test CRC EE573F6D
Copy CRC EE573F6D
Track not present in AccurateRip database
Copy OK

Track 12

Filename C:\EACrips\VA - Best Of Chillout Lemongrassmusic Volume II (2013) [FLAC]\1.12. Lemongrass - Daydreamer.wav

Peak level 99.9 %
Extraction speed 2.4 X
Track quality 100.0 %
Test CRC D759C9EE
Copy CRC D759C9EE
Track not present in AccurateRip database
Copy OK

Track 13

Filename C:\EACrips\VA - Best Of Chillout Lemongrassmusic Volume II (2013) [FLAC]\1.13. Airily - Shinjiru.wav

Peak level 98.7 %
Extraction speed 2.6 X
Track quality 100.0 %
Test CRC 7FAAF11E
Copy CRC 7FAAF11E
Track not present in AccurateRip database
Copy OK


None of the tracks are present in the AccurateRip database

No errors occurred

End of status report

–– CUETools DB Plugin V2.1.4

[CTDB TOCID: sGa06rhyxjJI90SSsUhKsuo.4Rs-] disk not present in database
Submit result: sGa06rhyxjJI90SSsUhKsuo.4Rs- has been uploaded


==== Log checksum 50DD686AB97AE5528F34B182114AA5959395B49890DC43B5E04DC2A32E6E69AC ====

[CUETools log; Date: 14.06.2018 14:31:54; Version: 2.1.4]
[CTDB TOCID: sGa06rhyxjJI90SSsUhKsuo.4Rs-] found.
Track | CTDB Status
1 | (2/2) Accurately ripped
2 | (2/2) Accurately ripped
3 | (2/2) Accurately ripped
4 | (2/2) Accurately ripped
5 | (2/2) Accurately ripped
6 | (2/2) Accurately ripped
7 | (2/2) Accurately ripped
8 | (2/2) Accurately ripped
9 | (2/2) Accurately ripped
10 | (2/2) Accurately ripped
11 | (2/2) Accurately ripped
12 | (2/2) Accurately ripped
13 | (2/2) Accurately ripped
[AccurateRip ID: 001f28f8-0131f5eb-ca0e730d] found.
Track [ CRC | V2 ] Status
01 [4a06005e|2db4093e] (0+2/2) Accurately ripped
02 [a85744d1|d23bf60b] (0+2/2) Accurately ripped
03 [519dcd12|8883d313] (0+2/2) Accurately ripped
04 [6f33515b|162ba352] (0+2/2) Accurately ripped
05 [fe40c762|98aa806f] (0+2/2) Accurately ripped
06 [78e55a3a|942f384e] (0+2/2) Accurately ripped
07 [5b189c30|737b5710] (0+2/2) Accurately ripped
08 [0b3d87a0|99d2dcb8] (0+2/2) Accurately ripped
09 [9f6aac42|b0fd48e0] (0+2/2) Accurately ripped
10 [08699e83|e9ddc552] (0+2/2) Accurately ripped
11 [0260269e|81c2a961] (0+2/2) Accurately ripped
12 [a784f484|e9d68ef5] (0+2/2) Accurately ripped
13 [1c64b703|334ceb2d] (0+2/2) Accurately ripped

Track Peak [ CRC32 ] [W/O NULL] [ LOG ]
– 100,0 [FEA9ACC6] [F70CA2B1]
01 98,7 [742ABD7B] [0E3DD4D4] CRC32
02 99,9 [8F4FE56C] [926C3F4D] CRC32
03 100,0 [A0CA8CAA] [85E482F2] CRC32
04 98,7 [7E3ADBC1] [360E3843] CRC32
05 98,6 [741F326D] [6354A74E] CRC32
06 100,0 [184E8ED0] [1F5881DC] CRC32
07 98,4 [6CE50C5D] [6F9541BD] CRC32
08 96,6 [3CD78293] [4768A820] CRC32
09 100,0 [EC3E9DE8] [34243C92] CRC32
10 97,0 [F46EC729] [3B16B992] CRC32
11 98,8 [EE573F6D] [FEC3D842] CRC32
12 99,9 [D759C9EE] [DCB1240E] CRC32
13 98,7 [7FAAF11E] [B557611B] CRC32

Exact Audio Copy V1.0 beta 3 from 29. August 2011

EAC extraction logfile from 4. March 2013, 20:19

VA / Best Of Chillout Lemongrassmusic Volume II (CD2)

Used drive : HL-DT-STDVDRAM GT31N Adapter: 0 ID: 1

Read mode : Secure
Utilize accurate stream : Yes
Defeat audio cache : Yes
Make use of C2 pointers : No

Read offset correction : 103
Overread into Lead-In and Lead-Out : No
Fill up missing offset samples with silence : Yes
Delete leading and trailing silent blocks : No
Null samples used in CRC calculations : Yes
Used interface : Native Win32 interface for Win NT & 2000
Gap handling : Appended to previous track

Used output format : User Defined Encoder
Selected bitrate : 128 kBit/s
Quality : High
Add ID3 tag : No
Command line compressor : C:\Program Files (x86)\Exact Audio Copy\Flac\flac.exe
Additional command line options : -8 -V -T "ARTIST=%artist%" -T "TITLE=%title%" -T "ALBUM=%albumtitle%" -T "DATE=%year%" -T "TRACKNUMBER=%tracknr%" -T "GENRE=%genre%" -T "COMMENT=ripped by serginho199®" %source%


TOC of the extracted CD

Track | Start | Length | Start sector | End sector
––––––––––––––––––––––––––––-
1 | 0:00.00 | 5:09.42 | 0 | 23216
2 | 5:09.42 | 5:04.03 | 23217 | 46019
3 | 10:13.45 | 5:40.15 | 46020 | 71534
4 | 15:53.60 | 5:26.48 | 71535 | 96032
5 | 21:20.33 | 4:40.31 | 96033 | 117063
6 | 26:00.64 | 7:15.26 | 117064 | 149714
7 | 33:16.15 | 4:10.00 | 149715 | 168464
8 | 37:26.15 | 5:07.29 | 168465 | 191518
9 | 42:33.44 | 5:59.00 | 191519 | 218443
10 | 48:32.44 | 5:56.00 | 218444 | 245143
11 | 54:28.44 | 6:21.37 | 245144 | 273755
12 | 60:50.06 | 4:06.00 | 273756 | 292205
13 | 64:56.06 | 6:06.65 | 292206 | 319720


Track 1

Filename C:\EACrips\VA - Best Of Chillout Lemongrassmusic Volume II (2013) [FLAC]\2.01. Dub Mars - Between The Lines.wav

Pre-gap length 0:00:02.00

Peak level 96.5 %
Extraction speed 1.3 X
Track quality 100.0 %
Test CRC F2AECA20
Copy CRC F2AECA20
Track not present in AccurateRip database
Copy OK

Track 2

Filename C:\EACrips\VA - Best Of Chillout Lemongrassmusic Volume II (2013) [FLAC]\2.02. Faro - Bridge Of Sighs.wav

Peak level 99.8 %
Extraction speed 1.4 X
Track quality 100.0 %
Test CRC 902AE289
Copy CRC 902AE289
Track not present in AccurateRip database
Copy OK

Track 3

Filename C:\EACrips\VA - Best Of Chillout Lemongrassmusic Volume II (2013) [FLAC]\2.03. Lemongrass - Behind The Scenes.wav

Peak level 96.6 %
Extraction speed 1.6 X
Track quality 100.0 %
Test CRC 59C65873
Copy CRC 59C65873
Track not present in AccurateRip database
Copy OK

Track 4

Filename C:\EACrips\VA - Best Of Chillout Lemongrassmusic Volume II (2013) [FLAC]\2.04. Openzone Bar - Old And Cold.wav

Peak level 94.9 %
Extraction speed 1.6 X
Track quality 99.9 %
Test CRC BB937440
Copy CRC BB937440
Track not present in AccurateRip database
Copy OK

Track 5

Filename C:\EACrips\VA - Best Of Chillout Lemongrassmusic Volume II (2013) [FLAC]\2.05. Keisuke Sakai - Mizu Sumu.wav

Peak level 98.4 %
Extraction speed 1.8 X
Track quality 100.0 %
Test CRC BB576A04
Copy CRC BB576A04
Track not present in AccurateRip database
Copy OK

Track 6

Filename C:\EACrips\VA - Best Of Chillout Lemongrassmusic Volume II (2013) [FLAC]\2.06. Tim Angrave - Heartbeat.wav

Peak level 100.0 %
Extraction speed 2.0 X
Track quality 100.0 %
Test CRC 17F1357D
Copy CRC 17F1357D
Track not present in AccurateRip database
Copy OK

Track 7

Filename C:\EACrips\VA - Best Of Chillout Lemongrassmusic Volume II (2013) [FLAC]\2.07. Tafubar + Eskadet feat. Airily - Paradise Reconquered.wav

Peak level 100.0 %
Extraction speed 1.8 X
Track quality 99.9 %
Test CRC 8F2E7011
Copy CRC 8F2E7011
Track not present in AccurateRip database
Copy OK

Track 8

Filename C:\EACrips\VA - Best Of Chillout Lemongrassmusic Volume II (2013) [FLAC]\2.08. Placid Larry - Dew Drops.wav

Peak level 100.0 %
Extraction speed 2.0 X
Track quality 99.9 %
Test CRC A57C1001
Copy CRC A57C1001
Track not present in AccurateRip database
Copy OK

Track 9

Filename C:\EACrips\VA - Best Of Chillout Lemongrassmusic Volume II (2013) [FLAC]\2.09. Eskadet - New Conditions.wav

Peak level 97.6 %
Extraction speed 2.3 X
Track quality 100.0 %
Test CRC DA84600D
Copy CRC DA84600D
Track not present in AccurateRip database
Copy OK

Track 10

Filename C:\EACrips\VA - Best Of Chillout Lemongrassmusic Volume II (2013) [FLAC]\2.10. Synapsis - Alluring Force.wav

Peak level 100.0 %
Extraction speed 2.4 X
Track quality 100.0 %
Test CRC 9939A742
Copy CRC 9939A742
Track not present in AccurateRip database
Copy OK

Track 11

Filename C:\EACrips\VA - Best Of Chillout Lemongrassmusic Volume II (2013) [FLAC]\2.11. S.W. - Terokh Jeruth.wav

Peak level 98.4 %
Extraction speed 2.5 X
Track quality 100.0 %
Test CRC CF86A8A3
Copy CRC CF86A8A3
Track not present in AccurateRip database
Copy OK

Track 12

Filename C:\EACrips\VA - Best Of Chillout Lemongrassmusic Volume II (2013) [FLAC]\2.12. InnamoratoDellaMusica - Warm Place.wav

Peak level 97.0 %
Extraction speed 2.2 X
Track quality 99.9 %
Test CRC 3833DD47
Copy CRC 3833DD47
Track not present in AccurateRip database
Copy OK

Track 13

Filename C:\EACrips\VA - Best Of Chillout Lemongrassmusic Volume II (2013) [FLAC]\2.13. Weathertunes - Healing Water.wav

Peak level 69.3 %
Extraction speed 2.4 X
Track quality 99.9 %
Test CRC 45E77E36
Copy CRC 45E77E36
Track not present in AccurateRip database
Copy OK


None of the tracks are present in the AccurateRip database

No errors occurred

End of status report

–– CUETools DB Plugin V2.1.4

[CTDB TOCID: VIA9ry_.1MWUZucDMqfrJk.DxMw-] disk not present in database
Submit result: VIA9ry_.1MWUZucDMqfrJk.DxMw- has been uploaded


==== Log checksum 48AA407EFF434CBAEAFF2BA5A753A434928B14D56AC5F60DB7DD32CA4F774A6A ====

[CUETools log; Date: 14.06.2018 14:33:13; Version: 2.1.4]
[CTDB TOCID: VIA9ry_.1MWUZucDMqfrJk.DxMw-] found.
Track | CTDB Status
1 | (2/2) Accurately ripped
2 | (2/2) Accurately ripped
3 | (2/2) Accurately ripped
4 | (2/2) Accurately ripped
5 | (2/2) Accurately ripped
6 | (2/2) Accurately ripped
7 | (2/2) Accurately ripped
8 | (2/2) Accurately ripped
9 | (2/2) Accurately ripped
10 | (2/2) Accurately ripped
11 | (2/2) Accurately ripped
12 | (2/2) Accurately ripped
13 | (2/2) Accurately ripped
[AccurateRip ID: 0021c3e7-0152f348-c510a60d] found.
Track [ CRC | V2 ] Status
01 [fcd2ba16|fcda1819] (0+2/2) Accurately ripped
02 [57d14dda|138ae1a4] (0+2/2) Accurately ripped
03 [67d7dea6|25a71ba8] (0+2/2) Accurately ripped
04 [4d4f0c7e|d0d84df4] (0+2/2) Accurately ripped
05 [75c741fe|fe84c03c] (0+2/2) Accurately ripped
06 [dca33ad9|73d9fdb8] (0+2/2) Accurately ripped
07 [f30b0ae5|d712918a] (0+2/2) Accurately ripped
08 [12de6f9e|4db5a0bd] (0+2/2) Accurately ripped
09 [9bd73db3|7b8adb6c] (0+2/2) Accurately ripped
10 [c4312c30|5e06b761] (0+2/2) Accurately ripped
11 [e472685b|2350ce45] (0+2/2) Accurately ripped
12 [fd966235|6c9fc401] (0+2/2) Accurately ripped
13 [c3fd72e4|f5ed1eb8] (0+2/2) Accurately ripped

Track Peak [ CRC32 ] [W/O NULL] [ LOG ]
– 100,0 [25854691] [AB25EA69]
01 96,5 [F2AECA20] [389622F0] CRC32
02 99,8 [902AE289] [9EEA9C5D] CRC32
03 96,6 [59C65873] [EA6070F1] CRC32
04 94,9 [BB937440] [802A40C0] CRC32
05 98,4 [BB576A04] [586EDC04] CRC32
06 100,0 [17F1357D] [6FD73A8A] CRC32
07 100,0 [8F2E7011] [14428089] CRC32
08 100,0 [A57C1001] [AD17119A] CRC32
09 97,6 [DA84600D] [557932FB] CRC32
10 100,0 [9939A742] [32ACDF09] CRC32
11 98,4 [CF86A8A3] [13569C89] CRC32
12 97,0 [3833DD47] [4D086DC3] CRC32
13 69,3 [45E77E36] [7F9BD2C1] CRC32

Thanks to serginho199

See also:
V.A. - Best Of Chillout Lemongrassmusic (2011)