Subcategories

V.A. - Blank & Jones Present So80s (So Eighties) Vol. 3 (2010) (Repost)

Posted By: gribovar
V.A. - Blank & Jones Present So80s (So Eighties) Vol. 3 (2010) (Repost)

V.A. - Blank & Jones Present So80s (So Eighties) Vol. 3 (2010)
EAC Rip | FLAC (tracks+.cue+log) - 1,91 GB | MP3 CBR 320 kbps (LAME 3.93) - 620 MB | Covers - 671 MB
Genre: New Wave, Europop, Synth-pop | RAR 3% Rec. | Label: Soundcolours (SC 0317)

2010 three CD set, the third volume in the So80s series. The finest collection of original classic 12" club & extended mixes.
CD 1 Tracklist (Mixed):
01. INXS - Need You Tonight (Mendelsohn Extended Mix)
02. Visage - Fade To Grey (Original 12'' Long Version)
03. Duran Duran - I Don't Want Your Love (Big Mix)
04. New Order - Bizarre Love Triangle (Original 12'' Version)
05. Yello - Lost Again (Extended Version)
06. Hubert Kah - Military Drums (Extended Version)
07. OMD - So In Love (Extended Version)
08. The Cure - Let's Go To Bed (Extended Version)
09. Jeanne Mas - Toute Premiere Fois (Version Longue)
10. Narada Michael Walden - High Above The Clouds (12'' Version)
11. A-ha - The Sun Always Shines On TV (Extended Version)
12. Real Life - Send Me An Angel (Extended Version)
13. John Taylor - I Do What I Do… (Theme For 9? Weeks) (The Final Cut)
14. Billy Idol - Eyes Without A Face (Full Length Version)
15. The Human League - Being Boiled (Fast Version)
16. Savage Progress - My Soul Unwraps Tonight (Extended Version)
17. Erasure - Ship Of Fools (Shiver Me Timbers Mix)
18. Simple Minds - Don't You (Forget About Me) (Extended Version)

Total time: 01:28:18

CD 2 Tracklist (Unmixed):
01. Visage - Fade To Grey (Original 12'' Long Version)
02. Real Life - Send Me An Angel (Extended Mix)
03. Yello - Lost Again (Extended Version)
04. Jeanne Mas - Toute Premiere Fois (Version Longue)
05. Ultravox - Vienna (Full Length Version)
06. The Human League - Being Boiled (Fast Version)
07. Hubert Kah - Military Drums (Extended Version)
08. A-Ha - The Sun Always Shines On T.V. (Extended Version)
09. New Order - Bizarre Love Triangle (Original 12'' Version)
10. Heaven 17 - Trouble (US Club Mix)
11. Billy Idol - Eyes Without A Face (Full Length Version)
12. Bryan Ferry - Slave To Love (Special 12' Remix)
13. Spandau Ballet - True (New Mix)
14. Howard Jones - Hide And Seek (Long Version)

Total time: 01:28:25

CD 3 Tracklist (Unmixed):
01. The Cure - Lets Go To Bed (Extended Version)
02. Killing Joke - Love Like Blood (Version)
03. INXS - Need You Tonight (Mendelsohn Extended Mix)
04. David Bowie - China Girl (Long Version)
05. Simple Minds - Don't You (Forget About Me) (Extended Version)
06. Narada Michael Walden - High Above The Clouds (12'' Version)
07. Orchestral Manoeuvres In The Dark - So In Love (Extended Version)
08. Duran Duran - I Don't Want Your Love (Big Mix)
09. Savage Progress - My Soul Unwraps Tonight (Extended Version)
10. John Taylor - I Do What I Do (The Final Cut)
11. Erasure - Ship Of Fools (Shiver Me Timbers Mix)
12. Culture Club - Do You Really Want To Hurt Me (Full Length Version)
13. Dream Academy - Life In A Northern Town (Extended Version)

Total time: 01:26:34

Exact Audio Copy V1.0 beta 1 from 15. November 2010

EAC extraction logfile from 26. February 2011, 22:51

Various / Blank & Jones pres. So80s (So Eighties) Vol. 3

Used drive : HL-DT-STDVDRAM GH22NS50 Adapter: 13 ID: 0

Read mode : Secure
Utilize accurate stream : Yes
Defeat audio cache : Yes
Make use of C2 pointers : No

Read offset correction : 667
Overread into Lead-In and Lead-Out : Yes
Fill up missing offset samples with silence : Yes
Delete leading and trailing silent blocks : No
Null samples used in CRC calculations : Yes
Used interface : Native Win32 interface for Win NT & 2000
Gap handling : Appended to previous track

Used output format : User Defined Encoder
Selected bitrate : 128 kBit/s
Quality : High
Add ID3 tag : Yes
Command line compressor : C:\Program Files\Exact Audio Copy\Flac\flac.exe
Additional command line options : -8 -V -T "ARTIST=%a" -T "TITLE=%t" -T "ALBUM=%g" -T "DATE=%y" -T "TRACKNUMBER=%n" -T "GENRE=%m" -T "COMMENT=ripped by DrStandBy" %s


TOC of the extracted CD

Track | Start | Length | Start sector | End sector
––––––––––––––––––––––––––––-
1 | 0:00.00 | 4:21.03 | 0 | 19577
2 | 4:21.03 | 5:58.71 | 19578 | 46498
3 | 10:19.74 | 3:51.32 | 46499 | 63855
4 | 14:11.31 | 3:33.00 | 63856 | 79830
5 | 17:44.31 | 5:52.57 | 79831 | 106287
6 | 23:37.13 | 4:41.20 | 106288 | 127382
7 | 28:18.33 | 3:49.41 | 127383 | 144598
8 | 32:07.74 | 7:54.67 | 144599 | 180215
9 | 40:02.66 | 3:27.37 | 180216 | 195777
10 | 43:30.28 | 5:12.68 | 195778 | 219245
11 | 48:43.21 | 6:40.19 | 219246 | 249264
12 | 55:23.40 | 5:37.66 | 249265 | 274605
13 | 61:01.31 | 3:33.25 | 274606 | 290605
14 | 64:34.56 | 4:44.30 | 290606 | 311935
15 | 69:19.11 | 3:47.17 | 311936 | 328977
16 | 73:06.28 | 3:52.48 | 328978 | 346425
17 | 76:59.01 | 4:56.62 | 346426 | 368687
18 | 81:55.63 | 6:22.19 | 368688 | 397356


Track 1

Filename E:\Blank & Jones\So80s Series\2010 - Blank & Jones pres. So80s (So Eighties) Vol. 3 (SC 0317)\1-01. INXS - Need You Tonight (Mendelsohn Extended Mix).wav

Pre-gap length 0:00:02.00

Peak level 98.8 %
Extraction speed 1.2 X
Track quality 100.0 %
Test CRC 5409B625
Copy CRC 5409B625
Accurately ripped (confidence 2) [3B24EEC8]
Copy OK

Track 2

Filename E:\Blank & Jones\So80s Series\2010 - Blank & Jones pres. So80s (So Eighties) Vol. 3 (SC 0317)\1-02. Visage - Fade To Grey (Original 12'' Long Version).wav

Peak level 98.8 %
Extraction speed 1.2 X
Track quality 99.9 %
Test CRC 18F86BA6
Copy CRC 18F86BA6
Accurately ripped (confidence 2) [B43ACAA5]
Copy OK

Track 3

Filename E:\Blank & Jones\So80s Series\2010 - Blank & Jones pres. So80s (So Eighties) Vol. 3 (SC 0317)\1-03. Duran Duran - I Don't Want Your Love (Big Mix).wav

Peak level 98.8 %
Extraction speed 1.2 X
Track quality 99.9 %
Test CRC 4E44907D
Copy CRC 4E44907D
Accurately ripped (confidence 2) [3C39F18E]
Copy OK

Track 4

Filename E:\Blank & Jones\So80s Series\2010 - Blank & Jones pres. So80s (So Eighties) Vol. 3 (SC 0317)\1-04. New Order - Bizarre Love Triangle (Original 12'' Version).wav

Peak level 98.8 %
Extraction speed 1.5 X
Track quality 100.0 %
Test CRC 177F47C4
Copy CRC 177F47C4
Accurately ripped (confidence 2) [B5FD3B5F]
Copy OK

Track 5

Filename E:\Blank & Jones\So80s Series\2010 - Blank & Jones pres. So80s (So Eighties) Vol. 3 (SC 0317)\1-05. Yello - Lost Again (Extended Version).wav

Peak level 98.8 %
Extraction speed 1.7 X
Track quality 100.0 %
Test CRC 547B0231
Copy CRC 547B0231
Accurately ripped (confidence 2) [B0784DA8]
Copy OK

Track 6

Filename E:\Blank & Jones\So80s Series\2010 - Blank & Jones pres. So80s (So Eighties) Vol. 3 (SC 0317)\1-06. Hubert Kah - Military Drums (Extended Version).wav

Peak level 98.8 %
Extraction speed 1.5 X
Track quality 99.9 %
Test CRC 489312FD
Copy CRC 489312FD
Accurately ripped (confidence 2) [8D85B5D1]
Copy OK

Track 7

Filename E:\Blank & Jones\So80s Series\2010 - Blank & Jones pres. So80s (So Eighties) Vol. 3 (SC 0317)\1-07. OMD - So In Love (Extended Version).wav

Peak level 98.8 %
Extraction speed 1.8 X
Track quality 100.0 %
Test CRC BBD80050
Copy CRC BBD80050
Accurately ripped (confidence 2) [181F86DD]
Copy OK

Track 8

Filename E:\Blank & Jones\So80s Series\2010 - Blank & Jones pres. So80s (So Eighties) Vol. 3 (SC 0317)\1-08. The Cure - Let's Go To Bed (Extended Version).wav

Peak level 98.8 %
Extraction speed 2.0 X
Track quality 100.0 %
Test CRC 8819C353
Copy CRC 8819C353
Accurately ripped (confidence 2) [27D47280]
Copy OK

Track 9

Filename E:\Blank & Jones\So80s Series\2010 - Blank & Jones pres. So80s (So Eighties) Vol. 3 (SC 0317)\1-09. Jeanne Mas - Toute Premiere Fois (Version Longue).wav

Peak level 98.8 %
Extraction speed 1.9 X
Track quality 100.0 %
Test CRC C65F665B
Copy CRC C65F665B
Accurately ripped (confidence 2) [2AEE3472]
Copy OK

Track 10

Filename E:\Blank & Jones\So80s Series\2010 - Blank & Jones pres. So80s (So Eighties) Vol. 3 (SC 0317)\1-10. Narada Michael Walden - High Above The Clouds (12'' Version).wav

Peak level 98.8 %
Extraction speed 2.1 X
Track quality 100.0 %
Test CRC 45281FF6
Copy CRC 45281FF6
Accurately ripped (confidence 2) [851748CA]
Copy OK

Track 11

Filename E:\Blank & Jones\So80s Series\2010 - Blank & Jones pres. So80s (So Eighties) Vol. 3 (SC 0317)\1-11. A-ha - The Sun Always Shines On TV (Extended Version).wav

Peak level 98.8 %
Extraction speed 2.3 X
Track quality 100.0 %
Test CRC EC304FF7
Copy CRC EC304FF7
Accurately ripped (confidence 2) [9E77EF66]
Copy OK

Track 12

Filename E:\Blank & Jones\So80s Series\2010 - Blank & Jones pres. So80s (So Eighties) Vol. 3 (SC 0317)\1-12. Real Life - Send Me An Angel (Extended Version).wav

Peak level 98.8 %
Extraction speed 2.3 X
Track quality 100.0 %
Test CRC D0591BBE
Copy CRC D0591BBE
Accurately ripped (confidence 2) [AEEFB425]
Copy OK

Track 13

Filename E:\Blank & Jones\So80s Series\2010 - Blank & Jones pres. So80s (So Eighties) Vol. 3 (SC 0317)\1-13. John Taylor - I Do What I Do… (Theme For 9½ Weeks) (The Final Cut).wav

Peak level 98.8 %
Extraction speed 2.3 X
Track quality 100.0 %
Test CRC 2F61F7B2
Copy CRC 2F61F7B2
Accurately ripped (confidence 2) [9790A139]
Copy OK

Track 14

Filename E:\Blank & Jones\So80s Series\2010 - Blank & Jones pres. So80s (So Eighties) Vol. 3 (SC 0317)\1-14. Billy Idol - Eyes Without A Face (Full Length Version).wav

Peak level 98.8 %
Extraction speed 2.4 X
Track quality 100.0 %
Test CRC 14BFBCA4
Copy CRC 14BFBCA4
Accurately ripped (confidence 2) [61AD61BB]
Copy OK

Track 15

Filename E:\Blank & Jones\So80s Series\2010 - Blank & Jones pres. So80s (So Eighties) Vol. 3 (SC 0317)\1-15. The Human League - Being Boiled (Fast Version).wav

Peak level 98.8 %
Extraction speed 2.4 X
Track quality 100.0 %
Test CRC 57F63765
Copy CRC 57F63765
Accurately ripped (confidence 2) [BE521BCE]
Copy OK

Track 16

Filename E:\Blank & Jones\So80s Series\2010 - Blank & Jones pres. So80s (So Eighties) Vol. 3 (SC 0317)\1-16. Savage Progress - My Soul Unwraps Tonight (Extended Version).wav

Peak level 98.8 %
Extraction speed 2.4 X
Track quality 100.0 %
Test CRC C443CC5E
Copy CRC C443CC5E
Accurately ripped (confidence 2) [A31F9224]
Copy OK

Track 17

Filename E:\Blank & Jones\So80s Series\2010 - Blank & Jones pres. So80s (So Eighties) Vol. 3 (SC 0317)\1-17. Erasure - Ship Of Fools (Shiver Me Timbers Mix).wav

Peak level 98.8 %
Extraction speed 2.5 X
Track quality 100.0 %
Test CRC 45D8209D
Copy CRC 45D8209D
Accurately ripped (confidence 2) [B3DF0CE4]
Copy OK

Track 18

Filename E:\Blank & Jones\So80s Series\2010 - Blank & Jones pres. So80s (So Eighties) Vol. 3 (SC 0317)\1-18. Simple Minds - Don't You (Forget About Me) (Extended Version).wav

Peak level 97.9 %
Extraction speed 3.0 X
Track quality 100.0 %
Test CRC 774D2D68
Copy CRC 774D2D68
Accurately ripped (confidence 2) [657DB3B2]
Copy OK


All tracks accurately ripped

No errors occurred

End of status report

==== Log checksum 64D01E0155997980E1836E02FA2BAC9295BE600DCCF4EA56F9011FB9395C745A ====

[CUETools log; Date: 22.03.2018 22:40:35; Version: 2.1.4]
[CTDB TOCID: 00OyMJ728G5GdFja2wmc5ZSAHlo-] found.
Track | CTDB Status
1 | (42/72) Accurately ripped
2 | (43/72) Accurately ripped
3 | (43/72) Accurately ripped
4 | (43/72) Accurately ripped
5 | (43/72) Accurately ripped
6 | (43/72) Accurately ripped
7 | (43/72) Accurately ripped
8 | (43/72) Accurately ripped
9 | (43/72) Accurately ripped
10 | (43/72) Accurately ripped
11 | (43/72) Accurately ripped
12 | (43/72) Accurately ripped
13 | (43/72) Accurately ripped
14 | (42/72) Accurately ripped
15 | (42/72) Accurately ripped
16 | (42/72) Accurately ripped
17 | (43/72) Accurately ripped
18 | (43/72) Accurately ripped
[AccurateRip ID: 00393ce0-02fd5ba7-0314b212] found.
Track [ CRC | V2 ] Status
01 [3b24eec8|40a2e8b1] (18+29/63) Accurately ripped
02 [b43acaa5|188bc6fd] (18+29/63) Accurately ripped
03 [3c39f18e|5dd3b817] (18+29/63) Accurately ripped
04 [b5fd3b5f|8f693d4c] (18+29/63) Accurately ripped
05 [b0784da8|b2082225] (18+29/63) Accurately ripped
06 [8d85b5d1|efe58ddc] (18+29/63) Accurately ripped
07 [181f86dd|86b1ac6b] (18+29/63) Accurately ripped
08 [27d47280|8caa97c2] (17+29/62) Accurately ripped
09 [2aee3472|d4d107e6] (18+28/62) Accurately ripped
10 [851748ca|1b255212] (18+29/63) Accurately ripped
11 [9e77ef66|22c33566] (18+29/63) Accurately ripped
12 [aeefb425|3bd27f92] (18+29/63) Accurately ripped
13 [9790a139|bb9f633c] (18+29/63) Accurately ripped
14 [61ad61bb|33580618] (18+29/63) Accurately ripped
15 [be521bce|f19f1a11] (18+29/63) Accurately ripped
16 [a31f9224|0a6987e2] (18+29/63) Accurately ripped
17 [b3df0ce4|f824e879] (18+29/63) Accurately ripped
18 [657db3b2|cd07cf76] (18+29/63) Accurately ripped

Track Peak [ CRC32 ] [W/O NULL] [ LOG ]
– 98,8 [31666AA3] [8D91B315]
01 98,8 [5409B625] [1E6506BC] CRC32
02 98,8 [18F86BA6] [7036118A] CRC32
03 98,8 [4E44907D] [918CCE3C] CRC32
04 98,8 [177F47C4] [CF1EE1C3] CRC32
05 98,8 [547B0231] [7D036E9E] CRC32
06 98,8 [489312FD] [DE2545E4] CRC32
07 98,8 [BBD80050] [19A41810] CRC32
08 98,8 [8819C353] [D4D280E9] CRC32
09 98,8 [C65F665B] [05391B8A] CRC32
10 98,8 [45281FF6] [B0106A6E] CRC32
11 98,8 [EC304FF7] [81429114] CRC32
12 98,8 [D0591BBE] [D282BB8C] CRC32
13 98,8 [2F61F7B2] [5AF683F1] CRC32
14 98,8 [14BFBCA4] [D8C96043] CRC32
15 98,8 [57F63765] [1196D361] CRC32
16 98,8 [C443CC5E] [43AECDE0] CRC32
17 98,8 [45D8209D] [92861B49] CRC32
18 97,9 [774D2D68] [F2C12326] CRC32

Exact Audio Copy V1.0 beta 1 from 15. November 2010

EAC extraction logfile from 27. February 2011, 0:39

Various / Blank & Jones pres. So80s (So Eighties) Vol. 3 (Unmixed)

Used drive : HL-DT-STDVDRAM GH22NS50 Adapter: 13 ID: 0

Read mode : Secure
Utilize accurate stream : Yes
Defeat audio cache : Yes
Make use of C2 pointers : No

Read offset correction : 667
Overread into Lead-In and Lead-Out : No
Fill up missing offset samples with silence : Yes
Delete leading and trailing silent blocks : No
Null samples used in CRC calculations : Yes
Used interface : Native Win32 interface for Win NT & 2000
Gap handling : Appended to previous track

Used output format : User Defined Encoder
Selected bitrate : 128 kBit/s
Quality : High
Add ID3 tag : Yes
Command line compressor : C:\Program Files\Exact Audio Copy\Flac\flac.exe
Additional command line options : -8 -V -T "ARTIST=%a" -T "TITLE=%t" -T "ALBUM=%g" -T "DATE=%y" -T "TRACKNUMBER=%n" -T "GENRE=%m" -T "COMMENT=ripped by DrStandBy" %s


TOC of the extracted CD

Track | Start | Length | Start sector | End sector
––––––––––––––––––––––––––––-
1 | 0:00.00 | 6:42.10 | 0 | 30159
2 | 6:42.10 | 5:43.24 | 30160 | 55908
3 | 12:25.34 | 7:15.44 | 55909 | 88577
4 | 19:41.03 | 7:01.10 | 88578 | 120162
5 | 26:42.13 | 4:58.01 | 120163 | 142513
6 | 31:40.14 | 3:52.56 | 142514 | 159969
7 | 35:32.70 | 6:26.60 | 159970 | 188979
8 | 41:59.55 | 7:05.35 | 188980 | 220889
9 | 49:05.15 | 6:43.59 | 220890 | 251173
10 | 55:48.74 | 6:44.40 | 251174 | 281513
11 | 62:33.39 | 4:59.26 | 281514 | 303964
12 | 67:32.65 | 5:48.17 | 303965 | 330081
13 | 73:21.07 | 6:41.67 | 330082 | 360223
14 | 80:02.74 | 8:21.42 | 360224 | 397840


Track 1

Filename E:\Blank & Jones\So80s Series\2010 - Blank & Jones pres. So80s (So Eighties) Vol. 3 (SC 0317)\2-01. Visage - Fade To Grey (Original 12'' Long Version).wav

Pre-gap length 0:00:02.00

Peak level 98.8 %
Extraction speed 1.2 X
Track quality 99.9 %
Test CRC 1099C4A1
Copy CRC 1099C4A1
Accurately ripped (confidence 2) [CE039608]
Copy OK

Track 2

Filename E:\Blank & Jones\So80s Series\2010 - Blank & Jones pres. So80s (So Eighties) Vol. 3 (SC 0317)\2-02. Real Life - Send Me An Angel (Extended Mix).wav

Pre-gap length 0:00:01.74

Peak level 98.8 %
Extraction speed 1.3 X
Track quality 99.9 %
Test CRC C053EE81
Copy CRC C053EE81
Accurately ripped (confidence 2) [98F889F4]
Copy OK

Track 3

Filename E:\Blank & Jones\So80s Series\2010 - Blank & Jones pres. So80s (So Eighties) Vol. 3 (SC 0317)\2-03. Yello - Lost Again (Extended Version).wav

Pre-gap length 0:00:01.74

Peak level 98.8 %
Extraction speed 1.6 X
Track quality 100.0 %
Test CRC 5C94D9D1
Copy CRC 5C94D9D1
Accurately ripped (confidence 2) [7F07C57D]
Copy OK

Track 4

Filename E:\Blank & Jones\So80s Series\2010 - Blank & Jones pres. So80s (So Eighties) Vol. 3 (SC 0317)\2-04. Jeanne Mas - Toute Premiere Fois (Version Longue).wav

Pre-gap length 0:00:01.74

Peak level 98.8 %
Extraction speed 1.8 X
Track quality 100.0 %
Test CRC D81C8B00
Copy CRC D81C8B00
Accurately ripped (confidence 2) [6221011A]
Copy OK

Track 5

Filename E:\Blank & Jones\So80s Series\2010 - Blank & Jones pres. So80s (So Eighties) Vol. 3 (SC 0317)\2-05. Ultravox - Vienna (Full Length Version).wav

Pre-gap length 0:00:01.74

Peak level 98.8 %
Extraction speed 1.8 X
Track quality 100.0 %
Test CRC 40692A3D
Copy CRC 40692A3D
Accurately ripped (confidence 2) [6A2C4123]
Copy OK

Track 6

Filename E:\Blank & Jones\So80s Series\2010 - Blank & Jones pres. So80s (So Eighties) Vol. 3 (SC 0317)\2-06. The Human League - Being Boiled (Fast Version).wav

Pre-gap length 0:00:01.74

Peak level 98.8 %
Extraction speed 1.6 X
Track quality 99.9 %
Test CRC A9D0358B
Copy CRC A9D0358B
Accurately ripped (confidence 2) [764BF9D1]
Copy OK

Track 7

Filename E:\Blank & Jones\So80s Series\2010 - Blank & Jones pres. So80s (So Eighties) Vol. 3 (SC 0317)\2-07. Hubert Kah - Military Drums (Extended Version).wav

Pre-gap length 0:00:01.74

Peak level 98.8 %
Extraction speed 2.0 X
Track quality 100.0 %
Test CRC 85810B7D
Copy CRC 85810B7D
Accurately ripped (confidence 2) [2635C05C]
Copy OK

Track 8

Filename E:\Blank & Jones\So80s Series\2010 - Blank & Jones pres. So80s (So Eighties) Vol. 3 (SC 0317)\2-08. A-Ha - The Sun Always Shines On T.V. (Extended Version).wav

Pre-gap length 0:00:01.74

Peak level 98.8 %
Extraction speed 2.2 X
Track quality 100.0 %
Test CRC F9A3B54A
Copy CRC F9A3B54A
Accurately ripped (confidence 2) [8FDC726F]
Copy OK

Track 9

Filename E:\Blank & Jones\So80s Series\2010 - Blank & Jones pres. So80s (So Eighties) Vol. 3 (SC 0317)\2-09. New Order - Bizarre Love Triangle (Original 12'' Version).wav

Pre-gap length 0:00:01.74

Peak level 98.8 %
Extraction speed 2.1 X
Track quality 99.9 %
Test CRC 7A2A514F
Copy CRC 7A2A514F
Accurately ripped (confidence 2) [F90A9DC2]
Copy OK

Track 10

Filename E:\Blank & Jones\So80s Series\2010 - Blank & Jones pres. So80s (So Eighties) Vol. 3 (SC 0317)\2-10. Heaven 17 - Trouble (US Club Mix).wav

Pre-gap length 0:00:01.74

Peak level 98.8 %
Extraction speed 2.4 X
Track quality 100.0 %
Test CRC 43DC9BE9
Copy CRC 43DC9BE9
Accurately ripped (confidence 2) [C34578CD]
Copy OK

Track 11

Filename E:\Blank & Jones\So80s Series\2010 - Blank & Jones pres. So80s (So Eighties) Vol. 3 (SC 0317)\2-11. Billy Idol - Eyes Without A Face (Full Length Version).wav

Pre-gap length 0:00:01.74

Peak level 98.8 %
Extraction speed 2.4 X
Track quality 100.0 %
Test CRC 51F0A516
Copy CRC 51F0A516
Accurately ripped (confidence 2) [12EE56C3]
Copy OK

Track 12

Filename E:\Blank & Jones\So80s Series\2010 - Blank & Jones pres. So80s (So Eighties) Vol. 3 (SC 0317)\2-12. Bryan Ferry - Slave To Love (Special 12'' Remix).wav

Pre-gap length 0:00:01.73

Peak level 98.8 %
Extraction speed 2.5 X
Track quality 100.0 %
Test CRC 9962369A
Copy CRC 9962369A
Accurately ripped (confidence 2) [DEBE4787]
Copy OK

Track 13

Filename E:\Blank & Jones\So80s Series\2010 - Blank & Jones pres. So80s (So Eighties) Vol. 3 (SC 0317)\2-13. Spandau Ballet - True (New Mix).wav

Pre-gap length 0:00:01.74

Peak level 98.7 %
Extraction speed 2.7 X
Track quality 100.0 %
Test CRC BEC8EA63
Copy CRC BEC8EA63
Accurately ripped (confidence 2) [190E5F0F]
Copy OK

Track 14

Filename E:\Blank & Jones\So80s Series\2010 - Blank & Jones pres. So80s (So Eighties) Vol. 3 (SC 0317)\2-14. Howard Jones - Hide And Seek (Long Version).wav

Pre-gap length 0:00:01.74

Peak level 98.8 %
Extraction speed 2.8 X
Track quality 100.0 %
Test CRC BF46BB94
Copy CRC BF46BB94
Accurately ripped (confidence 2) [84F627CE]
Copy OK


All tracks accurately ripped

No errors occurred

End of status report

==== Log checksum 5B2E0F972A35B0F6C31741FCFE5031B81BE81926640C00498B256310450309A8 ====

[CUETools log; Date: 22.03.2018 22:45:26; Version: 2.1.4]
[CTDB TOCID: WSt_hXubA.hVr9ccGwfrQqzUpgg-] found.
Track | CTDB Status
1 | (50/50) Accurately ripped
2 | (50/50) Accurately ripped
3 | (50/50) Accurately ripped
4 | (50/50) Accurately ripped
5 | (50/50) Accurately ripped
6 | (50/50) Accurately ripped
7 | (49/50) Accurately ripped
8 | (50/50) Accurately ripped
9 | (49/50) Accurately ripped
10 | (50/50) Accurately ripped
11 | (50/50) Accurately ripped
12 | (50/50) Accurately ripped
13 | (50/50) Accurately ripped
14 | (50/50) Accurately ripped
[AccurateRip ID: 002cbcfc-01dc504a-b114b80e] found.
Track [ CRC | V2 ] Status
01 [ce039608|501b2176] (20+36/56) Accurately ripped
02 [98f889f4|5b81c0a9] (20+36/56) Accurately ripped
03 [7f07c57d|7eef42ab] (20+36/56) Accurately ripped
04 [6221011a|e76ea1b0] (20+36/56) Accurately ripped
05 [6a2c4123|3a2e41f7] (20+35/55) Accurately ripped
06 [764bf9d1|bc802eaa] (20+36/56) Accurately ripped
07 [2635c05c|b887d3ef] (20+35/55) Accurately ripped
08 [8fdc726f|3d05524e] (20+36/56) Accurately ripped
09 [f90a9dc2|29dea1fd] (20+35/55) Accurately ripped
10 [c34578cd|78f435b5] (20+35/55) Accurately ripped
11 [12ee56c3|9403635a] (20+36/56) Accurately ripped
12 [debe4787|33fdbb24] (20+36/56) Accurately ripped
13 [190e5f0f|18d10128] (20+35/55) Accurately ripped
14 [84f627ce|89e60a96] (19+35/54) Accurately ripped

Track Peak [ CRC32 ] [W/O NULL] [ LOG ]
– 98,8 [7FEB548D] [CCEE754F]
01 98,8 [1099C4A1] [F24FA36C] CRC32
02 98,8 [C053EE81] [A81DB9FF] CRC32
03 98,8 [5C94D9D1] [65143B72] CRC32
04 98,8 [D81C8B00] [FB6BF979] CRC32
05 98,8 [40692A3D] [C8331871] CRC32
06 98,8 [A9D0358B] [C7A0AC18] CRC32
07 98,8 [85810B7D] [045382B5] CRC32
08 98,8 [F9A3B54A] [8DD68737] CRC32
09 98,8 [7A2A514F] [15C2EDE8] CRC32
10 98,8 [43DC9BE9] [99F0D855] CRC32
11 98,8 [51F0A516] [0CD83FBA] CRC32
12 98,8 [9962369A] [31983AC1] CRC32
13 98,7 [BEC8EA63] [B76F9822] CRC32
14 98,8 [BF46BB94] [0026F298] CRC32

Exact Audio Copy V1.0 beta 1 from 15. November 2010

EAC extraction logfile from 27. February 2011, 10:58

Various / Blank & Jones pres. So80s (So Eighties) Vol. 3 (Unmixed)

Used drive : HL-DT-STDVDRAM GH22NS50 Adapter: 13 ID: 0

Read mode : Secure
Utilize accurate stream : Yes
Defeat audio cache : Yes
Make use of C2 pointers : No

Read offset correction : 667
Overread into Lead-In and Lead-Out : No
Fill up missing offset samples with silence : Yes
Delete leading and trailing silent blocks : No
Null samples used in CRC calculations : Yes
Used interface : Native Win32 interface for Win NT & 2000
Gap handling : Appended to previous track

Used output format : User Defined Encoder
Selected bitrate : 128 kBit/s
Quality : High
Add ID3 tag : Yes
Command line compressor : C:\Program Files\Exact Audio Copy\Flac\flac.exe
Additional command line options : -8 -V -T "ARTIST=%a" -T "TITLE=%t" -T "ALBUM=%g" -T "DATE=%y" -T "TRACKNUMBER=%n" -T "GENRE=%m" -T "COMMENT=ripped by DrStandBy" %s


TOC of the extracted CD

Track | Start | Length | Start sector | End sector
––––––––––––––––––––––––––––-
1 | 0:00.00 | 7:43.54 | 0 | 34778
2 | 7:43.54 | 6:49.26 | 34779 | 65479
3 | 14:33.05 | 7:14.03 | 65480 | 98032
4 | 21:47.08 | 5:32.48 | 98033 | 122980
5 | 27:19.56 | 6:33.04 | 122981 | 152459
6 | 33:52.60 | 8:14.17 | 152460 | 189526
7 | 42:07.02 | 5:35.26 | 189527 | 214677
8 | 47:42.28 | 7:33.19 | 214678 | 248671
9 | 55:15.47 | 5:43.29 | 248672 | 274425
10 | 60:59.01 | 8:04.55 | 274426 | 310780
11 | 69:03.56 | 7:52.70 | 310781 | 346250
12 | 76:56.51 | 4:22.59 | 346251 | 365959
13 | 81:19.35 | 5:14.59 | 365960 | 389568


Track 1

Filename E:\Blank & Jones\So80s Series\2010 - Blank & Jones pres. So80s (So Eighties) Vol. 3 (SC 0317)\3-01. The Cure - Lets Go To Bed (Extended Version).wav

Pre-gap length 0:00:02.00

Peak level 100.0 %
Extraction speed 1.3 X
Track quality 100.0 %
Test CRC 383FB11B
Copy CRC 383FB11B
Accurately ripped (confidence 2) [7E2A69FD]
Copy OK

Track 2

Filename E:\Blank & Jones\So80s Series\2010 - Blank & Jones pres. So80s (So Eighties) Vol. 3 (SC 0317)\3-02. Killing Joke - Love Like Blood (Version).wav

Pre-gap length 0:00:01.74

Peak level 100.0 %
Extraction speed 1.5 X
Track quality 100.0 %
Test CRC 10C7F219
Copy CRC 10C7F219
Accurately ripped (confidence 2) [4BDF4A9C]
Copy OK

Track 3

Filename E:\Blank & Jones\So80s Series\2010 - Blank & Jones pres. So80s (So Eighties) Vol. 3 (SC 0317)\3-03. INXS - Need You Tonight (Mendelsohn Extended Mix).wav

Pre-gap length 0:00:01.74

Peak level 100.0 %
Extraction speed 1.6 X
Track quality 100.0 %
Test CRC 88DE7582
Copy CRC 88DE7582
Accurately ripped (confidence 2) [823C101F]
Copy OK

Track 4

Filename E:\Blank & Jones\So80s Series\2010 - Blank & Jones pres. So80s (So Eighties) Vol. 3 (SC 0317)\3-04. David Bowie - China Girl (Long Version).wav

Pre-gap length 0:00:01.74

Peak level 100.0 %
Extraction speed 1.7 X
Track quality 100.0 %
Test CRC 3D0AFC1E
Copy CRC 3D0AFC1E
Accurately ripped (confidence 2) [D5ED2538]
Copy OK

Track 5

Filename E:\Blank & Jones\So80s Series\2010 - Blank & Jones pres. So80s (So Eighties) Vol. 3 (SC 0317)\3-05. Simple Minds - Don't You (Forget About Me) (Extended Version).wav

Pre-gap length 0:00:01.74

Peak level 100.0 %
Extraction speed 1.9 X
Track quality 100.0 %
Test CRC 1FD5DC26
Copy CRC 1FD5DC26
Accurately ripped (confidence 2) [DBE36FA1]
Copy OK

Track 6

Filename E:\Blank & Jones\So80s Series\2010 - Blank & Jones pres. So80s (So Eighties) Vol. 3 (SC 0317)\3-06. Narada Michael Walden - High Above The Clouds (12'' Version).wav

Pre-gap length 0:00:01.74

Peak level 100.0 %
Extraction speed 1.9 X
Track quality 99.9 %
Test CRC 89FD9205
Copy CRC 89FD9205
Accurately ripped (confidence 2) [4CB48268]
Copy OK

Track 7

Filename E:\Blank & Jones\So80s Series\2010 - Blank & Jones pres. So80s (So Eighties) Vol. 3 (SC 0317)\3-07. Orchestral Manoeuvres In The Dark - So In Love (Extended Version).wav

Pre-gap length 0:00:01.74

Peak level 100.0 %
Extraction speed 1.9 X
Track quality 99.9 %
Test CRC 1A85C473
Copy CRC 1A85C473
Accurately ripped (confidence 2) [B4588CC9]
Copy OK

Track 8

Filename E:\Blank & Jones\So80s Series\2010 - Blank & Jones pres. So80s (So Eighties) Vol. 3 (SC 0317)\3-08. Duran Duran - I Don't Want Your Love (Big Mix).wav

Pre-gap length 0:00:01.74

Peak level 100.0 %
Extraction speed 2.1 X
Track quality 99.9 %
Test CRC E1A3A0B8
Copy CRC E1A3A0B8
Accurately ripped (confidence 2) [DEC90256]
Copy OK

Track 9

Filename E:\Blank & Jones\So80s Series\2010 - Blank & Jones pres. So80s (So Eighties) Vol. 3 (SC 0317)\3-09. Savage Progress - My Soul Unwraps Tonight (Extended Version).wav

Pre-gap length 0:00:01.74

Peak level 100.0 %
Extraction speed 2.3 X
Track quality 100.0 %
Test CRC B22D30CD
Copy CRC B22D30CD
Accurately ripped (confidence 2) [3431A0DE]
Copy OK

Track 10

Filename E:\Blank & Jones\So80s Series\2010 - Blank & Jones pres. So80s (So Eighties) Vol. 3 (SC 0317)\3-10. John Taylor - I Do What I Do (The Final Cut).wav

Pre-gap length 0:00:01.74

Peak level 100.0 %
Extraction speed 2.5 X
Track quality 100.0 %
Test CRC F6132B9D
Copy CRC F6132B9D
Accurately ripped (confidence 2) [6D0D7D16]
Copy OK

Track 11

Filename E:\Blank & Jones\So80s Series\2010 - Blank & Jones pres. So80s (So Eighties) Vol. 3 (SC 0317)\3-11. Erasure - Ship Of Fools (Shiver Me Timbers Mix).wav

Pre-gap length 0:00:01.74

Peak level 100.0 %
Extraction speed 2.6 X
Track quality 100.0 %
Test CRC 59421B7D
Copy CRC 59421B7D
Accurately ripped (confidence 2) [C626FA54]
Copy OK

Track 12

Filename E:\Blank & Jones\So80s Series\2010 - Blank & Jones pres. So80s (So Eighties) Vol. 3 (SC 0317)\3-12. Culture Club - Do You Really Want To Hurt Me (Full Length Version).wav

Pre-gap length 0:00:01.74

Peak level 100.0 %
Extraction speed 2.5 X
Track quality 100.0 %
Test CRC 492E3998
Copy CRC 492E3998
Accurately ripped (confidence 2) [B819DF0B]
Copy OK

Track 13

Filename E:\Blank & Jones\So80s Series\2010 - Blank & Jones pres. So80s (So Eighties) Vol. 3 (SC 0317)\3-13. Dream Academy - Life In A Northern Town (Extended Version).wav

Pre-gap length 0:00:01.74

Peak level 100.0 %
Extraction speed 2.4 X
Track quality 99.9 %
Test CRC E148FD0A
Copy CRC E148FD0A
Accurately ripped (confidence 2) [509084D4]
Copy OK


All tracks accurately ripped

No errors occurred

End of status report

==== Log checksum 83B37B5BA2CCA4375C37F4F2C2CC08450FBE59D13F64D960DA7A0B6FC85F8854 ====

[CUETools log; Date: 22.03.2018 22:50:59; Version: 2.1.4]
[CTDB TOCID: 9.9mJjQs.hyglTYhQKQdRjTr0Cs-] found.
Track | CTDB Status
1 | (46/46) Accurately ripped
2 | (46/46) Accurately ripped
3 | (46/46) Accurately ripped
4 | (46/46) Accurately ripped
5 | (45/46) Accurately ripped
6 | (46/46) Accurately ripped
7 | (46/46) Accurately ripped
8 | (45/46) Accurately ripped
9 | (46/46) Accurately ripped
10 | (46/46) Accurately ripped
11 | (45/46) Accurately ripped
12 | (46/46) Accurately ripped
13 | (46/46) Accurately ripped
[AccurateRip ID: 002aee9d-01ab3c22-c1144a0d] found.
Track [ CRC | V2 ] Status
01 [7e2a69fd|14415d91] (19+35/54) Accurately ripped
02 [4bdf4a9c|17780593] (19+35/54) Accurately ripped
03 [823c101f|4d6ee88e] (19+36/55) Accurately ripped
04 [d5ed2538|889ef015] (19+36/55) Accurately ripped
05 [dbe36fa1|90a487dd] (19+36/55) Accurately ripped
06 [4cb48268|0a538dda] (19+35/54) Accurately ripped
07 [b4588cc9|1c2dd8db] (19+35/54) Accurately ripped
08 [dec90256|c4341a7f] (19+35/54) Accurately ripped
09 [3431a0de|e40c00fa] (19+35/54) Accurately ripped
10 [6d0d7d16|37ace942] (19+35/54) Accurately ripped
11 [c626fa54|e135a12f] (19+35/54) Accurately ripped
12 [b819df0b|c7856e0c] (19+36/55) Accurately ripped
13 [509084d4|5add3365] (20+35/55) Accurately ripped

Track Peak [ CRC32 ] [W/O NULL] [ LOG ]
– 100,0 [ACA217AD] [C5F7557C]
01 100,0 [383FB11B] [EA71B61C] CRC32
02 99,9 [10C7F219] [41D09EC1] CRC32
03 100,0 [88DE7582] [63646E8E] CRC32
04 100,0 [3D0AFC1E] [20C7382D] CRC32
05 100,0 [1FD5DC26] [06FC8CAD] CRC32
06 100,0 [89FD9205] [720C6128] CRC32
07 100,0 [1A85C473] [B91AFD59] CRC32
08 100,0 [E1A3A0B8] [8E8BE763] CRC32
09 100,0 [B22D30CD] [F88C0B5F] CRC32
10 99,9 [F6132B9D] [90A8FC8C] CRC32
11 99,9 [59421B7D] [EDA8EEA6] CRC32
12 100,0 [492E3998] [B74D627F] CRC32
13 100,0 [E148FD0A] [BBD7A27D] CRC32

Thanks to DrStandBy

See also: