Subcategories

V.A. - Blue Note Trip: Saturday Night / Sunday Morning (2003)

Posted By: gribovar
V.A. - Blue Note Trip: Saturday Night / Sunday Morning (2003)

V.A. - Blue Note Trip: Saturday Night / Sunday Morning (2003)
EAC Rip | FLAC (tracks+.cue+log) - 1 GB | MP3 CBR 320 kbps (LAME 3.93) - 354 MB | Covers (9 MB) included
Genre: Jazz-Funk, Soul Jazz, Vocal Jazz, Latin Jazz | RAR 3% Rec. | Label: Blue Note/EMI (7243 5831792 3)

The very successful 'Maestro' compilation features 29 tracks from the likes of Donald Byrd, St. Germain, Horace Silver, Lonnie Smith, Dianne Reeves, Ronny Jordan, Nancy Wilson, Eddie Palmieri, a Taste of Honey and more. The first disc contains 14 funky, intoxicating beats to prepare you for a long night out. The second disc is filled with 15 soothing yet sexy tunes for a joyful morning after.
CD 1 Tracklist (Saturday Night):
01. Intro From Blue Note Live At The Roxy
02. Donald Byrd - Black Byrd
03. Minnie Riperton - I'm A Woman
04. Buddy Rich - The Beat Goes On
05. Candido - Serenade To A Savage
06. EDC - Desire On Fire
07. Jimmy McGriff - Deb Sombo
08. Donald Byrd - Elijah
09. Patti Drew - Fever
10. Joe Torres - Soul Cha
11. Grant Green - Sookie Sookie
12. Richard "Groove" Holmes - Groovin' For Mr. G
13. St. Germain - Rose Rouge (Blaze Shelter Long Mix)
14. Ronny Jordan - London Lowdown (Remixed by Joe Claussell, Sacred Rhythm Guitar Version)

Total time: 01:11:57

CD 2 Tracklist (Sunday Morning):
01. Bobbi Humphrey - Smiling Faces Sometimes
02. Marlena Shaw - Save The Children
03. A Taste Of Honey - I Love You
04. Bobbi Humphrey - My Little Girl
05. Nancy Wilson - Lush Life
06. Horace Silver - Song For My Father
07. Gene Harris - As
08. Bobby Lyle - Groove
09. Lonnie Smith - Move Your Hand
10. Bobby Hutcherson - Goin' Down South
11. Candido - Ghana Spice Pt. 1
12. Dianne Reeves - Afro Blue
13. Eddie Palmieri - Harlem River Drive
14. Gene Harris & The Three Sounds - Book Of Slim
15. Gary Bartz - Music Is My Sanctuary

Total time: 01:13:52

Exact Audio Copy V0.99 prebeta 4 from 23. January 2008

EAC extraction logfile from 4. April 2009, 14:18

Various / Blue Note Trip Vol. 01 (Maestro) CD 01 (Saturday Night)

Used drive : HL-DT-STDVDRAM GH22NS40 Adapter: 2 ID: 0

Read mode : Secure
Utilize accurate stream : Yes
Defeat audio cache : Yes
Make use of C2 pointers : No

Read offset correction : 667
Overread into Lead-In and Lead-Out : No
Fill up missing offset samples with silence : Yes
Delete leading and trailing silent blocks : No
Null samples used in CRC calculations : Yes
Used interface : Native Win32 interface for Win NT & 2000
Gap handling : Appended to previous track

Used output format : User Defined Encoder
Selected bitrate : 128 kBit/s
Quality : High
Add ID3 tag : No
Command line compressor : C:\Program Files (x86)\Exact Audio Copy\Flac\flac.exe
Additional command line options : -8 -V -T "ARTIST=%a" -T "TITLE=%t" -T "ALBUM=%g" -T "DATE=%y" -T "TRACKNUMBER=%n" -T "GENRE=%m" -T "COMMENT=EAC FLAC -8" %s


TOC of the extracted CD

Track | Start | Length | Start sector | End sector
––––––––––––––––––––––––––––-
1 | 0:00.00 | 0:25.71 | 0 | 1945
2 | 0:25.71 | 5:49.58 | 1946 | 28178
3 | 6:15.54 | 3:33.27 | 28179 | 44180
4 | 9:49.06 | 4:41.50 | 44181 | 65305
5 | 14:30.56 | 3:59.74 | 65306 | 83304
6 | 18:30.55 | 4:12.33 | 83305 | 102237
7 | 22:43.13 | 6:18.26 | 102238 | 130613
8 | 29:01.39 | 8:59.40 | 130614 | 171078
9 | 38:01.04 | 2:36.00 | 171079 | 182778
10 | 40:37.04 | 5:03.74 | 182779 | 205577
11 | 45:41.03 | 7:28.42 | 205578 | 239219
12 | 53:09.45 | 3:58.40 | 239220 | 257109
13 | 57:08.10 | 6:16.26 | 257110 | 285335
14 | 63:24.36 | 8:32.32 | 285336 | 323767


Track 1

Filename E:\RIP\trip\Blue Note Trip Vol. 01 (Maestro) CD 01 (Saturday Night)\01 - Intro From Blue Note Live At The Roxy - Intro From Blue Note Live At The Roxy.wav

Pre-gap length 0:00:02.00

Peak level 96.6 %
Track quality 100.0 %
Test CRC BF4FD7BD
Copy CRC BF4FD7BD
Accurately ripped (confidence 20) [DC10E67F]
Copy OK

Track 2

Filename E:\RIP\trip\Blue Note Trip Vol. 01 (Maestro) CD 01 (Saturday Night)\02 - Donald Byrd - Black Byrd.wav

Peak level 96.6 %
Track quality 100.0 %
Test CRC DC30675E
Copy CRC DC30675E
Accurately ripped (confidence 20) [1F4FBA2E]
Copy OK

Track 3

Filename E:\RIP\trip\Blue Note Trip Vol. 01 (Maestro) CD 01 (Saturday Night)\03 - Minnie Riperton - I'm A Woman.wav

Peak level 96.6 %
Track quality 100.0 %
Test CRC BAF17393
Copy CRC BAF17393
Accurately ripped (confidence 19) [EF769ADB]
Copy OK

Track 4

Filename E:\RIP\trip\Blue Note Trip Vol. 01 (Maestro) CD 01 (Saturday Night)\04 - Buddy Rich - The Beat Goes On.wav

Peak level 96.6 %
Track quality 100.0 %
Test CRC 012EC554
Copy CRC 012EC554
Accurately ripped (confidence 19) [68ACF642]
Copy OK

Track 5

Filename E:\RIP\trip\Blue Note Trip Vol. 01 (Maestro) CD 01 (Saturday Night)\05 - Candido - Serenade To A Savage.wav

Peak level 96.6 %
Track quality 100.0 %
Test CRC AE88D54B
Copy CRC AE88D54B
Accurately ripped (confidence 20) [92ABED2C]
Copy OK

Track 6

Filename E:\RIP\trip\Blue Note Trip Vol. 01 (Maestro) CD 01 (Saturday Night)\06 - EDC - Desire On Fire.wav

Peak level 96.6 %
Track quality 100.0 %
Test CRC 3D6D04D4
Copy CRC 3D6D04D4
Accurately ripped (confidence 20) [2A9A787E]
Copy OK

Track 7

Filename E:\RIP\trip\Blue Note Trip Vol. 01 (Maestro) CD 01 (Saturday Night)\07 - Jimmy McGriff - Deb Sombo.wav

Peak level 96.6 %
Track quality 100.0 %
Test CRC E2CCA5A5
Copy CRC E2CCA5A5
Accurately ripped (confidence 20) [B440D6C5]
Copy OK

Track 8

Filename E:\RIP\trip\Blue Note Trip Vol. 01 (Maestro) CD 01 (Saturday Night)\08 - Donald Byrd - Elijah.wav

Peak level 96.6 %
Track quality 100.0 %
Test CRC 8F36793E
Copy CRC 8F36793E
Accurately ripped (confidence 20) [79565F54]
Copy OK

Track 9

Filename E:\RIP\trip\Blue Note Trip Vol. 01 (Maestro) CD 01 (Saturday Night)\09 - Patti Drew - Fever.wav

Peak level 96.6 %
Track quality 100.0 %
Test CRC A2B74EB2
Copy CRC A2B74EB2
Accurately ripped (confidence 20) [8EE22B5B]
Copy OK

Track 10

Filename E:\RIP\trip\Blue Note Trip Vol. 01 (Maestro) CD 01 (Saturday Night)\10 - Joe Torres - Soul Cha.wav

Peak level 96.6 %
Track quality 100.0 %
Test CRC 3F405820
Copy CRC 3F405820
Accurately ripped (confidence 20) [3A3690C9]
Copy OK

Track 11

Filename E:\RIP\trip\Blue Note Trip Vol. 01 (Maestro) CD 01 (Saturday Night)\11 - Grant Green - Sookie Sookie.wav

Peak level 96.6 %
Track quality 100.0 %
Test CRC 5C949793
Copy CRC 5C949793
Accurately ripped (confidence 20) [0992BAE7]
Copy OK

Track 12

Filename E:\RIP\trip\Blue Note Trip Vol. 01 (Maestro) CD 01 (Saturday Night)\12 - Richard 'Groove' Holmes - Groovin' For Mr. G.wav

Peak level 96.6 %
Track quality 100.0 %
Test CRC C053B39A
Copy CRC C053B39A
Accurately ripped (confidence 20) [F0D4AE13]
Copy OK

Track 13

Filename E:\RIP\trip\Blue Note Trip Vol. 01 (Maestro) CD 01 (Saturday Night)\13 - St. Germain - Rose Rouge.wav

Peak level 96.6 %
Track quality 100.0 %
Test CRC 514FC4D5
Copy CRC 514FC4D5
Accurately ripped (confidence 20) [C8B8A154]
Copy OK

Track 14

Filename E:\RIP\trip\Blue Note Trip Vol. 01 (Maestro) CD 01 (Saturday Night)\14 - Ronny Jordan - London Lowdown.wav

Peak level 96.6 %
Track quality 100.0 %
Test CRC 88ABDE34
Copy CRC 88ABDE34
Accurately ripped (confidence 19) [291D6E9C]
Copy OK


All tracks accurately ripped

No errors occurred

End of status report

[CUETools log; Date: 24.11.2019 18:43:41; Version: 2.1.4]
[CTDB TOCID: oiRy1NXfLrykwdZUNWxVzhFNH5E-] found.
Track | CTDB Status
1 | (131/174) Accurately ripped
2 | (130/174) Accurately ripped
3 | (131/174) Accurately ripped
4 | (131/174) Accurately ripped
5 | (131/174) Accurately ripped
6 | (131/174) Accurately ripped
7 | (131/174) Accurately ripped
8 | (130/174) Accurately ripped
9 | (129/174) Accurately ripped, or (2/174) differs in 57 samples @00:54:02-00:54:03
10 | (131/174) Accurately ripped
11 | (131/174) Accurately ripped
12 | (131/174) Accurately ripped
13 | (131/174) Accurately ripped
14 | (128/174) Accurately ripped
[AccurateRip ID: 00205bbf-0167459d-b910dc0e] found.
Track [ CRC | V2 ] Status
01 [dc10e67f|b6a067c6] (052+057/125) Accurately ripped
02 [1f4fba2e|fbdb04ea] (052+057/125) Accurately ripped
03 [ef769adb|55c929e4] (053+057/126) Accurately ripped
04 [68acf642|3789ced8] (050+055/121) Accurately ripped
05 [92abed2c|321a092f] (052+056/124) Accurately ripped
06 [2a9a787e|e1fed63a] (052+057/125) Accurately ripped
07 [b440d6c5|e369146e] (052+057/125) Accurately ripped
08 [79565f54|1764b04a] (053+055/124) Accurately ripped
09 [8ee22b5b|4bd1a27d] (052+054/122) Accurately ripped
10 [3a3690c9|1012b9e4] (053+055/124) Accurately ripped
11 [0992bae7|9eab3ce6] (053+055/124) Accurately ripped
12 [f0d4ae13|f0801e7c] (054+056/126) Accurately ripped
13 [c8b8a154|16210f44] (054+054/124) Accurately ripped
14 [291d6e9c|3b00f123] (050+053/119) Accurately ripped
Offsetted by -122:
01 [8cf1be22] (000/125) No match (V2 was not tested)
02 [3a284931] (000/125) No match (V2 was not tested)
03 [6befd8df] (000/126) No match (V2 was not tested)
04 [c767be00] (000/121) No match (V2 was not tested)
05 [b3fd653e] (000/124) No match (V2 was not tested)
06 [80b38553] (000/125) No match (V2 was not tested)
07 [3223b57a] (000/125) No match (V2 was not tested)
08 [18bffe12] (000/124) No match (V2 was not tested)
09 [a071fce9] (000/122) No match (V2 was not tested)
10 [98112ef5] (000/124) No match (V2 was not tested)
11 [af2c6f8e] (000/124) No match (V2 was not tested)
12 [fe4f0e50] (000/126) No match (V2 was not tested)
13 [86e56c13] (000/124) No match (V2 was not tested)
14 [d30ed5bb] (000/119) No match (V2 was not tested)
Offsetted by -86:
01 [32043214] (000/125) No match (V2 was not tested)
02 [a368f14e] (000/125) No match (V2 was not tested)
03 [07b4c323] (000/126) No match (V2 was not tested)
04 [988fb90e] (000/121) No match (V2 was not tested)
05 [2abe9091] (000/124) No match (V2 was not tested)
06 [0943bec4] (000/125) No match (V2 was not tested)
07 [c42be613] (000/125) No match (V2 was not tested)
08 [ecde17ec] (000/124) No match (V2 was not tested)
09 [8de665dd] (000/122) No match (V2 was not tested)
10 [2133684a] (000/124) No match (V2 was not tested)
11 [5249411c] (000/124) No match (V2 was not tested)
12 [08200073] (000/126) No match (V2 was not tested)
13 [f4c795de] (000/124) No match (V2 was not tested)
14 [5facad74] (000/119) No match (V2 was not tested)
Offsetted by 3:
01 [aa9a537e] (000/125) No match (V2 was not tested)
02 [1b9b4018] (000/125) No match (V2 was not tested)
03 [adaabbe5] (000/126) No match (V2 was not tested)
04 [8975ca23] (000/121) No match (V2 was not tested)
05 [ad0f2c53] (000/124) No match (V2 was not tested)
06 [add6e08e] (000/125) No match (V2 was not tested)
07 [3be40b5e] (000/125) No match (V2 was not tested)
08 [de6b2000] (000/124) No match (V2 was not tested)
09 [34de2e3e] (000/122) No match (V2 was not tested)
10 [fb255ffd] (000/124) No match (V2 was not tested)
11 [6bc8ffd3] (000/124) No match (V2 was not tested)
12 [a8128a42] (000/126) No match (V2 was not tested)
13 [84f4f6dd] (000/124) No match (V2 was not tested)
14 [f5e41717] (000/119) No match (V2 was not tested)

Track Peak [ CRC32 ] [W/O NULL] [ LOG ]
– 96,6 [5972125D] [69C1E786]
01 96,6 [BF4FD7BD] [D02ADAC1] CRC32
02 96,6 [DC30675E] [7F325EDD] CRC32
03 96,6 [BAF17393] [2FC15F78] CRC32
04 96,6 [012EC554] [6A03AEDE] CRC32
05 96,6 [AE88D54B] [66DDC227] CRC32
06 96,6 [3D6D04D4] [EC727E4F] CRC32
07 96,6 [E2CCA5A5] [82C57469] CRC32
08 96,6 [8F36793E] [EC1A0D04] CRC32
09 96,6 [A2B74EB2] [4E267210] CRC32
10 96,6 [3F405820] [DF3B881E] CRC32
11 96,6 [5C949793] [77BE2547] CRC32
12 96,6 [C053B39A] [07070510] CRC32
13 96,6 [514FC4D5] [46068F92] CRC32
14 96,6 [88ABDE34] [7C89552B] CRC32

Exact Audio Copy V0.99 prebeta 4 from 23. January 2008

EAC extraction logfile from 4. April 2009, 11:34

Various / Blue Note Trip Vol. 01 (Maestro) CD 02 (Sunday Morning)

Used drive : HL-DT-STDVDRAM GH22NS40 Adapter: 2 ID: 0

Read mode : Secure
Utilize accurate stream : Yes
Defeat audio cache : Yes
Make use of C2 pointers : No

Read offset correction : 667
Overread into Lead-In and Lead-Out : No
Fill up missing offset samples with silence : Yes
Delete leading and trailing silent blocks : No
Null samples used in CRC calculations : Yes
Used interface : Native Win32 interface for Win NT & 2000
Gap handling : Appended to previous track

Used output format : User Defined Encoder
Selected bitrate : 128 kBit/s
Quality : High
Add ID3 tag : No
Command line compressor : C:\Program Files (x86)\Exact Audio Copy\Flac\flac.exe
Additional command line options : -8 -V -T "ARTIST=%a" -T "TITLE=%t" -T "ALBUM=%g" -T "DATE=%y" -T "TRACKNUMBER=%n" -T "GENRE=%m" -T "COMMENT=EAC FLAC -8" %s


TOC of the extracted CD

Track | Start | Length | Start sector | End sector
––––––––––––––––––––––––––––-
1 | 0:00.00 | 6:08.51 | 0 | 27650
2 | 6:08.51 | 3:54.19 | 27651 | 45219
3 | 10:02.70 | 4:28.72 | 45220 | 65391
4 | 14:31.67 | 6:23.70 | 65392 | 94186
5 | 20:55.62 | 3:21.52 | 94187 | 109313
6 | 24:17.39 | 7:12.64 | 109314 | 141777
7 | 31:30.28 | 7:28.37 | 141778 | 175414
8 | 38:58.65 | 4:27.04 | 175415 | 195443
9 | 43:25.69 | 4:47.43 | 195444 | 217011
10 | 48:13.37 | 6:48.27 | 217012 | 247638
11 | 55:01.64 | 2:58.23 | 247639 | 261011
12 | 58:00.12 | 3:55.53 | 261012 | 278689
13 | 61:55.65 | 3:42.32 | 278690 | 295371
14 | 65:38.22 | 3:16.00 | 295372 | 310071
15 | 68:54.22 | 4:57.33 | 310072 | 332379


Track 1

Filename E:\RIP\trip\Blue Note Trip Vol. 01 (Maestro) CD 02 (Sunday Morning)\01 - Bobbi Humphrey - Smiling Faces Sometimes.wav

Pre-gap length 0:00:02.00

Peak level 96.6 %
Track quality 99.9 %
Test CRC A19F84A0
Copy CRC A19F84A0
Accurately ripped (confidence 19) [24E15A68]
Copy OK

Track 2

Filename E:\RIP\trip\Blue Note Trip Vol. 01 (Maestro) CD 02 (Sunday Morning)\02 - Marlena Shaw - Save The Children.wav

Peak level 96.6 %
Track quality 100.0 %
Test CRC 95B3D132
Copy CRC 95B3D132
Accurately ripped (confidence 19) [85F52866]
Copy OK

Track 3

Filename E:\RIP\trip\Blue Note Trip Vol. 01 (Maestro) CD 02 (Sunday Morning)\03 - A Taste Of Honey - I Love You.wav

Peak level 96.6 %
Track quality 99.9 %
Test CRC A7D43447
Copy CRC A7D43447
Accurately ripped (confidence 19) [552BA1F3]
Copy OK

Track 4

Filename E:\RIP\trip\Blue Note Trip Vol. 01 (Maestro) CD 02 (Sunday Morning)\04 - Bobbi Humphrey - My Little Girl.wav

Peak level 96.6 %
Track quality 100.0 %
Test CRC B6051BD9
Copy CRC B6051BD9
Accurately ripped (confidence 19) [257132F2]
Copy OK

Track 5

Filename E:\RIP\trip\Blue Note Trip Vol. 01 (Maestro) CD 02 (Sunday Morning)\05 - Nancy Wilson - Lush Life.wav

Peak level 96.6 %
Track quality 100.0 %
Test CRC 49920190
Copy CRC 49920190
Accurately ripped (confidence 19) [C8D453CA]
Copy OK

Track 6

Filename E:\RIP\trip\Blue Note Trip Vol. 01 (Maestro) CD 02 (Sunday Morning)\06 - Horace Silver - Song For My Father.wav

Peak level 96.6 %
Track quality 100.0 %
Test CRC 73E6CC12
Copy CRC 73E6CC12
Accurately ripped (confidence 19) [F088C7D5]
Copy OK

Track 7

Filename E:\RIP\trip\Blue Note Trip Vol. 01 (Maestro) CD 02 (Sunday Morning)\07 - Gene Harris - As.wav

Peak level 96.6 %
Track quality 100.0 %
Test CRC E9BC945D
Copy CRC E9BC945D
Accurately ripped (confidence 19) [D33737A6]
Copy OK

Track 8

Filename E:\RIP\trip\Blue Note Trip Vol. 01 (Maestro) CD 02 (Sunday Morning)\08 - Bobby Lyle - Groove.wav

Peak level 96.6 %
Track quality 100.0 %
Test CRC 3B571660
Copy CRC 3B571660
Accurately ripped (confidence 20) [EEA844A1]
Copy OK

Track 9

Filename E:\RIP\trip\Blue Note Trip Vol. 01 (Maestro) CD 02 (Sunday Morning)\09 - Lonnie Smith - Move Your Hand.wav

Peak level 96.6 %
Track quality 99.9 %
Test CRC 57E8FF50
Copy CRC 57E8FF50
Accurately ripped (confidence 17) [82731A96]
Copy OK

Track 10

Filename E:\RIP\trip\Blue Note Trip Vol. 01 (Maestro) CD 02 (Sunday Morning)\10 - Bobby Hutcherson - Goin' Down South.wav

Peak level 96.6 %
Track quality 100.0 %
Test CRC 423EE8A7
Copy CRC 423EE8A7
Accurately ripped (confidence 18) [3A96C217]
Copy OK

Track 11

Filename E:\RIP\trip\Blue Note Trip Vol. 01 (Maestro) CD 02 (Sunday Morning)\11 - Candido - Ghana Spice Pt. 1.wav

Peak level 96.6 %
Track quality 99.9 %
Test CRC 8F2575A5
Copy CRC 8F2575A5
Accurately ripped (confidence 18) [CB2D5962]
Copy OK

Track 12

Filename E:\RIP\trip\Blue Note Trip Vol. 01 (Maestro) CD 02 (Sunday Morning)\12 - Dianne Reeves - Afro Blue.wav

Peak level 96.6 %
Track quality 100.0 %
Test CRC AEC29B96
Copy CRC AEC29B96
Accurately ripped (confidence 18) [68311ABD]
Copy OK

Track 13

Filename E:\RIP\trip\Blue Note Trip Vol. 01 (Maestro) CD 02 (Sunday Morning)\13 - Eddie Palmieri - Harlem River Drive.wav

Peak level 96.5 %
Track quality 100.0 %
Test CRC D0411D6F
Copy CRC D0411D6F
Accurately ripped (confidence 18) [D4541245]
Copy OK

Track 14

Filename E:\RIP\trip\Blue Note Trip Vol. 01 (Maestro) CD 02 (Sunday Morning)\14 - Gene Harris & The Three Sounds - Book Of Slim.wav

Peak level 96.6 %
Track quality 100.0 %
Test CRC 6DD7BE7D
Copy CRC 6DD7BE7D
Accurately ripped (confidence 19) [C9F174F7]
Copy OK

Track 15

Filename E:\RIP\trip\Blue Note Trip Vol. 01 (Maestro) CD 02 (Sunday Morning)\15 - Gary Bartz - Music Is My Sanctuary.wav

Peak level 96.6 %
Track quality 100.0 %
Test CRC 4635A3D6
Copy CRC 4635A3D6
Accurately ripped (confidence 18) [6642383D]
Copy OK


All tracks accurately ripped

No errors occurred

End of status report

[CUETools log; Date: 24.11.2019 18:45:21; Version: 2.1.4]
[CTDB TOCID: R5ryVTPBxS5ZmFr4JGMR_obD.Qs-] found.
Track | CTDB Status
1 | (103/136) Accurately ripped
2 | (106/136) Accurately ripped
3 | (106/136) Accurately ripped
4 | (106/136) Accurately ripped
5 | (104/136) Accurately ripped
6 | (107/136) Accurately ripped
7 | (107/136) Accurately ripped
8 | (107/136) Accurately ripped
9 | (107/136) Accurately ripped
10 | (107/136) Accurately ripped
11 | (107/136) Accurately ripped
12 | (107/136) Accurately ripped
13 | (106/136) Accurately ripped
14 | (106/136) Accurately ripped
15 | (104/136) Accurately ripped
[AccurateRip ID: 002aac22-01e076ff-d8114f0f] found.
Track [ CRC | V2 ] Status
01 [24e15a68|7db27cd5] (054+056/126) Accurately ripped
02 [85f52866|cd9976a5] (054+057/125) Accurately ripped
03 [552ba1f3|30a8febc] (054+057/127) Accurately ripped
04 [257132f2|e7feacf3] (054+057/127) Accurately ripped
05 [c8d453ca|a9019c6a] (053+056/125) Accurately ripped
06 [f088c7d5|f70047cd] (054+058/128) Accurately ripped
07 [d33737a6|88a46dc9] (054+057/127) Accurately ripped
08 [eea844a1|c5f158ca] (055+057/128) Accurately ripped
09 [82731a96|63aa57a9] (052+057/125) Accurately ripped
10 [3a96c217|cb21783b] (052+056/124) Accurately ripped
11 [cb2d5962|67aae635] (054+057/127) Accurately ripped
12 [68311abd|ba9f3fac] (054+058/128) Accurately ripped
13 [d4541245|9651c60d] (053+057/126) Accurately ripped
14 [c9f174f7|d50af201] (054+055/125) Accurately ripped
15 [6642383d|e3e3301b] (050+052/118) Accurately ripped
Offsetted by -86:
01 [59989372] (002/126) Accurately ripped
02 [cc9b95d8] (000/125) No match (V2 was not tested)
03 [2c168578] (002/127) Accurately ripped
04 [96111fbd] (002/127) Accurately ripped
05 [1dbe2a11] (002/125) Accurately ripped
06 [129fdeaf] (002/128) Accurately ripped
07 [f4536dc4] (002/127) Accurately ripped
08 [5748b998] (002/128) Accurately ripped
09 [47f8521e] (002/125) Accurately ripped
10 [856c90ea] (002/124) Accurately ripped
11 [a208c87c] (002/127) Accurately ripped
12 [043e9299] (002/128) Accurately ripped
13 [d9d3ba77] (002/126) Accurately ripped
14 [0cca2e6a] (002/125) Accurately ripped
15 [080a6d57] (002/118) Accurately ripped
Offsetted by -6:
01 [2aafd000] (000/126) No match (V2 was not tested)
02 [bb581566] (000/125) No match
03 [ff1d5c37] (000/127) No match
04 [bc38fbcb] (000/127) No match
05 [2122ee49] (000/125) No match
06 [50873cd5] (000/128) No match
07 [1ddb6091] (000/127) No match
08 [1f7ed490] (000/128) No match
09 [11b6c368] (000/125) No match
10 [7e6cd488] (000/124) No match
11 [1a047c82] (000/127) No match
12 [c13d5746] (000/128) No match
13 [1a9d48af] (000/126) No match
14 [7f1aa2a9] (000/125) No match
15 [4ff78152] (000/118) No match

Track Peak [ CRC32 ] [W/O NULL] [ LOG ]
– 96,6 [C27C104F] [221D7AFE]
01 96,6 [A19F84A0] [EE66B7EF] CRC32
02 96,6 [95B3D132] [3D7381C4] CRC32
03 96,6 [A7D43447] [BFC2E2DE] CRC32
04 96,6 [B6051BD9] [C589C0D3] CRC32
05 96,6 [49920190] [88D4F3D0] CRC32
06 96,6 [73E6CC12] [48CEFE6B] CRC32
07 96,6 [E9BC945D] [6EA6315E] CRC32
08 96,6 [3B571660] [82F7DD6A] CRC32
09 96,6 [57E8FF50] [44F3ECD5] CRC32
10 96,6 [423EE8A7] [DC26E90A] CRC32
11 96,6 [8F2575A5] [55990C49] CRC32
12 96,6 [AEC29B96] [AAA19CFD] CRC32
13 96,5 [D0411D6F] [9D11138C] CRC32
14 96,6 [6DD7BE7D] [8038C34D] CRC32
15 96,6 [4635A3D6] [206237E0] CRC32

Thanks to ordo

See also:
V.A. - Blue Note Trip Maestro: Somethin' Old / Somethin' Blue (2007)