Subcategories

V.A. - Break n' Bossa, Chapter 5 (2002)

Posted By: gribovar
V.A. - Break n' Bossa, Chapter 5 (2002)

V.A. - Break n' Bossa, Chapter 5 (2002)
EAC Rip | FLAC (tracks+.cue+log) - 856 MB | MP3 CBR 320 kbps (LAME 3.93) - 296 MB | Covers - 82 MB
Genre: Bossa Nova, Nu Jazz | RAR 3% Rec. | Label: Schema Records (SCCD 347)

After four successful chapters, the Break n' Bossa series is back with a fifth double disc edition, once again compiling the most interesting and groovy tunes available from Schema Records. The second disc of this set is a valuable bonus CD that introduces you to the wonderful and ever evolving world of "Break n' Bossa". The disc is a completely live mixed "DJ Set", featuring well tested tunes as well as those just off the pressing boards.
CD 1 Tracklist:
01. Mo' Horizons - Dance Naked Under Palm Trees
02. Mondomo - Penso Ascoltando
03. S-Tone Inc. - In The Mood For Bossa
04. Pekka Streng - Puutarhassa (Mika Snickars Extended Version)
05. Dining Rooms, The - Existentialism (Milano Bossa Mix)
06. Greyboy - Mastered The Art (Nicola Conte Jet Sounds Remix)
07. Snooze - Good Morning As Usual (Señor Coconut Remix)
08. Amalgamation Of Soundz - Saisin
09. Intuit - O Preguicoso
10. Gerardo Frisina - Mas Eu Quer Ser
11. Marcos Valle - On Line
12. Eli Goulart E Banda Do Mato - Meu Samba (Nicola Conte's Bossa Ahead Remix)
13. Soulstance - Honesty

Total time: 01:10:51

CD 2 Tracklist:
01. Rosalia De Souza - Canto De Ossanha (Alternative Version)
02. Greyboy feat. Elgin Park - Mastered The Art (Nicola Conte Jet Sounds Remix)
03. Rosalia De Souza - Zig Zag (Alternative Version)
04. Soulstance - The Aftermath Of Love
05. Gerardo Frisina - Mas Eu Quer Ser (Instrumental Piano Perspective)
06. Soulstance - Circle
07. Intuit - O Preguicoso
08. Nicola Conte - Moroccan Variations
09. Les Hommes - Posada Do Amor
10. Eli Goular & Banda Do Mato - Meu Samba (Nicola Conte's Bossa Ahead Remix)
11. Combo Granata - Colpo Su Colpo
12. S-Tone Inc. - La Boca Del Rio
13. Soulstance - Nucleus

Total time: 55:04

Exact Audio Copy V1.0 beta 4 from 7. December 2014

EAC extraction logfile from 22. November 2015, 21:57

Various / Break N' Bossa Chapter 5 CD1

Used drive : ASUS DRW-24B3ST Adapter: 1 ID: 2

Read mode : Secure
Utilize accurate stream : Yes
Defeat audio cache : Yes
Make use of C2 pointers : No

Read offset correction : 6
Overread into Lead-In and Lead-Out : No
Fill up missing offset samples with silence : Yes
Delete leading and trailing silent blocks : No
Null samples used in CRC calculations : Yes
Used interface : Native Win32 interface for Win NT & 2000
Gap handling : Appended to previous track

Used output format : User Defined Encoder
Selected bitrate : 896 kBit/s
Quality : High
Add ID3 tag : No
Command line compressor : C:\Program Files (x86)\Exact Audio Copy\Flac\flac.exe
Additional command line options : -8 -V -T "ARTIST=%artist%" -T "TITLE=%title%" -T "ALBUM=%albumtitle%" -T "DATE=%year%" -T "TRACKNUMBER=%tracknr%" -T "GENRE=%genre%" -T "COMMENT=ripped by Oleandris" %source%


TOC of the extracted CD

Track | Start | Length | Start sector | End sector
––––––––––––––––––––––––––––-
1 | 0:00.00 | 3:31.00 | 0 | 15824
2 | 3:31.00 | 6:55.21 | 15825 | 46970
3 | 10:26.21 | 4:43.73 | 46971 | 68268
4 | 15:10.19 | 4:54.25 | 68269 | 90343
5 | 20:04.44 | 4:58.09 | 90344 | 112702
6 | 25:02.53 | 6:22.23 | 112703 | 141375
7 | 31:25.01 | 6:21.11 | 141376 | 169961
8 | 37:46.12 | 7:03.68 | 169962 | 201754
9 | 44:50.05 | 6:19.68 | 201755 | 230247
10 | 51:09.73 | 4:43.45 | 230248 | 251517
11 | 55:53.43 | 5:54.05 | 251518 | 278072
12 | 61:47.48 | 4:06.61 | 278073 | 296583
13 | 65:54.34 | 4:57.05 | 296584 | 318863


Track 1

Filename F:\ЗАГРУЗКИ\ Break n' Bossa Collection (1999-2008)\ 2002 - chapter 5 2CD\CD1\01. Mo' Horizons - Dance Naked Under Palm Trees.wav

Pre-gap length 0:00:02.00

Peak level 100.0 %
Extraction speed 1.8 X
Track quality 100.0 %
Test CRC 76837A47
Copy CRC 76837A47
Accurately ripped (confidence 3) [B4F49C89] (AR v2)
Copy OK

Track 2

Filename F:\ЗАГРУЗКИ\ Break n' Bossa Collection (1999-2008)\ 2002 - chapter 5 2CD\CD1\02. Mondomo - Penso Ascoltando.wav

Peak level 100.0 %
Extraction speed 2.3 X
Track quality 100.0 %
Test CRC B5BD20C9
Copy CRC B5BD20C9
Accurately ripped (confidence 3) [79D915DF] (AR v2)
Copy OK

Track 3

Filename F:\ЗАГРУЗКИ\ Break n' Bossa Collection (1999-2008)\ 2002 - chapter 5 2CD\CD1\03. S-Tone Inc. - In The Mood For Bossa.wav

Peak level 99.0 %
Extraction speed 2.4 X
Track quality 100.0 %
Test CRC 9555D229
Copy CRC 9555D229
Accurately ripped (confidence 2) [86F534A5] (AR v2)
Copy OK

Track 4

Filename F:\ЗАГРУЗКИ\ Break n' Bossa Collection (1999-2008)\ 2002 - chapter 5 2CD\CD1\04. Pekka Streng - Puutarhassa (Mika Snickars Extended Version).wav

Peak level 96.6 %
Extraction speed 2.6 X
Track quality 100.0 %
Test CRC B07B804A
Copy CRC B07B804A
Accurately ripped (confidence 3) [57A382AB] (AR v2)
Copy OK

Track 5

Filename F:\ЗАГРУЗКИ\ Break n' Bossa Collection (1999-2008)\ 2002 - chapter 5 2CD\CD1\05. Dining Rooms, The - Existentialism (Milano Bossa Mix).wav

Peak level 99.9 %
Extraction speed 2.1 X
Track quality 99.9 %
Test CRC E51BDE8E
Copy CRC E51BDE8E
Accurately ripped (confidence 3) [7B9D0D17] (AR v2)
Copy OK

Track 6

Filename F:\ЗАГРУЗКИ\ Break n' Bossa Collection (1999-2008)\ 2002 - chapter 5 2CD\CD1\06. Greyboy - Mastered The Art (Nicola Conte Jet Sounds Remix).wav

Peak level 99.8 %
Extraction speed 3.1 X
Track quality 100.0 %
Test CRC 863012DC
Copy CRC 863012DC
Accurately ripped (confidence 3) [F0F21C6E] (AR v2)
Copy OK

Track 7

Filename F:\ЗАГРУЗКИ\ Break n' Bossa Collection (1999-2008)\ 2002 - chapter 5 2CD\CD1\07. Snooze - Good Morning As Usual (Señor Coconut Remix).wav

Pre-gap length 0:00:00.30

Peak level 98.8 %
Extraction speed 2.6 X
Track quality 99.9 %
Test CRC 4550A55C
Copy CRC 4550A55C
Accurately ripped (confidence 3) [AF81AB1B] (AR v2)
Copy OK

Track 8

Filename F:\ЗАГРУЗКИ\ Break n' Bossa Collection (1999-2008)\ 2002 - chapter 5 2CD\CD1\08. Amalgamation Of Soundz - Saisin.wav

Peak level 100.0 %
Extraction speed 3.5 X
Track quality 100.0 %
Test CRC 110375CC
Copy CRC 110375CC
Accurately ripped (confidence 2) [4DB660B5] (AR v2)
Copy OK

Track 9

Filename F:\ЗАГРУЗКИ\ Break n' Bossa Collection (1999-2008)\ 2002 - chapter 5 2CD\CD1\09. Intuit - O Preguicoso.wav

Peak level 92.6 %
Extraction speed 3.7 X
Track quality 100.0 %
Test CRC 40D48113
Copy CRC 40D48113
Accurately ripped (confidence 2) [688E1078] (AR v2)
Copy OK

Track 10

Filename F:\ЗАГРУЗКИ\ Break n' Bossa Collection (1999-2008)\ 2002 - chapter 5 2CD\CD1\10. Gerardo Frisina - Mas Eu Quer Ser.wav

Peak level 99.5 %
Extraction speed 3.7 X
Track quality 100.0 %
Test CRC 9C20153D
Copy CRC 9C20153D
Accurately ripped (confidence 2) [3236728A] (AR v2)
Copy OK

Track 11

Filename F:\ЗАГРУЗКИ\ Break n' Bossa Collection (1999-2008)\ 2002 - chapter 5 2CD\CD1\11. Marcos Valle - On Line.wav

Peak level 98.8 %
Extraction speed 3.9 X
Track quality 100.0 %
Test CRC 206ABCCF
Copy CRC 206ABCCF
Accurately ripped (confidence 3) [314FF9FF] (AR v2)
Copy OK

Track 12

Filename F:\ЗАГРУЗКИ\ Break n' Bossa Collection (1999-2008)\ 2002 - chapter 5 2CD\CD1\12. Eli Goulart E Banda Do Mato - Meu Samba (Nicola Conte's Bossa Ahead Remix).wav

Peak level 98.9 %
Extraction speed 3.9 X
Track quality 100.0 %
Test CRC 3372C181
Copy CRC 3372C181
Accurately ripped (confidence 3) [8559EF16] (AR v2)
Copy OK

Track 13

Filename F:\ЗАГРУЗКИ\ Break n' Bossa Collection (1999-2008)\ 2002 - chapter 5 2CD\CD1\13. Soulstance - Honesty.wav

Peak level 98.8 %
Extraction speed 4.1 X
Track quality 100.0 %
Test CRC 88F99215
Copy CRC 88F99215
Accurately ripped (confidence 2) [D3FE69BF] (AR v2)
Copy OK


All tracks accurately ripped

No errors occurred

End of status report

–– CUETools DB Plugin V2.1.4

[CTDB TOCID: SrAXUDPrvLvRQ3A1s6fs6xeA4_s-] found
Submit result: SrAXUDPrvLvRQ3A1s6fs6xeA4_s- has been confirmed
Track | CTDB Status
1 | (10/10) Accurately ripped
2 | (10/10) Accurately ripped
3 | (10/10) Accurately ripped
4 | ( 9/10) Accurately ripped
5 | (10/10) Accurately ripped
6 | (10/10) Accurately ripped
7 | (10/10) Accurately ripped
8 | (10/10) Accurately ripped
9 | (10/10) Accurately ripped
10 | (10/10) Accurately ripped
11 | (10/10) Accurately ripped
12 | (10/10) Accurately ripped
13 | (10/10) Accurately ripped


==== Log checksum C9CCF3FD3885EE143CF00FC015215CD767550C5B7E74B1A74D8D448A564DE743 ====

[CUETools log; Date: 13.03.2020 15:13:12; Version: 2.1.4]
[CTDB TOCID: SrAXUDPrvLvRQ3A1s6fs6xeA4_s-] found.
Track | CTDB Status
1 | (25/25) Accurately ripped
2 | (25/25) Accurately ripped
3 | (25/25) Accurately ripped
4 | (24/25) Accurately ripped
5 | (25/25) Accurately ripped
6 | (25/25) Accurately ripped
7 | (25/25) Accurately ripped
8 | (25/25) Accurately ripped
9 | (25/25) Accurately ripped
10 | (25/25) Accurately ripped
11 | (25/25) Accurately ripped
12 | (25/25) Accurately ripped
13 | (25/25) Accurately ripped
[AccurateRip ID: 0021e99c-0156c7bb-b9109b0d] found.
Track [ CRC | V2 ] Status
01 [71701a33|b4f49c89] (07+06/13) Accurately ripped
02 [8456aee6|79d915df] (07+06/13) Accurately ripped
03 [258dbed1|86f534a5] (07+05/12) Accurately ripped
04 [f12ea43c|57a382ab] (07+06/13) Accurately ripped
05 [7591a453|7b9d0d17] (07+06/13) Accurately ripped
06 [db00eb9b|f0f21c6e] (07+06/13) Accurately ripped
07 [c25af5ef|af81ab1b] (07+06/13) Accurately ripped
08 [97f90d34|4db660b5] (07+05/12) Accurately ripped
09 [c58e9534|688e1078] (06+05/11) Accurately ripped
10 [3b81bf87|3236728a] (07+05/12) Accurately ripped
11 [efcf037f|314ff9ff] (07+06/13) Accurately ripped
12 [3af62535|8559ef16] (07+06/13) Accurately ripped
13 [6cc622b8|d3fe69bf] (07+04/11) Accurately ripped

Track Peak [ CRC32 ] [W/O NULL] [ LOG ]
– 100,0 [8AAF6007] [503E975C]
01 100,0 [76837A47] [C6A7D9CF] CRC32
02 100,0 [B5BD20C9] [CE301F38] CRC32
03 99,0 [9555D229] [0066099D] CRC32
04 96,6 [B07B804A] [79AF5FA9] CRC32
05 99,9 [E51BDE8E] [FD698B78] CRC32
06 99,8 [863012DC] [9FD27CEF] CRC32
07 98,8 [4550A55C] [F9A13465] CRC32
08 100,0 [110375CC] [26F8B79B] CRC32
09 92,6 [40D48113] [E4D0E2C4] CRC32
10 99,5 [9C20153D] [004CC31F] CRC32
11 98,8 [206ABCCF] [3632CC3F] CRC32
12 98,9 [3372C181] [B52A306E] CRC32
13 98,8 [88F99215] [696CD4E6] CRC32

Exact Audio Copy V1.0 beta 4 from 7. December 2014

EAC extraction logfile from 22. November 2015, 21:57

Various / Break N' Bossa Chapter 5 CD2

Used drive : PLEXTOR DVDR PX-L890SA Adapter: 1 ID: 0

Read mode : Secure
Utilize accurate stream : Yes
Defeat audio cache : Yes
Make use of C2 pointers : No

Read offset correction : 6
Overread into Lead-In and Lead-Out : No
Fill up missing offset samples with silence : Yes
Delete leading and trailing silent blocks : No
Null samples used in CRC calculations : Yes
Used interface : Native Win32 interface for Win NT & 2000
Gap handling : Appended to previous track

Used output format : User Defined Encoder
Selected bitrate : 896 kBit/s
Quality : High
Add ID3 tag : No
Command line compressor : C:\Program Files (x86)\Exact Audio Copy\Flac\flac.exe
Additional command line options : -8 -V -T "ARTIST=%artist%" -T "TITLE=%title%" -T "ALBUM=%albumtitle%" -T "DATE=%year%" -T "TRACKNUMBER=%tracknr%" -T "GENRE=%genre%" -T "COMMENT=ripped by Oleandris" %source%


TOC of the extracted CD

Track | Start | Length | Start sector | End sector
––––––––––––––––––––––––––––-
1 | 0:00.00 | 5:01.69 | 0 | 22643
2 | 5:01.69 | 5:09.19 | 22644 | 45837
3 | 10:11.13 | 4:25.04 | 45838 | 65716
4 | 14:36.17 | 3:10.09 | 65717 | 79975
5 | 17:46.26 | 4:15.59 | 79976 | 99159
6 | 22:02.10 | 3:09.44 | 99160 | 113378
7 | 25:11.54 | 5:56.69 | 113379 | 140147
8 | 31:08.48 | 3:21.53 | 140148 | 155275
9 | 34:30.26 | 3:50.64 | 155276 | 172589
10 | 38:21.15 | 4:09.24 | 172590 | 191288
11 | 42:30.39 | 2:58.67 | 191289 | 204705
12 | 45:29.31 | 5:25.57 | 204706 | 229137
13 | 50:55.13 | 4:08.56 | 229138 | 247793


Track 1

Filename F:\ЗАГРУЗКИ\ Break n' Bossa Collection (1999-2008)\ 2002 - chapter 5 2CD\CD2\01. Rosalia De Souza - Canto De Ossanha (Alternative Version).wav

Pre-gap length 0:00:02.00

Peak level 82.1 %
Extraction speed 3.5 X
Track quality 100.0 %
Test CRC 9C615E20
Copy CRC 9C615E20
Accurately ripped (confidence 2) [A586FEF8] (AR v2)
Copy OK

Track 2

Filename F:\ЗАГРУЗКИ\ Break n' Bossa Collection (1999-2008)\ 2002 - chapter 5 2CD\CD2\02. Greyboy - Mastered The Art (Nicola Conte Jet Sounds Remix).wav

Peak level 100.0 %
Extraction speed 4.1 X
Track quality 100.0 %
Test CRC D4589DB7
Copy CRC D4589DB7
Accurately ripped (confidence 2) [E9D7DDFA] (AR v2)
Copy OK

Track 3

Filename F:\ЗАГРУЗКИ\ Break n' Bossa Collection (1999-2008)\ 2002 - chapter 5 2CD\CD2\03. Rosalia De Souza - Zig Zag (Alternative Version).wav

Peak level 100.0 %
Extraction speed 4.4 X
Track quality 100.0 %
Test CRC FC3ECB3F
Copy CRC FC3ECB3F
Accurately ripped (confidence 2) [86B2E56D] (AR v2)
Copy OK

Track 4

Filename F:\ЗАГРУЗКИ\ Break n' Bossa Collection (1999-2008)\ 2002 - chapter 5 2CD\CD2\04. Soulstance - The Aftermath Of Love.wav

Peak level 95.9 %
Extraction speed 4.5 X
Track quality 100.0 %
Test CRC 085E45F4
Copy CRC 085E45F4
Accurately ripped (confidence 2) [9800EFD3] (AR v2)
Copy OK

Track 5

Filename F:\ЗАГРУЗКИ\ Break n' Bossa Collection (1999-2008)\ 2002 - chapter 5 2CD\CD2\05. Gerardo Frisina - Mas Eu Quer Ser (Instrumental Piano Perspective).wav

Peak level 100.0 %
Extraction speed 4.9 X
Track quality 100.0 %
Test CRC FD3FDE29
Copy CRC FD3FDE29
Accurately ripped (confidence 2) [81611472] (AR v2)
Copy OK

Track 6

Filename F:\ЗАГРУЗКИ\ Break n' Bossa Collection (1999-2008)\ 2002 - chapter 5 2CD\CD2\06. Soulstance - Circle.wav

Peak level 64.1 %
Extraction speed 3.8 X
Track quality 99.9 %
Test CRC B4AC4F1B
Copy CRC B4AC4F1B
Accurately ripped (confidence 2) [64DB026F] (AR v2)
Copy OK

Track 7

Filename F:\ЗАГРУЗКИ\ Break n' Bossa Collection (1999-2008)\ 2002 - chapter 5 2CD\CD2\07. Intuit - O Preguicoso.wav

Peak level 59.0 %
Extraction speed 4.8 X
Track quality 99.9 %
Test CRC 134C3199
Copy CRC 134C3199
Accurately ripped (confidence 2) [D020B13A] (AR v2)
Copy OK

Track 8

Filename F:\ЗАГРУЗКИ\ Break n' Bossa Collection (1999-2008)\ 2002 - chapter 5 2CD\CD2\08. Nicola Conte - Moroccan Variations.wav

Peak level 55.2 %
Extraction speed 5.4 X
Track quality 100.0 %
Test CRC A0994BE9
Copy CRC A0994BE9
Accurately ripped (confidence 2) [9CDBF0D6] (AR v2)
Copy OK

Track 9

Filename F:\ЗАГРУЗКИ\ Break n' Bossa Collection (1999-2008)\ 2002 - chapter 5 2CD\CD2\09. Les Hommes - Posada Do Amor.wav

Peak level 37.8 %
Extraction speed 5.8 X
Track quality 100.0 %
Test CRC 31840E82
Copy CRC 31840E82
Accurately ripped (confidence 3) [0386371A] (AR v2)
Copy OK

Track 10

Filename F:\ЗАГРУЗКИ\ Break n' Bossa Collection (1999-2008)\ 2002 - chapter 5 2CD\CD2\10. Eli Goulart E Banda Do Mato - Meu Samba (Nicola Conte's Bossa Ahead Remix).wav

Peak level 84.3 %
Extraction speed 4.8 X
Track quality 99.9 %
Test CRC 2CDEA929
Copy CRC 2CDEA929
Accurately ripped (confidence 3) [265D382E] (AR v2)
Copy OK

Track 11

Filename F:\ЗАГРУЗКИ\ Break n' Bossa Collection (1999-2008)\ 2002 - chapter 5 2CD\CD2\11. Combo Granata - Colpo Su Colpo.wav

Peak level 58.6 %
Extraction speed 5.9 X
Track quality 100.0 %
Test CRC AE3CB334
Copy CRC AE3CB334
Accurately ripped (confidence 3) [D433B2FA] (AR v2)
Copy OK

Track 12

Filename F:\ЗАГРУЗКИ\ Break n' Bossa Collection (1999-2008)\ 2002 - chapter 5 2CD\CD2\12. S-Tone Inc. - La Boca Del Rio.wav

Peak level 70.5 %
Extraction speed 6.6 X
Track quality 100.0 %
Test CRC 59BDC597
Copy CRC 59BDC597
Accurately ripped (confidence 3) [71CA0AA1] (AR v2)
Copy OK

Track 13

Filename F:\ЗАГРУЗКИ\ Break n' Bossa Collection (1999-2008)\ 2002 - chapter 5 2CD\CD2\13. Soulstance - Nucleus.wav

Peak level 67.1 %
Extraction speed 6.6 X
Track quality 100.0 %
Test CRC 7E227FB0
Copy CRC 7E227FB0
Accurately ripped (confidence 2) [6833B13C] (AR v2)
Copy OK


All tracks accurately ripped

No errors occurred

End of status report

–– CUETools DB Plugin V2.1.4

[CTDB TOCID: d02T.D1MMvDQ2w9ucUd2ZT.qz6o-] found
Submit result: d02T.D1MMvDQ2w9ucUd2ZT.qz6o- has been confirmed
Track | CTDB Status
1 | (8/8) Accurately ripped
2 | (8/8) Accurately ripped
3 | (8/8) Accurately ripped
4 | (8/8) Accurately ripped
5 | (8/8) Accurately ripped
6 | (8/8) Accurately ripped
7 | (8/8) Accurately ripped
8 | (8/8) Accurately ripped
9 | (8/8) Accurately ripped
10 | (8/8) Accurately ripped
11 | (8/8) Accurately ripped
12 | (8/8) Accurately ripped
13 | (8/8) Accurately ripped


==== Log checksum A7FB610BC4CA92116A4566A4155A5BDB545A43001780C0306CAD2AA8702EBF04 ====

[CUETools log; Date: 13.03.2020 15:14:35; Version: 2.1.4]
[CTDB TOCID: d02T.D1MMvDQ2w9ucUd2ZT.qz6o-] found.
Track | CTDB Status
1 | (21/21) Accurately ripped
2 | (21/21) Accurately ripped
3 | (21/21) Accurately ripped
4 | (21/21) Accurately ripped
5 | (21/21) Accurately ripped
6 | (21/21) Accurately ripped
7 | (21/21) Accurately ripped
8 | (21/21) Accurately ripped
9 | (21/21) Accurately ripped
10 | (21/21) Accurately ripped
11 | (21/21) Accurately ripped
12 | (21/21) Accurately ripped
13 | (21/21) Accurately ripped
[AccurateRip ID: 001af8e7-010ad5bd-990ce70d] found.
Track [ CRC | V2 ] Status
01 [06f511ba|a586fef8] (06+05/11) Accurately ripped
02 [d9487677|e9d7ddfa] (06+05/11) Accurately ripped
03 [9c4d3816|86b2e56d] (06+05/11) Accurately ripped
04 [3fbc7d40|9800efd3] (06+05/11) Accurately ripped
05 [b32f15c9|81611472] (06+05/11) Accurately ripped
06 [8ebf4d1c|64db026f] (06+05/11) Accurately ripped
07 [2499a26f|d020b13a] (06+05/11) Accurately ripped
08 [5b5ffe27|9cdbf0d6] (06+05/11) Accurately ripped
09 [f483e46f|0386371a] (06+06/12) Accurately ripped
10 [250ca652|265d382e] (06+06/12) Accurately ripped
11 [17e0d374|d433b2fa] (06+06/12) Accurately ripped
12 [6a48ef98|71ca0aa1] (06+06/12) Accurately ripped
13 [bbfb8947|6833b13c] (06+05/11) Accurately ripped

Track Peak [ CRC32 ] [W/O NULL] [ LOG ]
– 100,0 [2FA2E94F] [E722F2E6]
01 82,1 [9C615E20] [6BE6D834] CRC32
02 100,0 [D4589DB7] [7C7D6EAB] CRC32
03 100,0 [FC3ECB3F] [ECE61013] CRC32
04 95,9 [085E45F4] [5C383602] CRC32
05 100,0 [FD3FDE29] [CBF8A86F] CRC32
06 64,1 [B4AC4F1B] [C1C1896F] CRC32
07 59,0 [134C3199] [B36E0773] CRC32
08 55,2 [A0994BE9] [5EFC517E] CRC32
09 37,8 [31840E82] [1D5F6F0E] CRC32
10 84,3 [2CDEA929] [5D0B201D] CRC32
11 58,6 [AE3CB334] [6EF08900] CRC32
12 70,5 [59BDC597] [8EF2DBC7] CRC32
13 67,1 [7E227FB0] [5F68AFA2] CRC32

Thanks to Oleandris

See also:
V.A. - Break n' Bossa, Chapter 1 (1999)
V.A. - Break n' Bossa, Chapter 2 (1999)
V.A. - Break n' Bossa, Chapter 3 (2000)
V.A. - Break n' Bossa, Chapter 4 (2001)