Subcategories

VA - Buddha-Bar XVI By Ravin (2014) REPOST

Posted By: uff
VA - Buddha-Bar XVI By Ravin (2014) REPOST

VA - Buddha-Bar XVI By Ravin (2014)
Chillout | 2cd | EAC Rip | Flac + Cue + Log | covers
George V, 3298122 | rel: 2014 | 1160Mb

2014 two CD set, the 16th installment in the popular globe-trotting series. This time, the destination is South America! This opus promises warmth and pleasure, taking you to an airy and captivating emotional plateau: bold rhythms, hypnotic compositions and aesthetic arrangements are the hallmarks of this collection of songs that are charged with emotion. Travel along the Amazon through unknown lands and let yourself be carried away by the fresh and soothing melodies of artists like Laidback, SoulAvenue, Ganga, Dreamers Inc and even Nocha Sotomayor and Angel Tears. The second CD contains a mix of Electronic sounds created by the master's hand - DJ Ravin. Also includes cuts by Kaan Gokman, Parov Stelar, Mercan Dédé, Kadebodestany and many more! ~Amazon

Track listing
cd1:
01. Jacob Gurevitsch - Lovers In Paris (Original Mix) (4:51)
02. Soul Avenue - Tamazight (4:26)
03. Ambray - Who We Are (4:15)
04. Thor - Nowruz (3:53)
05. Ganga - Carry You Home (Thor & Ravin Rebirth Remix) (4:18)
06. Max Chorny - Zaprosi U Sni (4:38)
07. Cambis & Florzinho - Aman Aman (5:19)
08. Sigh - Medina Blues (4:05)
09. Michael E. - Promise (5:07)
10. Laidback - Let The Music Do The Talking (3:42)
11. Akshin Alizadeh - Deep Inside (3:31)
12. Niyaz - The Hunt (The Hunt 2013) (4:12)
13. Angel Tears - Shir (6:25)
14. Stan Kolev & Matan Caspi - Midnight Caravan (5:01)
15. Nacho Sotomayor - Opaque (Transparent Remix) (4:51)
16. Dreamers Inc & Makis Ablianitis - BABA (6:45)
cd2:
01. Yasmine Hamdan - Deny (Holmes Price Remix) (5:25)
02. Parov Stelar Trio - La Calatrava (3:40)
03. Adham Shaikhs' - Coupe Decale (Drumspyder Remix) (6:13)
04. Mercan Dede - Hidden (4:59)
05. Desert Dwellers - Far From Here (Drumspyder Remix) (5:24)
06. Hinano - Damer I Pels (Deep Vocal Club Mix) (3:04)
07. Wareika - La Paloma (5:29)
08. Anthony Romeno Feat. Lady Vale - Play The Guitar (6:07)
09. Rebeat Feat. Shirley Bassey - If You Go Away (7:05)
10. Sable Sheep - Upon Burning Skies (6:49)
11. Kadebostany - Walking With A Ghost (Alceen Remix) (5:37)
12. Riva Starr Feat. Carmen Consoli - No Man's Land (Original Mix) (6:04)
13. Serdar Ayyildiz - Dualis (5:10)
14. Elissa - Albi Hasses Fik (Club Mix By Fadi Bitar) (5:47)


Exact Audio Copy V1.0 beta 3 from 29. August 2011

EAC extraction logfile from 28. August 2014, 22:28

Buddha-Bar XVI By Ravin / CD1 - Charango

Used drive : PLEXTOR DVDR PX-L890SA Adapter: 5 ID: 0

Read mode : Secure
Utilize accurate stream : Yes
Defeat audio cache : Yes
Make use of C2 pointers : No

Read offset correction : 6
Overread into Lead-In and Lead-Out : No
Fill up missing offset samples with silence : Yes
Delete leading and trailing silent blocks : No
Null samples used in CRC calculations : Yes
Used interface : Native Win32 interface for Win NT & 2000
Gap handling : Appended to previous track

Used output format : User Defined Encoder
Selected bitrate : 896 kBit/s
Quality : High
Add ID3 tag : No
Command line compressor : C:\Program Files (x86)\Exact Audio Copy\Flac\flac.exe
Additional command line options : -8 -V -T "ARTIST=%artist%" -T "TITLE=%title%" -T "ALBUM=%albumtitle%" -T "DATE=%year%" -T "TRACKNUMBER=%tracknr%" -T "GENRE=%genre%" -T "COMMENT=ripped by Oleandris" %source%


TOC of the extracted CD

Track | Start | Length | Start sector | End sector
––––––––––––––––––––––––––––-
1 | 0:00.00 | 4:51.22 | 0 | 21846
2 | 4:51.22 | 4:26.48 | 21847 | 41844
3 | 9:17.70 | 4:15.00 | 41845 | 60969
4 | 13:32.70 | 3:53.66 | 60970 | 78510
5 | 17:26.61 | 4:18.14 | 78511 | 97874
6 | 21:45.00 | 4:38.65 | 97875 | 118789
7 | 26:23.65 | 5:19.46 | 118790 | 142760
8 | 31:43.36 | 4:05.69 | 142761 | 161204
9 | 35:49.30 | 5:07.15 | 161205 | 184244
10 | 40:56.45 | 3:42.05 | 184245 | 200899
11 | 44:38.50 | 3:31.18 | 200900 | 216742
12 | 48:09.68 | 4:12.28 | 216743 | 235670
13 | 52:22.21 | 6:25.67 | 235671 | 264612
14 | 58:48.13 | 5:01.59 | 264613 | 287246
15 | 63:49.72 | 4:51.58 | 287247 | 309129
16 | 68:41.55 | 6:45.17 | 309130 | 339521


Track 1

Filename F:\AUDIO - I\ Ambient - Chill Out - Lounge - Easy Listening - Electronic\ Buddha-Bar Collection I-XV\16. Buddha-Bar XVI (By Ravin) 2CD (2014)\CD1 - Charango\01.Jacob Gurevitsch - Lovers In Paris (Original Mix).wav

Pre-gap length 0:00:02.00

Peak level 99.9 %
Extraction speed 3.8 X
Track quality 100.0 %
Test CRC CDC857C5
Copy CRC CDC857C5
Accurately ripped (confidence 4) [34AB47D3] (AR v2)
Copy OK

Track 2

Filename F:\AUDIO - I\ Ambient - Chill Out - Lounge - Easy Listening - Electronic\ Buddha-Bar Collection I-XV\16. Buddha-Bar XVI (By Ravin) 2CD (2014)\CD1 - Charango\02.Soul Avenue - Tamazight.wav

Peak level 100.0 %
Extraction speed 4.2 X
Track quality 100.0 %
Test CRC 9C7D9BA3
Copy CRC 9C7D9BA3
Accurately ripped (confidence 4) [5B1398B6] (AR v2)
Copy OK

Track 3

Filename F:\AUDIO - I\ Ambient - Chill Out - Lounge - Easy Listening - Electronic\ Buddha-Bar Collection I-XV\16. Buddha-Bar XVI (By Ravin) 2CD (2014)\CD1 - Charango\03.Ambray - Who We Are.wav

Peak level 100.0 %
Extraction speed 4.5 X
Track quality 100.0 %
Test CRC 547B74BD
Copy CRC 547B74BD
Accurately ripped (confidence 4) [1497ABD4] (AR v2)
Copy OK

Track 4

Filename F:\AUDIO - I\ Ambient - Chill Out - Lounge - Easy Listening - Electronic\ Buddha-Bar Collection I-XV\16. Buddha-Bar XVI (By Ravin) 2CD (2014)\CD1 - Charango\04.Thor - Nowruz.wav

Peak level 100.0 %
Extraction speed 4.7 X
Track quality 100.0 %
Test CRC C7D2CB9B
Copy CRC C7D2CB9B
Accurately ripped (confidence 4) [A8FD080F] (AR v2)
Copy OK

Track 5

Filename F:\AUDIO - I\ Ambient - Chill Out - Lounge - Easy Listening - Electronic\ Buddha-Bar Collection I-XV\16. Buddha-Bar XVI (By Ravin) 2CD (2014)\CD1 - Charango\05.Ganga - Carry You Home (Thor & Ravin Rebirth Remix).wav

Peak level 95.4 %
Extraction speed 5.1 X
Track quality 100.0 %
Test CRC B2AE1DC4
Copy CRC B2AE1DC4
Accurately ripped (confidence 4) [243533CA] (AR v2)
Copy OK

Track 6

Filename F:\AUDIO - I\ Ambient - Chill Out - Lounge - Easy Listening - Electronic\ Buddha-Bar Collection I-XV\16. Buddha-Bar XVI (By Ravin) 2CD (2014)\CD1 - Charango\06.Max Chorny - Zaprosi U Sni.wav

Peak level 97.8 %
Extraction speed 4.5 X
Track quality 99.9 %
Test CRC 55790808
Copy CRC 55790808
Accurately ripped (confidence 4) [33F04EA2] (AR v2)
Copy OK

Track 7

Filename F:\AUDIO - I\ Ambient - Chill Out - Lounge - Easy Listening - Electronic\ Buddha-Bar Collection I-XV\16. Buddha-Bar XVI (By Ravin) 2CD (2014)\CD1 - Charango\07.Cambis & Florzinho - Aman Aman.wav

Peak level 100.0 %
Extraction speed 5.8 X
Track quality 100.0 %
Test CRC 808196BB
Copy CRC 808196BB
Accurately ripped (confidence 4) [0617442A] (AR v2)
Copy OK

Track 8

Filename F:\AUDIO - I\ Ambient - Chill Out - Lounge - Easy Listening - Electronic\ Buddha-Bar Collection I-XV\16. Buddha-Bar XVI (By Ravin) 2CD (2014)\CD1 - Charango\08.Sigh - Medina Blues.wav

Peak level 99.9 %
Extraction speed 5.9 X
Track quality 100.0 %
Test CRC A6BB92B8
Copy CRC A6BB92B8
Accurately ripped (confidence 4) [29F09B52] (AR v2)
Copy OK

Track 9

Filename F:\AUDIO - I\ Ambient - Chill Out - Lounge - Easy Listening - Electronic\ Buddha-Bar Collection I-XV\16. Buddha-Bar XVI (By Ravin) 2CD (2014)\CD1 - Charango\09.Michael E. - Promise.wav

Peak level 98.8 %
Extraction speed 6.3 X
Track quality 100.0 %
Test CRC 74E87F61
Copy CRC 74E87F61
Accurately ripped (confidence 4) [3935769B] (AR v2)
Copy OK

Track 10

Filename F:\AUDIO - I\ Ambient - Chill Out - Lounge - Easy Listening - Electronic\ Buddha-Bar Collection I-XV\16. Buddha-Bar XVI (By Ravin) 2CD (2014)\CD1 - Charango\10.Laidback - Let The Music Do The Talking.wav

Peak level 100.0 %
Extraction speed 4.9 X
Track quality 99.9 %
Test CRC 5D141032
Copy CRC 5D141032
Accurately ripped (confidence 4) [860DDC9A] (AR v2)
Copy OK

Track 11

Filename F:\AUDIO - I\ Ambient - Chill Out - Lounge - Easy Listening - Electronic\ Buddha-Bar Collection I-XV\16. Buddha-Bar XVI (By Ravin) 2CD (2014)\CD1 - Charango\11.Akshin Alizadeh - Deep Inside.wav

Peak level 98.2 %
Extraction speed 6.4 X
Track quality 100.0 %
Test CRC B031B00A
Copy CRC B031B00A
Accurately ripped (confidence 4) [6425FEF4] (AR v2)
Copy OK

Track 12

Filename F:\AUDIO - I\ Ambient - Chill Out - Lounge - Easy Listening - Electronic\ Buddha-Bar Collection I-XV\16. Buddha-Bar XVI (By Ravin) 2CD (2014)\CD1 - Charango\12.Niyaz - The Hunt (The Hunt 2013).wav

Peak level 99.8 %
Extraction speed 6.7 X
Track quality 100.0 %
Test CRC E633C894
Copy CRC E633C894
Accurately ripped (confidence 4) [A2F86DCE] (AR v2)
Copy OK

Track 13

Filename F:\AUDIO - I\ Ambient - Chill Out - Lounge - Easy Listening - Electronic\ Buddha-Bar Collection I-XV\16. Buddha-Bar XVI (By Ravin) 2CD (2014)\CD1 - Charango\13.Angel Tears - Shir.wav

Peak level 100.0 %
Extraction speed 7.3 X
Track quality 100.0 %
Test CRC 39A69EFB
Copy CRC 39A69EFB
Accurately ripped (confidence 4) [9F6FE0DF] (AR v2)
Copy OK

Track 14

Filename F:\AUDIO - I\ Ambient - Chill Out - Lounge - Easy Listening - Electronic\ Buddha-Bar Collection I-XV\16. Buddha-Bar XVI (By Ravin) 2CD (2014)\CD1 - Charango\14.Stan Kolev & Matan Caspi - Midnight Caravan.wav

Peak level 97.8 %
Extraction speed 6.6 X
Track quality 99.9 %
Test CRC 0AC03821
Copy CRC 0AC03821
Accurately ripped (confidence 4) [8A3F2A47] (AR v2)
Copy OK

Track 15

Filename F:\AUDIO - I\ Ambient - Chill Out - Lounge - Easy Listening - Electronic\ Buddha-Bar Collection I-XV\16. Buddha-Bar XVI (By Ravin) 2CD (2014)\CD1 - Charango\15.Nacho Sotomayor - Opaque (Transparent Remix).wav

Peak level 100.0 %
Extraction speed 7.6 X
Track quality 100.0 %
Test CRC D5AD32B9
Copy CRC D5AD32B9
Accurately ripped (confidence 4) [3944315F] (AR v2)
Copy OK

Track 16

Filename F:\AUDIO - I\ Ambient - Chill Out - Lounge - Easy Listening - Electronic\ Buddha-Bar Collection I-XV\16. Buddha-Bar XVI (By Ravin) 2CD (2014)\CD1 - Charango\16.Dreamers Inc & Makis Ablianitis - BABA.wav

Peak level 98.8 %
Extraction speed 8.0 X
Track quality 100.0 %
Test CRC DB585337
Copy CRC DB585337
Accurately ripped (confidence 4) [D241036B] (AR v2)
Copy OK


All tracks accurately ripped

No errors occurred

End of status report

–– CUETools DB Plugin V2.1.3

[CTDB TOCID: ZoTxuF69MiDluNbglZTmEnBnKaU-] found, Submit result: ZoTxuF69MiDluNbglZTmEnBnKaU- has been confirmed
[0ae14f65] (3/3) Accurately ripped


==== Log checksum A706F407B103FE8BA5C78976D8A04A8B5FA627713BF8E55F3FDC8B5287CEFFC9 ====
––

Exact Audio Copy V1.0 beta 3 from 29. August 2011

EAC extraction logfile from 28. August 2014, 23:13

Buddha-Bar XVI By Ravin / CD2 - Bombo

Used drive : PLEXTOR DVDR PX-891SA Adapter: 6 ID: 0

Read mode : Secure
Utilize accurate stream : Yes
Defeat audio cache : Yes
Make use of C2 pointers : No

Read offset correction : 6
Overread into Lead-In and Lead-Out : No
Fill up missing offset samples with silence : Yes
Delete leading and trailing silent blocks : No
Null samples used in CRC calculations : Yes
Used interface : Native Win32 interface for Win NT & 2000
Gap handling : Appended to previous track

Used output format : User Defined Encoder
Selected bitrate : 896 kBit/s
Quality : High
Add ID3 tag : No
Command line compressor : C:\Program Files (x86)\Exact Audio Copy\Flac\flac.exe
Additional command line options : -8 -V -T "ARTIST=%artist%" -T "TITLE=%title%" -T "ALBUM=%albumtitle%" -T "DATE=%year%" -T "TRACKNUMBER=%tracknr%" -T "GENRE=%genre%" -T "COMMENT=ripped by Oleandris" %source%


TOC of the extracted CD

Track | Start | Length | Start sector | End sector
––––––––––––––––––––––––––––-
1 | 0:00.00 | 5:25.49 | 0 | 24423
2 | 5:25.49 | 3:40.71 | 24424 | 40994
3 | 9:06.45 | 6:13.74 | 40995 | 69043
4 | 15:20.44 | 4:59.20 | 69044 | 91488
5 | 20:19.64 | 5:24.01 | 91489 | 115789
6 | 25:43.65 | 3:04.00 | 115790 | 129589
7 | 28:47.65 | 5:29.10 | 129590 | 154274
8 | 34:17.00 | 6:07.06 | 154275 | 181805
9 | 40:24.06 | 7:05.30 | 181806 | 213710
10 | 47:29.36 | 6:49.14 | 213711 | 244399
11 | 54:18.50 | 5:37.68 | 244400 | 269742
12 | 59:56.43 | 6:04.61 | 269743 | 297103
13 | 66:01.29 | 5:10.41 | 297104 | 320394
14 | 71:11.70 | 5:47.30 | 320395 | 346449


Track 1

Filename F:\AUDIO - I\ Ambient - Chill Out - Lounge - Easy Listening - Electronic\ Buddha-Bar Collection I-XV\16. Buddha-Bar XVI (By Ravin) 2CD (2014)\CD2 - Bombo\01.Yasmine Hamdan - Deny (Holmes Price Remix).wav

Pre-gap length 0:00:02.00

Peak level 99.3 %
Extraction speed 4.1 X
Track quality 100.0 %
Test CRC ADEA892F
Copy CRC ADEA892F
Accurately ripped (confidence 4) [D8A1164A] (AR v2)
Copy OK

Track 2

Filename F:\AUDIO - I\ Ambient - Chill Out - Lounge - Easy Listening - Electronic\ Buddha-Bar Collection I-XV\16. Buddha-Bar XVI (By Ravin) 2CD (2014)\CD2 - Bombo\02.Parov Stelar Trio - La Calatrava.wav

Peak level 98.3 %
Extraction speed 4.3 X
Track quality 100.0 %
Test CRC 616B99AF
Copy CRC 616B99AF
Accurately ripped (confidence 4) [1299DA33] (AR v2)
Copy OK

Track 3

Filename F:\AUDIO - I\ Ambient - Chill Out - Lounge - Easy Listening - Electronic\ Buddha-Bar Collection I-XV\16. Buddha-Bar XVI (By Ravin) 2CD (2014)\CD2 - Bombo\03.Adham Shaikhs' - Coupe Decale (Drumspyder Remix).wav

Peak level 100.0 %
Extraction speed 4.9 X
Track quality 100.0 %
Test CRC 84293D51
Copy CRC 84293D51
Accurately ripped (confidence 4) [AC859F73] (AR v2)
Copy OK

Track 4

Filename F:\AUDIO - I\ Ambient - Chill Out - Lounge - Easy Listening - Electronic\ Buddha-Bar Collection I-XV\16. Buddha-Bar XVI (By Ravin) 2CD (2014)\CD2 - Bombo\04.Mercan Dede - Hidden.wav

Peak level 100.0 %
Extraction speed 5.3 X
Track quality 100.0 %
Test CRC 3D043A8A
Copy CRC 3D043A8A
Accurately ripped (confidence 4) [001140E6] (AR v2)
Copy OK

Track 5

Filename F:\AUDIO - I\ Ambient - Chill Out - Lounge - Easy Listening - Electronic\ Buddha-Bar Collection I-XV\16. Buddha-Bar XVI (By Ravin) 2CD (2014)\CD2 - Bombo\05.Desert Dwellers - Far From Here (Drumspyder Remix).wav

Peak level 100.0 %
Extraction speed 4.8 X
Track quality 99.9 %
Test CRC 35C8A42D
Copy CRC 35C8A42D
Accurately ripped (confidence 4) [62E4C33F] (AR v2)
Copy OK

Track 6

Filename F:\AUDIO - I\ Ambient - Chill Out - Lounge - Easy Listening - Electronic\ Buddha-Bar Collection I-XV\16. Buddha-Bar XVI (By Ravin) 2CD (2014)\CD2 - Bombo\06.Hinano - Damer I Pels (Deep Vocal Club Mix).wav

Peak level 100.0 %
Extraction speed 5.5 X
Track quality 100.0 %
Test CRC FC85E3FA
Copy CRC FC85E3FA
Accurately ripped (confidence 4) [59A0CAA7] (AR v2)
Copy OK

Track 7

Filename F:\AUDIO - I\ Ambient - Chill Out - Lounge - Easy Listening - Electronic\ Buddha-Bar Collection I-XV\16. Buddha-Bar XVI (By Ravin) 2CD (2014)\CD2 - Bombo\07.Wareika - La Paloma.wav

Peak level 100.0 %
Extraction speed 6.2 X
Track quality 100.0 %
Test CRC 1CA52EAC
Copy CRC 1CA52EAC
Accurately ripped (confidence 4) [4843060D] (AR v2)
Copy OK

Track 8

Filename F:\AUDIO - I\ Ambient - Chill Out - Lounge - Easy Listening - Electronic\ Buddha-Bar Collection I-XV\16. Buddha-Bar XVI (By Ravin) 2CD (2014)\CD2 - Bombo\08.Anthony Romeno Feat. Lady Vale - Play The Guitar.wav

Peak level 100.0 %
Extraction speed 6.6 X
Track quality 100.0 %
Test CRC 17371527
Copy CRC 17371527
Accurately ripped (confidence 4) [A6DD2FCE] (AR v2)
Copy OK

Track 9

Filename F:\AUDIO - I\ Ambient - Chill Out - Lounge - Easy Listening - Electronic\ Buddha-Bar Collection I-XV\16. Buddha-Bar XVI (By Ravin) 2CD (2014)\CD2 - Bombo\09.Rebeat Feat. Shirley Bassey - If You Go Away.wav

Peak level 100.0 %
Extraction speed 7.0 X
Track quality 100.0 %
Test CRC 60D67DDB
Copy CRC 60D67DDB
Accurately ripped (confidence 4) [60CA71DF] (AR v2)
Copy OK

Track 10

Filename F:\AUDIO - I\ Ambient - Chill Out - Lounge - Easy Listening - Electronic\ Buddha-Bar Collection I-XV\16. Buddha-Bar XVI (By Ravin) 2CD (2014)\CD2 - Bombo\10.Sable Sheep - Upon Burning Skies.wav

Peak level 100.0 %
Extraction speed 7.4 X
Track quality 100.0 %
Test CRC 2E9B88A4
Copy CRC 2E9B88A4
Accurately ripped (confidence 4) [60DD5A6A] (AR v2)
Copy OK

Track 11

Filename F:\AUDIO - I\ Ambient - Chill Out - Lounge - Easy Listening - Electronic\ Buddha-Bar Collection I-XV\16. Buddha-Bar XVI (By Ravin) 2CD (2014)\CD2 - Bombo\11.Kadebostany - Walking With A Ghost (Alceen Remix).wav

Peak level 100.0 %
Extraction speed 7.6 X
Track quality 100.0 %
Test CRC B0DC35A1
Copy CRC B0DC35A1
Accurately ripped (confidence 4) [5150786F] (AR v2)
Copy OK

Track 12

Filename F:\AUDIO - I\ Ambient - Chill Out - Lounge - Easy Listening - Electronic\ Buddha-Bar Collection I-XV\16. Buddha-Bar XVI (By Ravin) 2CD (2014)\CD2 - Bombo\12.Riva Starr Feat. Carmen Consoli - No Man's Land (Original Mix).wav

Peak level 100.0 %
Extraction speed 7.9 X
Track quality 100.0 %
Test CRC 95E6FC5D
Copy CRC 95E6FC5D
Accurately ripped (confidence 4) [5DAFC204] (AR v2)
Copy OK

Track 13

Filename F:\AUDIO - I\ Ambient - Chill Out - Lounge - Easy Listening - Electronic\ Buddha-Bar Collection I-XV\16. Buddha-Bar XVI (By Ravin) 2CD (2014)\CD2 - Bombo\13.Serdar Ayyildiz - Dualis.wav

Peak level 100.0 %
Extraction speed 8.0 X
Track quality 100.0 %
Test CRC CD11049C
Copy CRC CD11049C
Accurately ripped (confidence 4) [7FB571CB] (AR v2)
Copy OK

Track 14

Filename F:\AUDIO - I\ Ambient - Chill Out - Lounge - Easy Listening - Electronic\ Buddha-Bar Collection I-XV\16. Buddha-Bar XVI (By Ravin) 2CD (2014)\CD2 - Bombo\14.Elissa - Albi Hasses Fik (Club Mix By Fadi Bitar).wav

Peak level 100.0 %
Extraction speed 8.2 X
Track quality 100.0 %
Test CRC 47159758
Copy CRC 47159758
Accurately ripped (confidence 3) [0C5D2C67] (AR v2)
Copy OK


All tracks accurately ripped

No errors occurred

End of status report

–– CUETools DB Plugin V2.1.3

[CTDB TOCID: cUNbEa16rn8BJg0PTcbGsxZHvpw-] found, Submit result: cUNbEa16rn8BJg0PTcbGsxZHvpw- has been confirmed
[06f0f5a1] (3/3) Accurately ripped


==== Log checksum 9774B234A3459D1670DC2B0C3E8CD550CB1704EE28B88B5C655A4C199BAD492C ====



[CUETools log; Date: 2017. 03. 20. 16:43:46; Version: 2.1.6]
[CTDB TOCID: ZoTxuF69MiDluNbglZTmEnBnKaU-] found.
Track | CTDB Status
1 | (31/31) Accurately ripped
2 | (30/31) Accurately ripped
3 | (31/31) Accurately ripped
4 | (31/31) Accurately ripped
5 | (31/31) Accurately ripped
6 | (31/31) Accurately ripped
7 | (31/31) Accurately ripped
8 | (31/31) Accurately ripped
9 | (30/31) Accurately ripped
10 | (31/31) Accurately ripped
11 | (31/31) Accurately ripped
12 | (31/31) Accurately ripped
13 | (31/31) Accurately ripped
14 | (31/31) Accurately ripped
15 | (31/31) Accurately ripped
16 | (31/31) Accurately ripped
[AccurateRip ID: 002a2493-01fb97c8-da11ae10] found.
Track [ CRC | V2 ] Status
01 [85449245|34ab47d3] (00+19/19) Accurately ripped
02 [26f39a5a|5b1398b6] (00+20/20) Accurately ripped
03 [08434a30|1497abd4] (00+20/20) Accurately ripped
04 [19c2629e|a8fd080f] (00+20/20) Accurately ripped
05 [36d09041|243533ca] (00+20/20) Accurately ripped
06 [7b921951|33f04ea2] (00+20/20) Accurately ripped
07 [6817c8a0|0617442a] (00+20/20) Accurately ripped
08 [f61830a0|29f09b52] (00+20/20) Accurately ripped
09 [6cf486ab|3935769b] (00+20/20) Accurately ripped
10 [dfbc3fbb|860ddc9a] (00+20/20) Accurately ripped
11 [8866b52c|6425fef4] (00+20/20) Accurately ripped
12 [f4a67854|a2f86dce] (00+20/20) Accurately ripped
13 [3103fc53|9f6fe0df] (00+20/20) Accurately ripped
14 [964a0007|8a3f2a47] (00+20/20) Accurately ripped
15 [048d50b9|3944315f] (00+20/20) Accurately ripped
16 [bd507d4c|d241036b] (00+18/18) Accurately ripped

Track Peak [ CRC32 ] [W/O NULL] [ LOG ]
– 100,0 [4C19ACA6] [89625678]
01 99,9 [CDC857C5] [A763ECC6] CRC32
02 100,0 [9C7D9BA3] [31254799] CRC32
03 100,0 [547B74BD] [DE1A727F] CRC32
04 100,0 [C7D2CB9B] [8770F763] CRC32
05 95,4 [B2AE1DC4] [5E8CA5AE] CRC32
06 97,8 [55790808] [984A39CC] CRC32
07 100,0 [808196BB] [1C84A74D] CRC32
08 99,9 [A6BB92B8] [60DDD90F] CRC32
09 98,8 [74E87F61] [44D761AA] CRC32
10 100,0 [5D141032] [5094C4CD] CRC32
11 98,2 [B031B00A] [5C4C88E4] CRC32
12 99,8 [E633C894] [5CCF5568] CRC32
13 100,0 [39A69EFB] [D6B92EAB] CRC32
14 97,8 [0AC03821] [DC747BA5] CRC32
15 100,0 [D5AD32B9] [83C9C3FE] CRC32
16 98,8 [DB585337] [2246B0D7] CRC32
––

[CUETools log; Date: 2017. 03. 20. 16:44:32; Version: 2.1.6]
[CTDB TOCID: cUNbEa16rn8BJg0PTcbGsxZHvpw-] found.
Track | CTDB Status
1 | (29/29) Accurately ripped
2 | (28/29) Accurately ripped
3 | (29/29) Accurately ripped
4 | (29/29) Accurately ripped
5 | (29/29) Accurately ripped
6 | (29/29) Accurately ripped
7 | (29/29) Accurately ripped
8 | (29/29) Accurately ripped
9 | (29/29) Accurately ripped
10 | (29/29) Accurately ripped
11 | (29/29) Accurately ripped
12 | (29/29) Accurately ripped
13 | (29/29) Accurately ripped
14 | (28/29) Accurately ripped
[AccurateRip ID: 00262290-019bc185-cb120b0e] found.
Track [ CRC | V2 ] Status
01 [a1b0c890|d8a1164a] (00+20/20) Accurately ripped
02 [96276a14|1299da33] (00+20/20) Accurately ripped
03 [737b41d1|ac859f73] (00+20/20) Accurately ripped
04 [6e0f9c3c|001140e6] (00+20/20) Accurately ripped
05 [3e9ad636|62e4c33f] (00+20/20) Accurately ripped
06 [d18c3480|59a0caa7] (00+20/20) Accurately ripped
07 [ea988251|4843060d] (00+20/20) Accurately ripped
08 [3efc98ea|a6dd2fce] (00+20/20) Accurately ripped
09 [d90e674b|60ca71df] (00+20/20) Accurately ripped
10 [42e23e2f|60dd5a6a] (00+20/20) Accurately ripped
11 [e8ff330a|5150786f] (00+20/20) Accurately ripped
12 [6a9528a0|5dafc204] (00+20/20) Accurately ripped
13 [79a7faf1|7fb571cb] (00+20/20) Accurately ripped
14 [f0aec88e|0c5d2c67] (00+18/18) Accurately ripped

Track Peak [ CRC32 ] [W/O NULL] [ LOG ]
– 100,0 [9826BF85] [132CA2A4]
01 99,3 [ADEA892F] [37D30CC4] CRC32
02 98,3 [616B99AF] [15B8E852] CRC32
03 100,0 [84293D51] [A5196EFB] CRC32
04 100,0 [3D043A8A] [6BCF5400] CRC32
05 100,0 [35C8A42D] [2812459E] CRC32
06 100,0 [FC85E3FA] [80C3EE78] CRC32
07 100,0 [1CA52EAC] [EEA7D1BF] CRC32
08 100,0 [17371527] [B04CD28E] CRC32
09 100,0 [60D67DDB] [4B114B28] CRC32
10 100,0 [2E9B88A4] [66225C57] CRC32
11 100,0 [B0DC35A1] [9306167D] CRC32
12 100,0 [95E6FC5D] [C03F1BBC] CRC32
13 100,0 [CD11049C] [D5FF7147] CRC32
14 100,0 [47159758] [F929517D] CRC32


Thx to oleandris