Subcategories

VA - Buddha-Bar XII By Ravin (2010) REPOST

Posted By: uff
VA - Buddha-Bar XII By Ravin (2010) REPOST

VA - Buddha-Bar XII By Ravin (2010)
Chillout | 2cd | EAC Rip | Flac + Cue + Log | covers
George V Records, 3214532 | rel: 2010 | 1175Mb

This 12th opus - a celebration of love “à la française” - takes you to a journey through old Paris and immerses you in the most romantic country in the world. This new release, the fruits of this romantic period, features an artwork dedicated to love and sprinkled with kitsch that will not fail to delight the golden youth worldwide.
Buddha-Bar xii opens the doors on a pink-tinted universe where dreams become reality. In this new compilation, dj Ravin extracts the essence of the Parisian charm to which he adds avant-garde and spicy elements …..
A first cd - entitled “la vie en rose” - compiles tracks imbued with sensuality including a kitsch remix of “la vie en rose”. A second cd, “pink me up”, highlights an electronic music selection skillfully orchestrated with acoustic and live ethnic sounds.

Track listing
cd1:
01. Bliss - Ouverture (3:46)
02. Goya Project - Lamento (Sunset Rework) (4:14)
03. Ambray - Maya (5:39)
04. Shaheen Sheik - Here We Go (SoulAvenue Erhu Blues Mix) (4:59)
05. Cantoma - Viusu (3:11)
06. Caravan Palace - Ended With The Night (4:43)
07. Lal Meri - Bandhan (4:24)
08. Eric Fernandez - Deliciate (3:42)
09. Bahramji & Mashti - Lovers (5:55)
10. Ida Corr Feat. Shaggy - Under The Sun (Lenny Ibizarre Remix) (4:56)
11. Sarma - Remember Me (4:42)
12. HP. Hoeger- M. Lackmaier - El Baile (4:22)
13. Ryukyu Underground - Umaku Kamade (3:55)
14. Midival Punditz - Tonic (3:58)
15. Blue Pilots Project - Air Fiction (5:13)
16. Goulasch Exotica Vs. Lushlife Project - Keleti Szi (3:41)
17. Almadrava - La Vie En Rose (Chill Out Mix) (3:53)

cd2:
01. Carlos Campos & Ravin - I Must Confess (4:38)
02. Massivan - 4 Generations (5:07)
03. Sis N' Jones Feat. Isac - Jami (3:14)
04. Inspiro & Ornella Vanoni - Perduto (Inspired Club Mix) (6:02)
05. Joey Negro Presents The Sunburst Band - Man Of War (Henrik Schwarz Remix) (6:38)
06. Gonul Yazar - Ozledigim Sevgili (4:41)
07. Chaim - Thrill You (4:42)
08. Emilio Fernandez - Let It Go (Vocal Mix) (6:40)
09. Jason Rivas - Carnivale (Original Club Mix) (5:31)
10. Mandinga - Calling Trombonika (5:28)
11. Jerome Isma-ae & Roy Stroebel - Vila Nova (5:53)
12. Tommy Vee & Mauro Ferruci With Ce Ce Rogers - Stay (Thomas Gold Vocal Mix) (5:48)
13. Mario Piu' & Jurgen Cecconi - Ueno Park 5 A.M. (Mano Piu', Alex Catalani & Claudio Maura Tokyo Tool) (4:16)
14. Matt Darey Presents Urban Astronauts - See The Sun (Aurosonic Remix) (4:39)
15. Dexi - Adela (4:39)


Exact Audio Copy V1.0 beta 1 from 15. November 2010

EAC extraction logfile from 1. October 2012, 10:32

Various / La Vie En Rose CD1

Used drive : ASUS DRW-24B3ST Adapter: 3 ID: 0

Read mode : Secure
Utilize accurate stream : Yes
Defeat audio cache : Yes
Make use of C2 pointers : No

Read offset correction : 6
Overread into Lead-In and Lead-Out : No
Fill up missing offset samples with silence : Yes
Delete leading and trailing silent blocks : No
Null samples used in CRC calculations : Yes
Used interface : Native Win32 interface for Win NT & 2000
Gap handling : Appended to previous track

Used output format : User Defined Encoder
Selected bitrate : 1024 kBit/s
Quality : High
Add ID3 tag : No
Command line compressor : C:\Program Files\Exact Audio Copy\Flac\flac.exe
Additional command line options : -8 -V -T "ARTIST=%a" -T "TITLE=%t" -T "ALBUM=%g" -T "DATE=%y" -T "TRACKNUMBER=%n" -T "GENRE=%m" -T "COMMENT=ripped by Oleandris" %s


TOC of the extracted CD

Track | Start | Length | Start sector | End sector
––––––––––––––––––––––––––––-
1 | 0:00.00 | 3:46.18 | 0 | 16967
2 | 3:46.18 | 4:14.72 | 16968 | 36089
3 | 8:01.15 | 5:39.56 | 36090 | 61570
4 | 13:40.71 | 4:59.51 | 61571 | 84046
5 | 18:40.47 | 3:11.71 | 84047 | 98442
6 | 21:52.43 | 4:43.23 | 98443 | 119690
7 | 26:35.66 | 4:24.36 | 119691 | 139526
8 | 31:00.27 | 3:42.44 | 139527 | 156220
9 | 34:42.71 | 5:55.08 | 156221 | 182853
10 | 40:38.04 | 4:56.66 | 182854 | 205119
11 | 45:34.70 | 4:42.14 | 205120 | 226283
12 | 50:17.09 | 4:22.64 | 226284 | 245997
13 | 54:39.73 | 3:55.00 | 245998 | 263622
14 | 58:34.73 | 3:58.12 | 263623 | 281484
15 | 62:33.10 | 5:13.10 | 281485 | 304969
16 | 67:46.20 | 3:41.34 | 304970 | 321578
17 | 71:27.54 | 3:53.18 | 321579 | 339071


Track 1

Filename F:\ЗАГРУЗКИ\ Buddha-Bar Collection I-XIV\12. Buddha-Bar XII By Ravin 2CD (2010)\CD1 La Vie En Rose\01. Bliss - Ouverture.wav

Pre-gap length 0:00:02.00

Peak level 96.6 %
Extraction speed 3.5 X
Track quality 100.0 %
Test CRC 68334EF8
Copy CRC 68334EF8
Accurately ripped (confidence 10) [877BEFA8]
Copy OK

Track 2

Filename F:\ЗАГРУЗКИ\ Buddha-Bar Collection I-XIV\12. Buddha-Bar XII By Ravin 2CD (2010)\CD1 La Vie En Rose\02. Goya Project - Lamento (Sunset Rework).wav

Peak level 98.8 %
Extraction speed 4.0 X
Track quality 100.0 %
Test CRC 6A7B66B9
Copy CRC 6A7B66B9
Accurately ripped (confidence 12) [54B8C87D]
Copy OK

Track 3

Filename F:\ЗАГРУЗКИ\ Buddha-Bar Collection I-XIV\12. Buddha-Bar XII By Ravin 2CD (2010)\CD1 La Vie En Rose\03. Ambray - Maya.wav

Peak level 96.5 %
Extraction speed 4.5 X
Track quality 100.0 %
Test CRC D6C3B663
Copy CRC D6C3B663
Accurately ripped (confidence 12) [C1F00D22]
Copy OK

Track 4

Filename F:\ЗАГРУЗКИ\ Buddha-Bar Collection I-XIV\12. Buddha-Bar XII By Ravin 2CD (2010)\CD1 La Vie En Rose\04. Shaheen Sheik - Here We Go (SoulAvenue Erhu Blues Mix).wav

Peak level 98.8 %
Extraction speed 4.9 X
Track quality 100.0 %
Test CRC 0D322A83
Copy CRC 0D322A83
Accurately ripped (confidence 12) [5521C76F]
Copy OK

Track 5

Filename F:\ЗАГРУЗКИ\ Buddha-Bar Collection I-XIV\12. Buddha-Bar XII By Ravin 2CD (2010)\CD1 La Vie En Rose\05. Cantoma - Viusu.wav

Peak level 87.4 %
Extraction speed 3.7 X
Track quality 99.9 %
Test CRC 82E54689
Copy CRC 82E54689
Accurately ripped (confidence 12) [F62FB58F]
Copy OK

Track 6

Filename F:\ЗАГРУЗКИ\ Buddha-Bar Collection I-XIV\12. Buddha-Bar XII By Ravin 2CD (2010)\CD1 La Vie En Rose\06. Caravan Palace - Ended With The Night.wav

Peak level 98.8 %
Extraction speed 5.4 X
Track quality 100.0 %
Test CRC DA3CAD0B
Copy CRC DA3CAD0B
Accurately ripped (confidence 12) [49AC528A]
Copy OK

Track 7

Filename F:\ЗАГРУЗКИ\ Buddha-Bar Collection I-XIV\12. Buddha-Bar XII By Ravin 2CD (2010)\CD1 La Vie En Rose\07. Lal Meri - Bandhan.wav

Peak level 79.7 %
Extraction speed 5.6 X
Track quality 100.0 %
Test CRC 082EBD53
Copy CRC 082EBD53
Accurately ripped (confidence 12) [73CAD7F8]
Copy OK

Track 8

Filename F:\ЗАГРУЗКИ\ Buddha-Bar Collection I-XIV\12. Buddha-Bar XII By Ravin 2CD (2010)\CD1 La Vie En Rose\08. Eric Fernandez - Deliciate.wav

Peak level 98.8 %
Extraction speed 5.7 X
Track quality 100.0 %
Test CRC 16CCABCF
Copy CRC 16CCABCF
Accurately ripped (confidence 12) [0477C8EA]
Copy OK

Track 9

Filename F:\ЗАГРУЗКИ\ Buddha-Bar Collection I-XIV\12. Buddha-Bar XII By Ravin 2CD (2010)\CD1 La Vie En Rose\09. Bahramji & Mashti - Lovers.wav

Peak level 86.2 %
Extraction speed 6.3 X
Track quality 100.0 %
Test CRC F4A981F0
Copy CRC F4A981F0
Accurately ripped (confidence 12) [142333BD]
Copy OK

Track 10

Filename F:\ЗАГРУЗКИ\ Buddha-Bar Collection I-XIV\12. Buddha-Bar XII By Ravin 2CD (2010)\CD1 La Vie En Rose\10. Ida Corr Feat. Shaggy - Under The Sun (Lenny Ibizarre Remix).wav

Peak level 87.3 %
Extraction speed 5.4 X
Track quality 99.9 %
Test CRC 8E1A008F
Copy CRC 8E1A008F
Accurately ripped (confidence 12) [DD90C700]
Copy OK

Track 11

Filename F:\ЗАГРУЗКИ\ Buddha-Bar Collection I-XIV\12. Buddha-Bar XII By Ravin 2CD (2010)\CD1 La Vie En Rose\11. Sarma - Remember Me.wav

Peak level 78.2 %
Extraction speed 6.7 X
Track quality 100.0 %
Test CRC 748BE7E2
Copy CRC 748BE7E2
Accurately ripped (confidence 12) [2E371CB3]
Copy OK

Track 12

Filename F:\ЗАГРУЗКИ\ Buddha-Bar Collection I-XIV\12. Buddha-Bar XII By Ravin 2CD (2010)\CD1 La Vie En Rose\12. HP. Hoeger- M. Lackmaier - El Baile.wav

Peak level 98.8 %
Extraction speed 6.8 X
Track quality 100.0 %
Test CRC A8559AE1
Copy CRC A8559AE1
Accurately ripped (confidence 12) [1278F393]
Copy OK

Track 13

Filename F:\ЗАГРУЗКИ\ Buddha-Bar Collection I-XIV\12. Buddha-Bar XII By Ravin 2CD (2010)\CD1 La Vie En Rose\13. Ryukyu Underground - Umaku Kamade.wav

Peak level 98.8 %
Extraction speed 6.9 X
Track quality 100.0 %
Test CRC 000DAED6
Copy CRC 000DAED6
Accurately ripped (confidence 12) [CBBCD54D]
Copy OK

Track 14

Filename F:\ЗАГРУЗКИ\ Buddha-Bar Collection I-XIV\12. Buddha-Bar XII By Ravin 2CD (2010)\CD1 La Vie En Rose\14. Midival Punditz - Tonic.wav

Peak level 98.8 %
Extraction speed 7.0 X
Track quality 100.0 %
Test CRC 03D1D9CD
Copy CRC 03D1D9CD
Accurately ripped (confidence 12) [0107330D]
Copy OK

Track 15

Filename F:\ЗАГРУЗКИ\ Buddha-Bar Collection I-XIV\12. Buddha-Bar XII By Ravin 2CD (2010)\CD1 La Vie En Rose\15. Blue Pilots Project - Air Fiction.wav

Peak level 98.8 %
Extraction speed 6.2 X
Track quality 99.9 %
Test CRC E17F77B9
Copy CRC E17F77B9
Accurately ripped (confidence 12) [BD2D3E15]
Copy OK

Track 16

Filename F:\ЗАГРУЗКИ\ Buddha-Bar Collection I-XIV\12. Buddha-Bar XII By Ravin 2CD (2010)\CD1 La Vie En Rose\16. Goulasch Exotica Vs. Lushlife Project - Keleti Szi.wav

Peak level 98.8 %
Extraction speed 7.4 X
Track quality 100.0 %
Test CRC 52BC7B3E
Copy CRC 52BC7B3E
Accurately ripped (confidence 12) [2837E242]
Copy OK

Track 17

Filename F:\ЗАГРУЗКИ\ Buddha-Bar Collection I-XIV\12. Buddha-Bar XII By Ravin 2CD (2010)\CD1 La Vie En Rose\17. Almadrava - La Vie En Rose (Chill Out Mix).wav

Peak level 81.3 %
Extraction speed 7.5 X
Track quality 100.0 %
Test CRC AEF1F0DE
Copy CRC AEF1F0DE
Accurately ripped (confidence 11) [7FACF6AA]
Copy OK


All tracks accurately ripped

No errors occurred

End of status report

==== Log checksum E8FBD27E49285AB8C0A191DC03C9E632BD72B05E4B8600A5A4EC49CCA9E17B07 ====
–-

Exact Audio Copy V1.0 beta 1 from 15. November 2010

EAC extraction logfile from 1. October 2012, 10:32

Various / Pink Me Up CD2

Used drive : PLEXTOR DVDR PX-L890SA Adapter: 5 ID: 0

Read mode : Secure
Utilize accurate stream : Yes
Defeat audio cache : Yes
Make use of C2 pointers : No

Read offset correction : 6
Overread into Lead-In and Lead-Out : No
Fill up missing offset samples with silence : Yes
Delete leading and trailing silent blocks : No
Null samples used in CRC calculations : Yes
Used interface : Native Win32 interface for Win NT & 2000
Gap handling : Appended to previous track

Used output format : User Defined Encoder
Selected bitrate : 1024 kBit/s
Quality : High
Add ID3 tag : No
Command line compressor : C:\Program Files\Exact Audio Copy\Flac\flac.exe
Additional command line options : -8 -V -T "ARTIST=%a" -T "TITLE=%t" -T "ALBUM=%g" -T "DATE=%y" -T "TRACKNUMBER=%n" -T "GENRE=%m" -T "COMMENT=ripped by Oleandris" %s


TOC of the extracted CD

Track | Start | Length | Start sector | End sector
––––––––––––––––––––––––––––-
1 | 0:00.00 | 4:38.56 | 0 | 20905
2 | 4:38.56 | 5:07.21 | 20906 | 43951
3 | 9:46.02 | 3:14.00 | 43952 | 58501
4 | 13:00.02 | 6:02.00 | 58502 | 85651
5 | 19:02.02 | 6:38.56 | 85652 | 115557
6 | 25:40.58 | 4:41.70 | 115558 | 136702
7 | 30:22.53 | 4:42.70 | 136703 | 157922
8 | 35:05.48 | 6:40.42 | 157923 | 187964
9 | 41:46.15 | 5:31.15 | 187965 | 212804
10 | 47:17.30 | 5:28.02 | 212805 | 237406
11 | 52:45.32 | 5:53.71 | 237407 | 263952
12 | 58:39.28 | 5:48.56 | 263953 | 290108
13 | 64:28.09 | 4:16.65 | 290109 | 309373
14 | 68:44.74 | 4:39.29 | 309374 | 330327
15 | 73:24.28 | 4:39.68 | 330328 | 351320


Track 1

Filename F:\ЗАГРУЗКИ\ Buddha-Bar Collection I-XIV\12. Buddha-Bar XII By Ravin 2CD (2010)\CD2 Pink Me Up\01. Carlos Campos & Ravin - I Must Confess.wav

Pre-gap length 0:00:02.00

Peak level 89.1 %
Extraction speed 3.8 X
Track quality 100.0 %
Test CRC 15AE2C31
Copy CRC 15AE2C31
Accurately ripped (confidence 11) [3FF6C9B4]
Copy OK

Track 2

Filename F:\ЗАГРУЗКИ\ Buddha-Bar Collection I-XIV\12. Buddha-Bar XII By Ravin 2CD (2010)\CD2 Pink Me Up\02. Massivan - 4 Generations.wav

Peak level 88.3 %
Extraction speed 4.3 X
Track quality 100.0 %
Test CRC E5227E2E
Copy CRC E5227E2E
Accurately ripped (confidence 12) [5BACFAA3]
Copy OK

Track 3

Filename F:\ЗАГРУЗКИ\ Buddha-Bar Collection I-XIV\12. Buddha-Bar XII By Ravin 2CD (2010)\CD2 Pink Me Up\03. Sis N' Jones Feat. Isac - Jami.wav

Peak level 98.8 %
Extraction speed 4.4 X
Track quality 100.0 %
Test CRC 0A4B2BF1
Copy CRC 0A4B2BF1
Accurately ripped (confidence 12) [6D5449F5]
Copy OK

Track 4

Filename F:\ЗАГРУЗКИ\ Buddha-Bar Collection I-XIV\12. Buddha-Bar XII By Ravin 2CD (2010)\CD2 Pink Me Up\04. Inspiro & Ornella Vanoni - Perduto (Inspired Club Mix).wav

Peak level 98.8 %
Extraction speed 5.1 X
Track quality 100.0 %
Test CRC 320B7C72
Copy CRC 320B7C72
Accurately ripped (confidence 11) [8379C7F0]
Copy OK

Track 5

Filename F:\ЗАГРУЗКИ\ Buddha-Bar Collection I-XIV\12. Buddha-Bar XII By Ravin 2CD (2010)\CD2 Pink Me Up\05. Joey Negro Presents The Sunburst Band - Man Of War (Henrik Schwarz Remix).wav

Peak level 98.8 %
Extraction speed 5.6 X
Track quality 100.0 %
Test CRC 949DD9EA
Copy CRC 949DD9EA
Accurately ripped (confidence 12) [DAD4AA21]
Copy OK

Track 6

Filename F:\ЗАГРУЗКИ\ Buddha-Bar Collection I-XIV\12. Buddha-Bar XII By Ravin 2CD (2010)\CD2 Pink Me Up\06. Gonul Yazar - Ozledigim Sevgili.wav

Peak level 89.1 %
Extraction speed 4.7 X
Track quality 99.9 %
Test CRC 8DFCAABE
Copy CRC 8DFCAABE
Accurately ripped (confidence 12) [FEB557E7]
Copy OK

Track 7

Filename F:\ЗАГРУЗКИ\ Buddha-Bar Collection I-XIV\12. Buddha-Bar XII By Ravin 2CD (2010)\CD2 Pink Me Up\07. Chaim - Thrill You.wav

Peak level 98.8 %
Extraction speed 4.9 X
Track quality 99.9 %
Test CRC 78820D44
Copy CRC 78820D44
Accurately ripped (confidence 12) [AC49D1EE]
Copy OK

Track 8

Filename F:\ЗАГРУЗКИ\ Buddha-Bar Collection I-XIV\12. Buddha-Bar XII By Ravin 2CD (2010)\CD2 Pink Me Up\08. Emilio Fernandez - Let It Go (Vocal Mix).wav

Peak level 98.8 %
Extraction speed 6.6 X
Track quality 100.0 %
Test CRC 75D7AE98
Copy CRC 75D7AE98
Accurately ripped (confidence 12) [9DA991B3]
Copy OK

Track 9

Filename F:\ЗАГРУЗКИ\ Buddha-Bar Collection I-XIV\12. Buddha-Bar XII By Ravin 2CD (2010)\CD2 Pink Me Up\09. Jason Rivas - Carnivàle (Original Club Mix).wav

Peak level 98.8 %
Extraction speed 6.8 X
Track quality 100.0 %
Test CRC 1D3D5CE6
Copy CRC 1D3D5CE6
Accurately ripped (confidence 12) [5B4345EC]
Copy OK

Track 10

Filename F:\ЗАГРУЗКИ\ Buddha-Bar Collection I-XIV\12. Buddha-Bar XII By Ravin 2CD (2010)\CD2 Pink Me Up\10. Mandinga - Calling Trombonika.wav

Peak level 89.1 %
Extraction speed 7.1 X
Track quality 100.0 %
Test CRC 66F6CCAC
Copy CRC 66F6CCAC
Accurately ripped (confidence 11) [B7CD5403]
Copy OK

Track 11

Filename F:\ЗАГРУЗКИ\ Buddha-Bar Collection I-XIV\12. Buddha-Bar XII By Ravin 2CD (2010)\CD2 Pink Me Up\11. Jerome Isma-ae & Roy Stroebel - Vila Nova.wav

Peak level 98.8 %
Extraction speed 7.4 X
Track quality 100.0 %
Test CRC 178FC7D5
Copy CRC 178FC7D5
Accurately ripped (confidence 12) [37B5F42D]
Copy OK

Track 12

Filename F:\ЗАГРУЗКИ\ Buddha-Bar Collection I-XIV\12. Buddha-Bar XII By Ravin 2CD (2010)\CD2 Pink Me Up\12. Tommy Vee & Mauro Ferruci With Ce Ce Rogers - Stay (Thomas Gold Vocal Mix).wav

Peak level 98.8 %
Extraction speed 7.7 X
Track quality 100.0 %
Test CRC 3B9FCCFA
Copy CRC 3B9FCCFA
Accurately ripped (confidence 12) [0DE29390]
Copy OK

Track 13

Filename F:\ЗАГРУЗКИ\ Buddha-Bar Collection I-XIV\12. Buddha-Bar XII By Ravin 2CD (2010)\CD2 Pink Me Up\13. Mario Piu' & Jurgen Cecconi - Ueno Park 5 A.M. (Mano Piu', Alex Catalani & Claudio Maura Tokyo Tool).wav

Peak level 98.8 %
Extraction speed 7.6 X
Track quality 100.0 %
Test CRC 0F294A79
Copy CRC 0F294A79
Accurately ripped (confidence 11) [8126636C]
Copy OK

Track 14

Filename F:\ЗАГРУЗКИ\ Buddha-Bar Collection I-XIV\12. Buddha-Bar XII By Ravin 2CD (2010)\CD2 Pink Me Up\14. Matt Darey Presents Urban Astronauts - See The Sun (Aurosonic Remix).wav

Peak level 98.8 %
Extraction speed 7.9 X
Track quality 100.0 %
Test CRC BD5CAFED
Copy CRC BD5CAFED
Accurately ripped (confidence 11) [6ECB8637]
Copy OK

Track 15

Filename F:\ЗАГРУЗКИ\ Buddha-Bar Collection I-XIV\12. Buddha-Bar XII By Ravin 2CD (2010)\CD2 Pink Me Up\15. Dexi - Adela.wav

Peak level 80.5 %
Extraction speed 6.4 X
Track quality 99.9 %
Test CRC D861C4FC
Copy CRC D861C4FC
Accurately ripped (confidence 11) [C2A9C888]
Copy OK


All tracks accurately ripped

No errors occurred

End of status report

==== Log checksum 1D63345474433464935D4604F5F165818467F07F11417BA235F8E1465E447D5F ====




[CUETools log; Date: 2017. 02. 28. 9:47:36; Version: 2.1.6]
[CTDB TOCID: 6HcoNv_PdZ7cVrBakPryafKE128-] found.
Track | CTDB Status
1 | (40/40) Accurately ripped
2 | (40/40) Accurately ripped
3 | (40/40) Accurately ripped
4 | (39/40) Accurately ripped
5 | (40/40) Accurately ripped
6 | (40/40) Accurately ripped
7 | (40/40) Accurately ripped
8 | (40/40) Accurately ripped
9 | (40/40) Accurately ripped
10 | (40/40) Accurately ripped
11 | (40/40) Accurately ripped
12 | (40/40) Accurately ripped
13 | (40/40) Accurately ripped
14 | (40/40) Accurately ripped
15 | (40/40) Accurately ripped
16 | (39/40) Accurately ripped
17 | (38/40) Accurately ripped
[AccurateRip ID: 002f0d17-0254edc4-f011a811] found.
Track [ CRC | V2 ] Status
01 [877befa8|e04e97a7] (20+32/54) Accurately ripped
02 [54b8c87d|e612012c] (20+34/56) Accurately ripped
03 [c1f00d22|4a15e4bf] (20+33/55) Accurately ripped
04 [5521c76f|a693d010] (20+33/55) Accurately ripped
05 [f62fb58f|37113bc8] (20+33/55) Accurately ripped
06 [49ac528a|7b1df31e] (20+33/55) Accurately ripped
07 [73cad7f8|7e4481b8] (20+33/55) Accurately ripped
08 [0477c8ea|b6a923cb] (20+33/55) Accurately ripped
09 [142333bd|e9d2bd50] (20+34/56) Accurately ripped
10 [dd90c700|89b8f500] (20+33/55) Accurately ripped
11 [2e371cb3|e22e3ee9] (20+32/54) Accurately ripped
12 [1278f393|3af2e60f] (20+32/54) Accurately ripped
13 [cbbcd54d|1aea705f] (20+33/55) Accurately ripped
14 [0107330d|e0018bac] (20+33/55) Accurately ripped
15 [bd2d3e15|3bf362c4] (20+33/55) Accurately ripped
16 [2837e242|601b69e0] (18+32/54) Accurately ripped
17 [7facf6aa|b92220b3] (20+32/54) Accurately ripped
Offsetted by -78:
01 [a3199830] (00/54) No match (V2 was not tested)
02 [6737a13e] (00/56) No match (V2 was not tested)
03 [3eb1d350] (00/55) No match (V2 was not tested)
04 [6ee5db09] (00/55) No match (V2 was not tested)
05 [2b3971b7] (00/55) No match (V2 was not tested)
06 [5e61ce5c] (00/55) No match (V2 was not tested)
07 [30b4a3d0] (00/55) No match (V2 was not tested)
08 [3dc63ee1] (00/55) No match (V2 was not tested)
09 [3b8de0ae] (00/56) No match (V2 was not tested)
10 [c933f19e] (00/55) No match (V2 was not tested)
11 [c3dddc20] (00/54) No match (V2 was not tested)
12 [c94fce13] (00/54) No match (V2 was not tested)
13 [f029ff91] (00/55) No match (V2 was not tested)
14 [d1fc4822] (00/55) No match (V2 was not tested)
15 [025badba] (00/55) No match (V2 was not tested)
16 [02ddc66b] (00/54) No match (V2 was not tested)
17 [cf229d90] (00/54) No match (V2 was not tested)

Track Peak [ CRC32 ] [W/O NULL] [ LOG ]
– 98,8 [1DEA4CBC] [717718DE]
01 96,6 [68334EF8] [9541B4CF] CRC32
02 98,8 [6A7B66B9] [CE614055] CRC32
03 96,5 [D6C3B663] [141BBCB3] CRC32
04 98,8 [0D322A83] [800F9901] CRC32
05 87,4 [82E54689] [35E14982] CRC32
06 98,8 [DA3CAD0B] [55DDE424] CRC32
07 79,7 [082EBD53] [EC33E487] CRC32
08 98,8 [16CCABCF] [893CF51F] CRC32
09 86,2 [F4A981F0] [DF3478B8] CRC32
10 87,3 [8E1A008F] [F498B742] CRC32
11 78,2 [748BE7E2] [35D8D537] CRC32
12 98,8 [A8559AE1] [E8C49950] CRC32
13 98,8 [000DAED6] [46F493F5] CRC32
14 98,8 [03D1D9CD] [95A4EEC3] CRC32
15 98,8 [E17F77B9] [F0A55691] CRC32
16 98,8 [52BC7B3E] [FB513913] CRC32
17 81,3 [AEF1F0DE] [6C669947] CRC32
–-

[CUETools log; Date: 2017. 02. 28. 9:47:59; Version: 2.1.6]
[CTDB TOCID: 4t1ufefWD1jsDf_zD7wSvriTcRU-] found.
Track | CTDB Status
1 | (40/41) Accurately ripped
2 | (41/41) Accurately ripped
3 | (41/41) Accurately ripped
4 | (41/41) Accurately ripped
5 | (41/41) Accurately ripped
6 | (41/41) Accurately ripped
7 | (41/41) Accurately ripped
8 | (41/41) Accurately ripped
9 | (40/41) Accurately ripped
10 | (40/41) Accurately ripped
11 | (40/41) Accurately ripped
12 | (40/41) Accurately ripped
13 | (40/41) Accurately ripped
14 | (39/41) Accurately ripped
15 | (38/41) Accurately ripped
[AccurateRip ID: 002ac31a-01e8b143-cf124c0f] found.
Track [ CRC | V2 ] Status
01 [3ff6c9b4|378700bc] (22+32/56) Accurately ripped
02 [5bacfaa3|248d227b] (22+33/57) Accurately ripped
03 [6d5449f5|471ae6a2] (22+33/57) Accurately ripped
04 [8379c7f0|4316f70c] (22+33/55) Accurately ripped
05 [dad4aa21|c9c4af4a] (22+34/58) Accurately ripped
06 [feb557e7|dd506b90] (22+33/57) Accurately ripped
07 [ac49d1ee|7f2a6349] (22+33/57) Accurately ripped
08 [9da991b3|a0286e43] (22+33/57) Accurately ripped
09 [5b4345ec|2ff1c3fc] (22+33/57) Accurately ripped
10 [b7cd5403|c8f8c4f4] (22+32/56) Accurately ripped
11 [37b5f42d|fcf3d42b] (20+31/55) Accurately ripped
12 [0de29390|faa0aac2] (22+32/56) Accurately ripped
13 [8126636c|98bf7dda] (22+32/56) Accurately ripped
14 [6ecb8637|721db224] (22+32/56) Accurately ripped
15 [c2a9c888|a7370094] (22+32/56) Accurately ripped
Offsetted by -60:
01 [853aec2e] (00/56) No match (V2 was not tested)
02 [5070d6a2] (00/57) No match (V2 was not tested)
03 [e4ffe8ed] (00/57) No match (V2 was not tested)
04 [c2112934] (00/55) No match (V2 was not tested)
05 [41df9dfa] (00/58) No match (V2 was not tested)
06 [24e19c96] (00/57) No match (V2 was not tested)
07 [6ff80aa5] (00/57) No match (V2 was not tested)
08 [37dcfcfd] (00/57) No match (V2 was not tested)
09 [19f667c7] (00/57) No match (V2 was not tested)
10 [5a511c28] (00/56) No match (V2 was not tested)
11 [beec4b4c] (00/55) No match (V2 was not tested)
12 [da8a9f73] (00/56) No match (V2 was not tested)
13 [4656d514] (00/56) No match (V2 was not tested)
14 [76e11e8e] (00/56) No match (V2 was not tested)
15 [8545d3ed] (00/56) No match (V2 was not tested)

Track Peak [ CRC32 ] [W/O NULL] [ LOG ]
– 98,8 [81C74368] [5A3C83B0]
01 89,1 [15AE2C31] [D1AB5AA3] CRC32
02 88,3 [E5227E2E] [9B2DF8BD] CRC32
03 98,8 [0A4B2BF1] [9E066B18] CRC32
04 98,8 [320B7C72] [FFC228A0] CRC32
05 98,8 [949DD9EA] [7E578CF8] CRC32
06 89,1 [8DFCAABE] [D6E77316] CRC32
07 98,8 [78820D44] [21503093] CRC32
08 98,8 [75D7AE98] [ACF89B72] CRC32
09 98,8 [1D3D5CE6] [1A697B5F] CRC32
10 89,1 [66F6CCAC] [4D24A81F] CRC32
11 98,8 [178FC7D5] [7B827FE7] CRC32
12 98,8 [3B9FCCFA] [F5AA5A79] CRC32
13 98,8 [0F294A79] [D8E98C8F] CRC32
14 98,8 [BD5CAFED] [8D2E93CF] CRC32
15 80,5 [D861C4FC] [FC287276] CRC32


Thx to oleandris