Subcategories

V.A. - Buddha-Bar By Sahalé And Ravin (2019)

Posted By: gribovar
V.A. - Buddha-Bar By Sahalé And Ravin (2019)

V.A. - Buddha-Bar By Sahale And Ravin (2019)
EAC Rip | FLAC (tracks+.cue+log) - 927 MB | MP3 CBR 320 kbps (LAME 3.93) - 373 MB | Covers - 83 MB
Genre: Chillout, Downtempo, House, World | RAR 3% Rec. | Label: George V Records (336802)

To finish the summer with style, Buddha-Bar signs a new compilation with Sahalé. Intense basses, hypnotizing and shamanic beats dotted with traditional Moroccan, Andean or Asian instruments… this spiced deep house seduces the new generations and invades the famous Ibiza. A booming phenomenon, a desire to live free, far from the tumult and stress imposed by the present society. The youth demands his freedom!
CD 1 Tracklist (By Sahalé):
01. Sahale - Shramana
02. Sahale - Sapana
03. Samarana - Gaya
04. Sahale - Kalong
05. Sahale - Maangalye
06. Sahale - Dhekra
07. Sahale & Wanduta - Luyana
08. Nato - Wanaco
09. Alvaro Suarez - La Pureza Esta En La Mezcla
10. Dubelu, George X & Marcelo Cura - Living In Shadows
11. Tebra - Vreme
12. Valeron - Pilar

Total time: 01:18:31

CD 2 Tracklist (By Ravin):
01. Mystic Poets - Neda Love
02. Ravin & Dj Sergee - Love & Desire (Feat Reewa Rathod)
03. Ariella - Selcuk
04. Estray & Raio - Chakya Muna
05. Wassim Younes - Sussuro
06. Nicos - Secret Love (Ravin Remix)
07. Hot Oasis - Son Of Sun
08. Roni Iron - El Beso Del Silencio
09. Jack Essek - Keephim
10. Le Mirage Du Maghreb - Yene Fikir
11. Double Touch - Evolution
12. Jose Solano - Om Namaha
13. Hamza, Hamza Rahimtula - Desertica
14. Rorschack - Marisol

Total time: 01:19:48

Exact Audio Copy V1.3 from 2. September 2016

EAC extraction logfile from 2. November 2019, 14:00

Various Artists / Buddha Bar by Ravin vs Sahale - CD1 - By Sahale

Used drive : ASUS DRW-24B3ST Adapter: 1 ID: 0

Read mode : Secure
Utilize accurate stream : Yes
Defeat audio cache : Yes
Make use of C2 pointers : No

Read offset correction : 6
Overread into Lead-In and Lead-Out : No
Fill up missing offset samples with silence : Yes
Delete leading and trailing silent blocks : No
Null samples used in CRC calculations : Yes
Used interface : Native Win32 interface for Win NT & 2000
Gap handling : Appended to previous track

Used output format : User Defined Encoder
Selected bitrate : 896 kBit/s
Quality : High
Add ID3 tag : No
Command line compressor : C:\Program Files (x86)\Exact Audio Copy\Flac\flac.exe
Additional command line options : -8 -V -T "ARTIST=%artist%" -T "TITLE=%title%" -T "ALBUM=%albumtitle%" -T "DATE=%year%" -T "TRACKNUMBER=%tracknr%" -T "GENRE=%genre%" -T "COMMENT=ripped by Oleandris" %source%


TOC of the extracted CD

Track | Start | Length | Start sector | End sector
––––––––––––––––––––––––––––-
1 | 0:00.00 | 6:19.59 | 0 | 28483
2 | 6:19.59 | 4:44.53 | 28484 | 49836
3 | 11:04.37 | 5:46.16 | 49837 | 75802
4 | 16:50.53 | 5:35.54 | 75803 | 100981
5 | 22:26.32 | 6:37.49 | 100982 | 130805
6 | 29:04.06 | 5:24.37 | 130806 | 155142
7 | 34:28.43 | 7:07.31 | 155143 | 187198
8 | 41:35.74 | 7:34.65 | 187199 | 221313
9 | 49:10.64 | 7:15.64 | 221314 | 254002
10 | 56:26.53 | 8:29.36 | 254003 | 292213
11 | 64:56.14 | 6:51.54 | 292214 | 323092
12 | 71:47.68 | 6:43.40 | 323093 | 353357


Track 1

Filename I:\AUDIO I\Ambient - Chill Out - Lounge - Downtempo - Easy Listening - Electronic (исполнители и сборники)\ Buddha-Bar By Sahale And Ravin 2CD (2019)\CD1\01. Sahale - Shramana.wav

Pre-gap length 0:00:02.00

Peak level 99.6 %
Extraction speed 2.0 X
Track quality 99.9 %
Test CRC 91C35B36
Copy CRC 91C35B36
Track not present in AccurateRip database
Copy OK

Track 2

Filename I:\AUDIO I\Ambient - Chill Out - Lounge - Downtempo - Easy Listening - Electronic (исполнители и сборники)\ Buddha-Bar By Sahale And Ravin 2CD (2019)\CD1\02. Sahale - Sapana.wav

Peak level 99.6 %
Extraction speed 2.4 X
Track quality 100.0 %
Test CRC 192F2E91
Copy CRC 192F2E91
Track not present in AccurateRip database
Copy OK

Track 3

Filename I:\AUDIO I\Ambient - Chill Out - Lounge - Downtempo - Easy Listening - Electronic (исполнители и сборники)\ Buddha-Bar By Sahale And Ravin 2CD (2019)\CD1\03. Samarana - Gaya.wav

Peak level 99.6 %
Extraction speed 2.7 X
Track quality 100.0 %
Test CRC 629CB29C
Copy CRC 629CB29C
Track not present in AccurateRip database
Copy OK

Track 4

Filename I:\AUDIO I\Ambient - Chill Out - Lounge - Downtempo - Easy Listening - Electronic (исполнители и сборники)\ Buddha-Bar By Sahale And Ravin 2CD (2019)\CD1\04. Sahale - Kalong.wav

Peak level 99.6 %
Extraction speed 2.9 X
Track quality 100.0 %
Test CRC B06750C4
Copy CRC B06750C4
Track not present in AccurateRip database
Copy OK

Track 5

Filename I:\AUDIO I\Ambient - Chill Out - Lounge - Downtempo - Easy Listening - Electronic (исполнители и сборники)\ Buddha-Bar By Sahale And Ravin 2CD (2019)\CD1\05. Sahale - Maangalye.wav

Peak level 99.6 %
Extraction speed 3.2 X
Track quality 100.0 %
Test CRC 96051D1C
Copy CRC 96051D1C
Track not present in AccurateRip database
Copy OK

Track 6

Filename I:\AUDIO I\Ambient - Chill Out - Lounge - Downtempo - Easy Listening - Electronic (исполнители и сборники)\ Buddha-Bar By Sahale And Ravin 2CD (2019)\CD1\06. Sahale - Dhekra.wav

Peak level 99.6 %
Extraction speed 3.3 X
Track quality 100.0 %
Test CRC CFF6E7F8
Copy CRC CFF6E7F8
Track not present in AccurateRip database
Copy OK

Track 7

Filename I:\AUDIO I\Ambient - Chill Out - Lounge - Downtempo - Easy Listening - Electronic (исполнители и сборники)\ Buddha-Bar By Sahale And Ravin 2CD (2019)\CD1\07. Sahale & Wanduta - Luyana.wav

Peak level 99.6 %
Extraction speed 3.6 X
Track quality 100.0 %
Test CRC B3E9AF10
Copy CRC B3E9AF10
Track not present in AccurateRip database
Copy OK

Track 8

Filename I:\AUDIO I\Ambient - Chill Out - Lounge - Downtempo - Easy Listening - Electronic (исполнители и сборники)\ Buddha-Bar By Sahale And Ravin 2CD (2019)\CD1\08. Nato - Wanaco.wav

Peak level 99.6 %
Extraction speed 3.8 X
Track quality 100.0 %
Test CRC FA42E20B
Copy CRC FA42E20B
Track not present in AccurateRip database
Copy OK

Track 9

Filename I:\AUDIO I\Ambient - Chill Out - Lounge - Downtempo - Easy Listening - Electronic (исполнители и сборники)\ Buddha-Bar By Sahale And Ravin 2CD (2019)\CD1\09. Alvaro Suarez - La Pureza Esta En La Mezcla.wav

Peak level 99.6 %
Extraction speed 4.0 X
Track quality 100.0 %
Test CRC EB41BC2E
Copy CRC EB41BC2E
Track not present in AccurateRip database
Copy OK

Track 10

Filename I:\AUDIO I\Ambient - Chill Out - Lounge - Downtempo - Easy Listening - Electronic (исполнители и сборники)\ Buddha-Bar By Sahale And Ravin 2CD (2019)\CD1\10. Dubelu, George X & Marcelo Cura - Living In Shadows.wav

Peak level 99.6 %
Extraction speed 4.3 X
Track quality 100.0 %
Test CRC 6AB014E2
Copy CRC 6AB014E2
Track not present in AccurateRip database
Copy OK

Track 11

Filename I:\AUDIO I\Ambient - Chill Out - Lounge - Downtempo - Easy Listening - Electronic (исполнители и сборники)\ Buddha-Bar By Sahale And Ravin 2CD (2019)\CD1\11. Tebra - Vreme.wav

Peak level 99.6 %
Extraction speed 4.4 X
Track quality 100.0 %
Test CRC 0D07F03D
Copy CRC 0D07F03D
Track not present in AccurateRip database
Copy OK

Track 12

Filename I:\AUDIO I\Ambient - Chill Out - Lounge - Downtempo - Easy Listening - Electronic (исполнители и сборники)\ Buddha-Bar By Sahale And Ravin 2CD (2019)\CD1\12. Valeron - Pilar.wav

Peak level 99.6 %
Extraction speed 4.6 X
Track quality 100.0 %
Test CRC 5DA5A7CA
Copy CRC 5DA5A7CA
Track not present in AccurateRip database
Copy OK


None of the tracks are present in the AccurateRip database

No errors occurred

End of status report

–– CUETools DB Plugin V2.1.6

[CTDB TOCID: cV2ANtG9ZX9S0WoDEjm0yk5boPk-] found
Submit result: cV2ANtG9ZX9S0WoDEjm0yk5boPk- has been confirmed
Track | CTDB Status
1 | (4/4) Accurately ripped
2 | (4/4) Accurately ripped
3 | (4/4) Accurately ripped
4 | (4/4) Accurately ripped
5 | (4/4) Accurately ripped
6 | (4/4) Accurately ripped
7 | (4/4) Accurately ripped
8 | (4/4) Accurately ripped
9 | (4/4) Accurately ripped
10 | (4/4) Accurately ripped
11 | (4/4) Accurately ripped
12 | (4/4) Accurately ripped


==== Log checksum 05D1BD050C3DE3AAF0109C123A30044865A26485462C5EBA4D4E9C5FCAAB8D12 ====

––––––––––––––––––––––––––––––

Exact Audio Copy V1.3 from 2. September 2016

EAC extraction logfile from 2. November 2019, 14:00

Various Artists / Buddha Bar by Ravin vs Sahale - CD1 - By Sahale

Used drive : ASUS DRW-24B3ST Adapter: 1 ID: 0

Read mode : Secure
Utilize accurate stream : Yes
Defeat audio cache : Yes
Make use of C2 pointers : No

Read offset correction : 6
Overread into Lead-In and Lead-Out : No
Fill up missing offset samples with silence : Yes
Delete leading and trailing silent blocks : No
Null samples used in CRC calculations : Yes
Used interface : Native Win32 interface for Win NT & 2000
Gap handling : Appended to previous track

Used output format : User Defined Encoder
Selected bitrate : 896 kBit/s
Quality : High
Add ID3 tag : No
Command line compressor : C:\Program Files (x86)\Exact Audio Copy\Flac\flac.exe
Additional command line options : -8 -V -T "ARTIST=%artist%" -T "TITLE=%title%" -T "ALBUM=%albumtitle%" -T "DATE=%year%" -T "TRACKNUMBER=%tracknr%" -T "GENRE=%genre%" -T "COMMENT=ripped by Oleandris" %source%


TOC of the extracted CD

Track | Start | Length | Start sector | End sector
––––––––––––––––––––––––––––-
1 | 0:00.00 | 6:19.59 | 0 | 28483
2 | 6:19.59 | 4:44.53 | 28484 | 49836
3 | 11:04.37 | 5:46.16 | 49837 | 75802
4 | 16:50.53 | 5:35.54 | 75803 | 100981
5 | 22:26.32 | 6:37.49 | 100982 | 130805
6 | 29:04.06 | 5:24.37 | 130806 | 155142
7 | 34:28.43 | 7:07.31 | 155143 | 187198
8 | 41:35.74 | 7:34.65 | 187199 | 221313
9 | 49:10.64 | 7:15.64 | 221314 | 254002
10 | 56:26.53 | 8:29.36 | 254003 | 292213
11 | 64:56.14 | 6:51.54 | 292214 | 323092
12 | 71:47.68 | 6:43.40 | 323093 | 353357


Track 1

Filename I:\AUDIO I\Ambient - Chill Out - Lounge - Downtempo - Easy Listening - Electronic (исполнители и сборники)\ Buddha-Bar By Sahale And Ravin 2CD (2019)\CD1\01. Sahale - Shramana.wav

Pre-gap length 0:00:02.00

Peak level 99.6 %
Extraction speed 2.0 X
Track quality 99.9 %
Test CRC 91C35B36
Copy CRC 91C35B36
Track not present in AccurateRip database
Copy OK

Track 2

Filename I:\AUDIO I\Ambient - Chill Out - Lounge - Downtempo - Easy Listening - Electronic (исполнители и сборники)\ Buddha-Bar By Sahale And Ravin 2CD (2019)\CD1\02. Sahale - Sapana.wav

Peak level 99.6 %
Extraction speed 2.4 X
Track quality 100.0 %
Test CRC 192F2E91
Copy CRC 192F2E91
Track not present in AccurateRip database
Copy OK

Track 3

Filename I:\AUDIO I\Ambient - Chill Out - Lounge - Downtempo - Easy Listening - Electronic (исполнители и сборники)\ Buddha-Bar By Sahale And Ravin 2CD (2019)\CD1\03. Samarana - Gaya.wav

Peak level 99.6 %
Extraction speed 2.7 X
Track quality 100.0 %
Test CRC 629CB29C
Copy CRC 629CB29C
Track not present in AccurateRip database
Copy OK

Track 4

Filename I:\AUDIO I\Ambient - Chill Out - Lounge - Downtempo - Easy Listening - Electronic (исполнители и сборники)\ Buddha-Bar By Sahale And Ravin 2CD (2019)\CD1\04. Sahale - Kalong.wav

Peak level 99.6 %
Extraction speed 2.9 X
Track quality 100.0 %
Test CRC B06750C4
Copy CRC B06750C4
Track not present in AccurateRip database
Copy OK

Track 5

Filename I:\AUDIO I\Ambient - Chill Out - Lounge - Downtempo - Easy Listening - Electronic (исполнители и сборники)\ Buddha-Bar By Sahale And Ravin 2CD (2019)\CD1\05. Sahale - Maangalye.wav

Peak level 99.6 %
Extraction speed 3.2 X
Track quality 100.0 %
Test CRC 96051D1C
Copy CRC 96051D1C
Track not present in AccurateRip database
Copy OK

Track 6

Filename I:\AUDIO I\Ambient - Chill Out - Lounge - Downtempo - Easy Listening - Electronic (исполнители и сборники)\ Buddha-Bar By Sahale And Ravin 2CD (2019)\CD1\06. Sahale - Dhekra.wav

Peak level 99.6 %
Extraction speed 3.3 X
Track quality 100.0 %
Test CRC CFF6E7F8
Copy CRC CFF6E7F8
Track not present in AccurateRip database
Copy OK

Track 7

Filename I:\AUDIO I\Ambient - Chill Out - Lounge - Downtempo - Easy Listening - Electronic (исполнители и сборники)\ Buddha-Bar By Sahale And Ravin 2CD (2019)\CD1\07. Sahale & Wanduta - Luyana.wav

Peak level 99.6 %
Extraction speed 3.6 X
Track quality 100.0 %
Test CRC B3E9AF10
Copy CRC B3E9AF10
Track not present in AccurateRip database
Copy OK

Track 8

Filename I:\AUDIO I\Ambient - Chill Out - Lounge - Downtempo - Easy Listening - Electronic (исполнители и сборники)\ Buddha-Bar By Sahale And Ravin 2CD (2019)\CD1\08. Nato - Wanaco.wav

Peak level 99.6 %
Extraction speed 3.8 X
Track quality 100.0 %
Test CRC FA42E20B
Copy CRC FA42E20B
Track not present in AccurateRip database
Copy OK

Track 9

Filename I:\AUDIO I\Ambient - Chill Out - Lounge - Downtempo - Easy Listening - Electronic (исполнители и сборники)\ Buddha-Bar By Sahale And Ravin 2CD (2019)\CD1\09. Alvaro Suarez - La Pureza Esta En La Mezcla.wav

Peak level 99.6 %
Extraction speed 4.0 X
Track quality 100.0 %
Test CRC EB41BC2E
Copy CRC EB41BC2E
Track not present in AccurateRip database
Copy OK

Track 10

Filename I:\AUDIO I\Ambient - Chill Out - Lounge - Downtempo - Easy Listening - Electronic (исполнители и сборники)\ Buddha-Bar By Sahale And Ravin 2CD (2019)\CD1\10. Dubelu, George X & Marcelo Cura - Living In Shadows.wav

Peak level 99.6 %
Extraction speed 4.3 X
Track quality 100.0 %
Test CRC 6AB014E2
Copy CRC 6AB014E2
Track not present in AccurateRip database
Copy OK

Track 11

Filename I:\AUDIO I\Ambient - Chill Out - Lounge - Downtempo - Easy Listening - Electronic (исполнители и сборники)\ Buddha-Bar By Sahale And Ravin 2CD (2019)\CD1\11. Tebra - Vreme.wav

Peak level 99.6 %
Extraction speed 4.4 X
Track quality 100.0 %
Test CRC 0D07F03D
Copy CRC 0D07F03D
Track not present in AccurateRip database
Copy OK

Track 12

Filename I:\AUDIO I\Ambient - Chill Out - Lounge - Downtempo - Easy Listening - Electronic (исполнители и сборники)\ Buddha-Bar By Sahale And Ravin 2CD (2019)\CD1\12. Valeron - Pilar.wav

Peak level 99.6 %
Extraction speed 4.6 X
Track quality 100.0 %
Test CRC 5DA5A7CA
Copy CRC 5DA5A7CA
Track not present in AccurateRip database
Copy OK


None of the tracks are present in the AccurateRip database

No errors occurred

End of status report

–– CUETools DB Plugin V2.1.6

[CTDB TOCID: cV2ANtG9ZX9S0WoDEjm0yk5boPk-] found
Submit result: cV2ANtG9ZX9S0WoDEjm0yk5boPk- has been confirmed
Track | CTDB Status
1 | (4/4) Accurately ripped
2 | (4/4) Accurately ripped
3 | (4/4) Accurately ripped
4 | (4/4) Accurately ripped
5 | (4/4) Accurately ripped
6 | (4/4) Accurately ripped
7 | (4/4) Accurately ripped
8 | (4/4) Accurately ripped
9 | (4/4) Accurately ripped
10 | (4/4) Accurately ripped
11 | (4/4) Accurately ripped
12 | (4/4) Accurately ripped


==== Log checksum 05D1BD050C3DE3AAF0109C123A30044865A26485462C5EBA4D4E9C5FCAAB8D12 ====

[CUETools log; Date: 05.11.2019 18:29:54; Version: 2.1.4]
[CTDB TOCID: cV2ANtG9ZX9S0WoDEjm0yk5boPk-] found.
Track | CTDB Status
1 | (5/5) Accurately ripped
2 | (5/5) Accurately ripped
3 | (5/5) Accurately ripped
4 | (5/5) Accurately ripped
5 | (5/5) Accurately ripped
6 | (5/5) Accurately ripped
7 | (5/5) Accurately ripped
8 | (5/5) Accurately ripped
9 | (5/5) Accurately ripped
10 | (5/5) Accurately ripped
11 | (5/5) Accurately ripped
12 | (5/5) Accurately ripped
[AccurateRip ID: 0021254c-013a54cb-b912670c] disk not present in database.

Track Peak [ CRC32 ] [W/O NULL] [ LOG ]
– 99,6 [409CF7B1] [06CEEBB6]
01 99,6 [91C35B36] [265ABE01] CRC32
02 99,6 [192F2E91] [B1F426A9] CRC32
03 99,6 [629CB29C] [5A39323E] CRC32
04 99,6 [B06750C4] [A95FE9C8] CRC32
05 99,6 [96051D1C] [2E96E425] CRC32
06 99,6 [CFF6E7F8] [03B07ED4] CRC32
07 99,6 [B3E9AF10] [72D6ED4B] CRC32
08 99,6 [FA42E20B] [AF9D7930] CRC32
09 99,6 [EB41BC2E] [51CD87AD] CRC32
10 99,6 [6AB014E2] [33B07059] CRC32
11 99,6 [0D07F03D] [09385371] CRC32
12 99,6 [5DA5A7CA] [6641AA3B] CRC32

Exact Audio Copy V1.3 from 2. September 2016

EAC extraction logfile from 2. November 2019, 13:59

Various Artist / Buddha Bar by Sahale & Ravin - CD2 - By Ravin

Used drive : PLEXTOR DVDR PX-891SA Adapter: 1 ID: 1

Read mode : Secure
Utilize accurate stream : Yes
Defeat audio cache : Yes
Make use of C2 pointers : No

Read offset correction : 6
Overread into Lead-In and Lead-Out : No
Fill up missing offset samples with silence : Yes
Delete leading and trailing silent blocks : No
Null samples used in CRC calculations : Yes
Used interface : Native Win32 interface for Win NT & 2000
Gap handling : Appended to previous track

Used output format : User Defined Encoder
Selected bitrate : 896 kBit/s
Quality : High
Add ID3 tag : No
Command line compressor : C:\Program Files (x86)\Exact Audio Copy\Flac\flac.exe
Additional command line options : -8 -V -T "ARTIST=%artist%" -T "TITLE=%title%" -T "ALBUM=%albumtitle%" -T "DATE=%year%" -T "TRACKNUMBER=%tracknr%" -T "GENRE=%genre%" -T "COMMENT=ripped by Oleandris" %source%


TOC of the extracted CD

Track | Start | Length | Start sector | End sector
––––––––––––––––––––––––––––-
1 | 0:00.00 | 6:52.51 | 0 | 30950
2 | 6:52.51 | 5:52.42 | 30951 | 57392
3 | 12:45.18 | 6:58.63 | 57393 | 88805
4 | 19:44.06 | 5:07.04 | 88806 | 111834
5 | 24:51.10 | 7:23.72 | 111835 | 145131
6 | 32:15.07 | 4:54.33 | 145132 | 167214
7 | 37:09.40 | 4:54.02 | 167215 | 189266
8 | 42:03.42 | 6:02.11 | 189267 | 216427
9 | 48:05.53 | 5:47.11 | 216428 | 242463
10 | 53:52.64 | 6:08.45 | 242464 | 270108
11 | 60:01.34 | 5:22.33 | 270109 | 294291
12 | 65:23.67 | 4:59.66 | 294292 | 316782
13 | 70:23.58 | 3:18.23 | 316783 | 331655
14 | 73:42.06 | 6:06.02 | 331656 | 359107


Track 1

Filename I:\AUDIO I\Ambient - Chill Out - Lounge - Downtempo - Easy Listening - Electronic (исполнители и сборники)\ Buddha-Bar By Sahale And Ravin 2CD (2019)\CD2\01. Mystic Poets - Neda Love.wav

Pre-gap length 0:00:02.00

Peak level 92.8 %
Extraction speed 5.7 X
Track quality 99.9 %
Test CRC 623564CE
Copy CRC 623564CE
Track not present in AccurateRip database
Copy OK

Track 2

Filename I:\AUDIO I\Ambient - Chill Out - Lounge - Downtempo - Easy Listening - Electronic (исполнители и сборники)\ Buddha-Bar By Sahale And Ravin 2CD (2019)\CD2\02. Ravin & Dj Sergee - Love & Desire (Feat Reewa Rathod).wav

Peak level 100.0 %
Extraction speed 6.2 X
Track quality 99.9 %
Test CRC 5C31AF1D
Copy CRC 5C31AF1D
Track not present in AccurateRip database
Copy OK

Track 3

Filename I:\AUDIO I\Ambient - Chill Out - Lounge - Downtempo - Easy Listening - Electronic (исполнители и сборники)\ Buddha-Bar By Sahale And Ravin 2CD (2019)\CD2\03. Ariella - Selcuk.wav

Peak level 100.0 %
Extraction speed 7.8 X
Track quality 100.0 %
Test CRC 419DEBA7
Copy CRC 419DEBA7
Track not present in AccurateRip database
Copy OK

Track 4

Filename I:\AUDIO I\Ambient - Chill Out - Lounge - Downtempo - Easy Listening - Electronic (исполнители и сборники)\ Buddha-Bar By Sahale And Ravin 2CD (2019)\CD2\04. Estray & Raio - Chakya Muna.wav

Peak level 100.0 %
Extraction speed 7.1 X
Track quality 99.9 %
Test CRC B5D501A6
Copy CRC B5D501A6
Track not present in AccurateRip database
Copy OK

Track 5

Filename I:\AUDIO I\Ambient - Chill Out - Lounge - Downtempo - Easy Listening - Electronic (исполнители и сборники)\ Buddha-Bar By Sahale And Ravin 2CD (2019)\CD2\05. Wassim Younes - Sussuro.wav

Peak level 100.0 %
Extraction speed 9.2 X
Track quality 100.0 %
Test CRC 220EC27E
Copy CRC 220EC27E
Track not present in AccurateRip database
Copy OK

Track 6

Filename I:\AUDIO I\Ambient - Chill Out - Lounge - Downtempo - Easy Listening - Electronic (исполнители и сборники)\ Buddha-Bar By Sahale And Ravin 2CD (2019)\CD2\06. Nicos - Secret Love (Ravin Remix).wav

Peak level 100.0 %
Extraction speed 7.9 X
Track quality 99.9 %
Test CRC 13D2A4FD
Copy CRC 13D2A4FD
Track not present in AccurateRip database
Copy OK

Track 7

Filename I:\AUDIO I\Ambient - Chill Out - Lounge - Downtempo - Easy Listening - Electronic (исполнители и сборники)\ Buddha-Bar By Sahale And Ravin 2CD (2019)\CD2\07. Hot Oasis - Son Of Sun.wav

Peak level 100.0 %
Extraction speed 9.7 X
Track quality 100.0 %
Test CRC CDE7E7DD
Copy CRC CDE7E7DD
Track not present in AccurateRip database
Copy OK

Track 8

Filename I:\AUDIO I\Ambient - Chill Out - Lounge - Downtempo - Easy Listening - Electronic (исполнители и сборники)\ Buddha-Bar By Sahale And Ravin 2CD (2019)\CD2\08. Roni Iron - El Beso Del Silencio.wav

Peak level 100.0 %
Extraction speed 10.3 X
Track quality 100.0 %
Test CRC 35A58D07
Copy CRC 35A58D07
Track not present in AccurateRip database
Copy OK

Track 9

Filename I:\AUDIO I\Ambient - Chill Out - Lounge - Downtempo - Easy Listening - Electronic (исполнители и сборники)\ Buddha-Bar By Sahale And Ravin 2CD (2019)\CD2\09. Jack Essek - Keephim.wav

Peak level 100.0 %
Extraction speed 10.7 X
Track quality 100.0 %
Test CRC 99F5750A
Copy CRC 99F5750A
Track not present in AccurateRip database
Copy OK

Track 10

Filename I:\AUDIO I\Ambient - Chill Out - Lounge - Downtempo - Easy Listening - Electronic (исполнители и сборники)\ Buddha-Bar By Sahale And Ravin 2CD (2019)\CD2\10. Le Mirage Du Maghreb - Yene Fikir.wav

Peak level 100.0 %
Extraction speed 11.2 X
Track quality 100.0 %
Test CRC 7F8B24E5
Copy CRC 7F8B24E5
Track not present in AccurateRip database
Copy OK

Track 11

Filename I:\AUDIO I\Ambient - Chill Out - Lounge - Downtempo - Easy Listening - Electronic (исполнители и сборники)\ Buddha-Bar By Sahale And Ravin 2CD (2019)\CD2\11. Double Touch - Evolution.wav

Peak level 96.7 %
Extraction speed 11.4 X
Track quality 100.0 %
Test CRC 8F9F9A41
Copy CRC 8F9F9A41
Track not present in AccurateRip database
Copy OK

Track 12

Filename I:\AUDIO I\Ambient - Chill Out - Lounge - Downtempo - Easy Listening - Electronic (исполнители и сборники)\ Buddha-Bar By Sahale And Ravin 2CD (2019)\CD2\12. Jose Solano - Om Namaha.wav

Peak level 100.0 %
Extraction speed 11.6 X
Track quality 100.0 %
Test CRC DC02A36A
Copy CRC DC02A36A
Track not present in AccurateRip database
Copy OK

Track 13

Filename I:\AUDIO I\Ambient - Chill Out - Lounge - Downtempo - Easy Listening - Electronic (исполнители и сборники)\ Buddha-Bar By Sahale And Ravin 2CD (2019)\CD2\13. Hamza, Hamza Rahimtula - Desertica.wav

Peak level 100.0 %
Extraction speed 11.3 X
Track quality 100.0 %
Test CRC 85ABB933
Copy CRC 85ABB933
Track not present in AccurateRip database
Copy OK

Track 14

Filename I:\AUDIO I\Ambient - Chill Out - Lounge - Downtempo - Easy Listening - Electronic (исполнители и сборники)\ Buddha-Bar By Sahale And Ravin 2CD (2019)\CD2\14. Rorschack - Marisol.wav

Peak level 100.0 %
Extraction speed 12.3 X
Track quality 100.0 %
Test CRC 2F4BBDE5
Copy CRC 2F4BBDE5
Track not present in AccurateRip database
Copy OK


None of the tracks are present in the AccurateRip database

No errors occurred

End of status report

–– CUETools DB Plugin V2.1.6

[CTDB TOCID: TfcnqG.PYwKIwcKTZ5dtlgz_Cuw-] found
Submit result: TfcnqG.PYwKIwcKTZ5dtlgz_Cuw- has been submitted
Track | CTDB Status
1 | (3/3) Accurately ripped
2 | (3/3) Accurately ripped
3 | (3/3) Accurately ripped
4 | (3/3) Accurately ripped
5 | (3/3) Accurately ripped
6 | (3/3) Accurately ripped
7 | (3/3) Accurately ripped
8 | (3/3) Accurately ripped
9 | (3/3) Accurately ripped
10 | (3/3) Differs in 60 samples @03:44:65-03:44:66
11 | (3/3) Accurately ripped
12 | (3/3) Accurately ripped
13 | (3/3) Differs in 60 samples @01:05:34-01:05:35
14 | (3/3) Accurately ripped
If you are sure that your rip contains errors, you can use CUETools to repair it.


==== Log checksum F9CDB50646BC7AD5D88F361BC38DE1A6A66A240C56B88E202FE15CCA6B57FE64 ====

––––––––––––––––––––––––––––––

Exact Audio Copy V1.3 from 2. September 2016

EAC extraction logfile from 2. November 2019, 13:59

Various Artist / Buddha Bar by Sahale & Ravin - CD2 - By Ravin

Used drive : PLEXTOR DVDR PX-891SA Adapter: 1 ID: 1

Read mode : Secure
Utilize accurate stream : Yes
Defeat audio cache : Yes
Make use of C2 pointers : No

Read offset correction : 6
Overread into Lead-In and Lead-Out : No
Fill up missing offset samples with silence : Yes
Delete leading and trailing silent blocks : No
Null samples used in CRC calculations : Yes
Used interface : Native Win32 interface for Win NT & 2000
Gap handling : Appended to previous track

Used output format : User Defined Encoder
Selected bitrate : 896 kBit/s
Quality : High
Add ID3 tag : No
Command line compressor : C:\Program Files (x86)\Exact Audio Copy\Flac\flac.exe
Additional command line options : -8 -V -T "ARTIST=%artist%" -T "TITLE=%title%" -T "ALBUM=%albumtitle%" -T "DATE=%year%" -T "TRACKNUMBER=%tracknr%" -T "GENRE=%genre%" -T "COMMENT=ripped by Oleandris" %source%


TOC of the extracted CD

Track | Start | Length | Start sector | End sector
––––––––––––––––––––––––––––-
1 | 0:00.00 | 6:52.51 | 0 | 30950
2 | 6:52.51 | 5:52.42 | 30951 | 57392
3 | 12:45.18 | 6:58.63 | 57393 | 88805
4 | 19:44.06 | 5:07.04 | 88806 | 111834
5 | 24:51.10 | 7:23.72 | 111835 | 145131
6 | 32:15.07 | 4:54.33 | 145132 | 167214
7 | 37:09.40 | 4:54.02 | 167215 | 189266
8 | 42:03.42 | 6:02.11 | 189267 | 216427
9 | 48:05.53 | 5:47.11 | 216428 | 242463
10 | 53:52.64 | 6:08.45 | 242464 | 270108
11 | 60:01.34 | 5:22.33 | 270109 | 294291
12 | 65:23.67 | 4:59.66 | 294292 | 316782
13 | 70:23.58 | 3:18.23 | 316783 | 331655
14 | 73:42.06 | 6:06.02 | 331656 | 359107


Track 1

Filename I:\AUDIO I\Ambient - Chill Out - Lounge - Downtempo - Easy Listening - Electronic (исполнители и сборники)\ Buddha-Bar By Sahale And Ravin 2CD (2019)\CD2\01. Mystic Poets - Neda Love.wav

Pre-gap length 0:00:02.00

Peak level 92.8 %
Extraction speed 5.7 X
Track quality 99.9 %
Test CRC 623564CE
Copy CRC 623564CE
Track not present in AccurateRip database
Copy OK

Track 2

Filename I:\AUDIO I\Ambient - Chill Out - Lounge - Downtempo - Easy Listening - Electronic (исполнители и сборники)\ Buddha-Bar By Sahale And Ravin 2CD (2019)\CD2\02. Ravin & Dj Sergee - Love & Desire (Feat Reewa Rathod).wav

Peak level 100.0 %
Extraction speed 6.2 X
Track quality 99.9 %
Test CRC 5C31AF1D
Copy CRC 5C31AF1D
Track not present in AccurateRip database
Copy OK

Track 3

Filename I:\AUDIO I\Ambient - Chill Out - Lounge - Downtempo - Easy Listening - Electronic (исполнители и сборники)\ Buddha-Bar By Sahale And Ravin 2CD (2019)\CD2\03. Ariella - Selcuk.wav

Peak level 100.0 %
Extraction speed 7.8 X
Track quality 100.0 %
Test CRC 419DEBA7
Copy CRC 419DEBA7
Track not present in AccurateRip database
Copy OK

Track 4

Filename I:\AUDIO I\Ambient - Chill Out - Lounge - Downtempo - Easy Listening - Electronic (исполнители и сборники)\ Buddha-Bar By Sahale And Ravin 2CD (2019)\CD2\04. Estray & Raio - Chakya Muna.wav

Peak level 100.0 %
Extraction speed 7.1 X
Track quality 99.9 %
Test CRC B5D501A6
Copy CRC B5D501A6
Track not present in AccurateRip database
Copy OK

Track 5

Filename I:\AUDIO I\Ambient - Chill Out - Lounge - Downtempo - Easy Listening - Electronic (исполнители и сборники)\ Buddha-Bar By Sahale And Ravin 2CD (2019)\CD2\05. Wassim Younes - Sussuro.wav

Peak level 100.0 %
Extraction speed 9.2 X
Track quality 100.0 %
Test CRC 220EC27E
Copy CRC 220EC27E
Track not present in AccurateRip database
Copy OK

Track 6

Filename I:\AUDIO I\Ambient - Chill Out - Lounge - Downtempo - Easy Listening - Electronic (исполнители и сборники)\ Buddha-Bar By Sahale And Ravin 2CD (2019)\CD2\06. Nicos - Secret Love (Ravin Remix).wav

Peak level 100.0 %
Extraction speed 7.9 X
Track quality 99.9 %
Test CRC 13D2A4FD
Copy CRC 13D2A4FD
Track not present in AccurateRip database
Copy OK

Track 7

Filename I:\AUDIO I\Ambient - Chill Out - Lounge - Downtempo - Easy Listening - Electronic (исполнители и сборники)\ Buddha-Bar By Sahale And Ravin 2CD (2019)\CD2\07. Hot Oasis - Son Of Sun.wav

Peak level 100.0 %
Extraction speed 9.7 X
Track quality 100.0 %
Test CRC CDE7E7DD
Copy CRC CDE7E7DD
Track not present in AccurateRip database
Copy OK

Track 8

Filename I:\AUDIO I\Ambient - Chill Out - Lounge - Downtempo - Easy Listening - Electronic (исполнители и сборники)\ Buddha-Bar By Sahale And Ravin 2CD (2019)\CD2\08. Roni Iron - El Beso Del Silencio.wav

Peak level 100.0 %
Extraction speed 10.3 X
Track quality 100.0 %
Test CRC 35A58D07
Copy CRC 35A58D07
Track not present in AccurateRip database
Copy OK

Track 9

Filename I:\AUDIO I\Ambient - Chill Out - Lounge - Downtempo - Easy Listening - Electronic (исполнители и сборники)\ Buddha-Bar By Sahale And Ravin 2CD (2019)\CD2\09. Jack Essek - Keephim.wav

Peak level 100.0 %
Extraction speed 10.7 X
Track quality 100.0 %
Test CRC 99F5750A
Copy CRC 99F5750A
Track not present in AccurateRip database
Copy OK

Track 10

Filename I:\AUDIO I\Ambient - Chill Out - Lounge - Downtempo - Easy Listening - Electronic (исполнители и сборники)\ Buddha-Bar By Sahale And Ravin 2CD (2019)\CD2\10. Le Mirage Du Maghreb - Yene Fikir.wav

Peak level 100.0 %
Extraction speed 11.2 X
Track quality 100.0 %
Test CRC 7F8B24E5
Copy CRC 7F8B24E5
Track not present in AccurateRip database
Copy OK

Track 11

Filename I:\AUDIO I\Ambient - Chill Out - Lounge - Downtempo - Easy Listening - Electronic (исполнители и сборники)\ Buddha-Bar By Sahale And Ravin 2CD (2019)\CD2\11. Double Touch - Evolution.wav

Peak level 96.7 %
Extraction speed 11.4 X
Track quality 100.0 %
Test CRC 8F9F9A41
Copy CRC 8F9F9A41
Track not present in AccurateRip database
Copy OK

Track 12

Filename I:\AUDIO I\Ambient - Chill Out - Lounge - Downtempo - Easy Listening - Electronic (исполнители и сборники)\ Buddha-Bar By Sahale And Ravin 2CD (2019)\CD2\12. Jose Solano - Om Namaha.wav

Peak level 100.0 %
Extraction speed 11.6 X
Track quality 100.0 %
Test CRC DC02A36A
Copy CRC DC02A36A
Track not present in AccurateRip database
Copy OK

Track 13

Filename I:\AUDIO I\Ambient - Chill Out - Lounge - Downtempo - Easy Listening - Electronic (исполнители и сборники)\ Buddha-Bar By Sahale And Ravin 2CD (2019)\CD2\13. Hamza, Hamza Rahimtula - Desertica.wav

Peak level 100.0 %
Extraction speed 11.3 X
Track quality 100.0 %
Test CRC 85ABB933
Copy CRC 85ABB933
Track not present in AccurateRip database
Copy OK

Track 14

Filename I:\AUDIO I\Ambient - Chill Out - Lounge - Downtempo - Easy Listening - Electronic (исполнители и сборники)\ Buddha-Bar By Sahale And Ravin 2CD (2019)\CD2\14. Rorschack - Marisol.wav

Peak level 100.0 %
Extraction speed 12.3 X
Track quality 100.0 %
Test CRC 2F4BBDE5
Copy CRC 2F4BBDE5
Track not present in AccurateRip database
Copy OK


None of the tracks are present in the AccurateRip database

No errors occurred

End of status report

–– CUETools DB Plugin V2.1.6

[CTDB TOCID: TfcnqG.PYwKIwcKTZ5dtlgz_Cuw-] found
Submit result: TfcnqG.PYwKIwcKTZ5dtlgz_Cuw- has been submitted
Track | CTDB Status
1 | (3/3) Accurately ripped
2 | (3/3) Accurately ripped
3 | (3/3) Accurately ripped
4 | (3/3) Accurately ripped
5 | (3/3) Accurately ripped
6 | (3/3) Accurately ripped
7 | (3/3) Accurately ripped
8 | (3/3) Accurately ripped
9 | (3/3) Accurately ripped
10 | (3/3) Differs in 60 samples @03:44:65-03:44:66
11 | (3/3) Accurately ripped
12 | (3/3) Accurately ripped
13 | (3/3) Differs in 60 samples @01:05:34-01:05:35
14 | (3/3) Accurately ripped
If you are sure that your rip contains errors, you can use CUETools to repair it.


==== Log checksum F9CDB50646BC7AD5D88F361BC38DE1A6A66A240C56B88E202FE15CCA6B57FE64 ====

[CUETools log; Date: 05.11.2019 18:30:24; Version: 2.1.4]
[CTDB TOCID: TfcnqG.PYwKIwcKTZ5dtlgz_Cuw-] found.
Track | CTDB Status
1 | (4/4) Accurately ripped
2 | (4/4) Accurately ripped
3 | (4/4) Accurately ripped
4 | (4/4) Accurately ripped
5 | (4/4) Accurately ripped
6 | (4/4) Accurately ripped
7 | (4/4) Accurately ripped
8 | (4/4) Accurately ripped
9 | (4/4) Accurately ripped
10 | (1/4) Accurately ripped, or (3/4) differs in 60 samples @03:44:65-03:44:66
11 | (4/4) Accurately ripped
12 | (4/4) Accurately ripped
13 | (1/4) Accurately ripped, or (3/4) differs in 60 samples @01:05:34-01:05:35
14 | (4/4) Accurately ripped
[AccurateRip ID: 002b0d3f-01c59974-c912b40e] disk not present in database.

Track Peak [ CRC32 ] [W/O NULL] [ LOG ]
– 100,0 [2CC2E2BF] [868C5ECE]
01 92,8 [623564CE] [F657C5B6] CRC32
02 100,0 [5C31AF1D] [2871AE04] CRC32
03 100,0 [419DEBA7] [374AC710] CRC32
04 100,0 [B5D501A6] [126000D6] CRC32
05 100,0 [220EC27E] [C715BA85] CRC32
06 100,0 [13D2A4FD] [25638C3D] CRC32
07 100,0 [CDE7E7DD] [282121F1] CRC32
08 100,0 [35A58D07] [4CF38ABC] CRC32
09 100,0 [99F5750A] [B36F6361] CRC32
10 100,0 [7F8B24E5] [D94FEB3F] CRC32
11 96,7 [8F9F9A41] [A0F39389] CRC32
12 100,0 [DC02A36A] [0871B5E5] CRC32
13 100,0 [85ABB933] [D9AD5D72] CRC32
14 100,0 [2F4BBDE5] [0B926E55] CRC32

Thanks to Oleandris

See also:
Buddha-Bar