Subcategories

VA - Burning Sky: A Virtuoso Guitar Tribute to Jimi Hendrix (2005)

Posted By: jclane
VA - Burning Sky: A Virtuoso Guitar Tribute to Jimi Hendrix (2005)

VA - Burning Sky: A Virtuoso Guitar Tribute to Jimi Hendrix (2005)
EAC Rip | FLAC Image + Cue + Log | 548 MB | Complete Scans | 19 MB
MP3 CBR @320 kbps (LAME 3.99) | Joint Stereo | 179 MB
Lion Music Records | Rock, Hard Rock, Blues Rock

Burning Sky: A virtuoso guitar tribute to Jimi Hendrix album was released on 2005 on the Lion Music label.
Track Listing:

01. Freedom - Carl Roa - 04:03
02. Little Miss Lover - Chris Poland - 03:12
03. Stone Free - Cyril Achard - 04:08
04. Red House - Edward Box - 03:54
05. Cross Town Traffic - Eric Sands - 03:19
06. Bold As Love - Joop Wolters of Arabesque - 04:47
07. 3Rd Stone From The Sun - Michael Harris - 05:09
08. Little Wing - Mistheria - 06:20
09. Purple Haze - Randy Coven - 03:29
10. Fire - Sun Caged - 04:09
11. Gypsy Eyes - Lars Eric Mattsson - 05:39
12. Who Knows - Dave Martone - 06:08
13. Foxy Lady - Tony Hermando - 04:37
14. Highway Chile - James Byrd - 03:03
15. Villanova Junction - Torben Enevoldsen - 03:36
16. Spanish Castle Mgic - Winterlong - 03:29
17. Angel - Richie Kotzen - 03:48
18. Star Spangled Banner - Eric Sands - 02:59


Exact Audio Copy V0.99 prebeta 4 from 23. January 2008

Отчёт EAC об извлечении, выполненном 3. февраля 2013, 6:32

Various / Burning Sky

Дисковод: ASUS DRW-1814BL Adapter: 1 ID: 0

Режим чтения : Достоверность
Использование точного потока : Да
Отключение кэша аудио : Да
Использование указателей C2 : Нет

Коррекция смещения при чтении : 6
Способность читать области Lead-in и Lead-out : Нет
Заполнение пропущенных сэмплов тишиной : Да
Удаление блоков с тишиной в начале и конце : Нет
При вычислениях CRC использовались нулевые сэмплы : Да
Интерфейс : Установленный внешний ASPI-интерфейс

Выходной формат : Пользовательский кодировщик
Выбранный битрейт : 1024 kBit/s
Качество : Высокий
Добавление ID3-тэга : Нет
Утилита сжатия : C:\Program Files\Exact Audio Copy\FLAC\FLAC.EXE
Дополнительные параметры : -6 -V -T "ARTIST=%a" -T "TITLE=%t" -T "ALBUM=%g" -T "DATE=%y" -T "TRACKNUMBER=%n" -T "GENRE=%m" -T "COMMENT=%e" %s -o %d

TOC извлечённого CD

Трек | Старт | Длительность | Начальный сектор | Конечный сектор
––––––––––––––––––––––––––––––––––-
1 | 0:00.00 | 4:03.02 | 0 | 18226
2 | 4:03.02 | 3:12.49 | 18227 | 32675
3 | 7:15.51 | 4:08.74 | 32676 | 51349
4 | 11:24.50 | 3:54.26 | 51350 | 68925
5 | 15:19.01 | 3:19.74 | 68926 | 83924
6 | 18:39.00 | 4:47.48 | 83925 | 105497
7 | 23:26.48 | 5:09.26 | 105498 | 128698
8 | 28:35.74 | 6:20.01 | 128699 | 157199
9 | 34:56.00 | 3:29.68 | 157200 | 172942
10 | 38:25.68 | 4:09.15 | 172943 | 191632
11 | 42:35.08 | 5:39.32 | 191633 | 217089
12 | 48:14.40 | 6:08.14 | 217090 | 244703
13 | 54:22.54 | 4:37.10 | 244704 | 265488
14 | 58:59.64 | 3:03.67 | 265489 | 279280
15 | 62:03.56 | 3:36.69 | 279281 | 295549
16 | 65:40.50 | 3:29.02 | 295550 | 311226
17 | 69:09.52 | 3:48.21 | 311227 | 328347
18 | 72:57.73 | 2:59.34 | 328348 | 341806

Характеристики диапазона извлечения и сообщения об ошибках

Выбранный диапазон

Имя файла D:\loSSleSS\J.Hendrix'05\Various - Burning Sky.wav

Пиковый уровень 100.0 %
Качество диапазона 99.9 %
CRC теста 4A632224
CRC копии 4A632224
Копирование… OK

Ошибок не произошло

AccurateRip: сводка

Трек 1 точное извлечение (доверие 1) [02A7704C]
Трек 2 точное извлечение (доверие 1) [C22C0FD3]
Трек 3 точное извлечение (доверие 1) [51CFDBB3]
Трек 4 точное извлечение (доверие 1) [78E7E912]
Трек 5 точное извлечение (доверие 1) [5FDB9988]
Трек 6 точное извлечение (доверие 1) [F0D3C22F]
Трек 7 точное извлечение (доверие 1) [F8A3C665]
Трек 8 точное извлечение (доверие 1) [677B6D09]
Трек 9 точное извлечение (доверие 1) [44C8F56E]
Трек 10 точное извлечение (доверие 1) [3AC5EADA]
Трек 11 точное извлечение (доверие 1) [BFC78831]
Трек 12 точное извлечение (доверие 1) [84A051D3]
Трек 13 точное извлечение (доверие 1) [AB7B998B]
Трек 14 точное извлечение (доверие 1) [B057A217]
Трек 15 точное извлечение (доверие 1) [B0ED1104]
Трек 16 точное извлечение (доверие 1) [ED041CF6]
Трек 17 точное извлечение (доверие 1) [903C1D70]
Трек 18 точность не определена (достоверность 1) [D1556BA3], AccurateRip вернул [0C856BA3]

17 трек(и) скопированы точно
1 трек(и) не удалось проверить на точность

Некоторые треки не прошли проверку на точность

Конец отчёта


[CUETools log; Date: 05/02/2013 11:57:49; Version: 2.1.4]
[AccurateRip ID: 0032456d-02a45813-0a11cd12] found.
Track [ CRC | V2 ] Status
01 [02a7704c|854554d2] (1+0/1) Accurately ripped
02 [c22c0fd3|6bc63701] (1+0/1) Accurately ripped
03 [51cfdbb3|501b2162] (1+0/1) Accurately ripped
04 [78e7e912|2c89cfd4] (1+0/1) Accurately ripped
05 [5fdb9988|9e4e816e] (1+0/1) Accurately ripped
06 [f0d3c22f|b811dcaa] (1+0/1) Accurately ripped
07 [f8a3c665|ab5980bc] (1+0/1) Accurately ripped
08 [677b6d09|232707c4] (1+0/1) Accurately ripped
09 [44c8f56e|935c8894] (1+0/1) Accurately ripped
10 [3ac5eada|a729eddd] (1+0/1) Accurately ripped
11 [bfc78831|228f2197] (1+0/1) Accurately ripped
12 [84a051d3|581e8429] (1+0/1) Accurately ripped
13 [ab7b998b|b33f726d] (1+0/1) Accurately ripped
14 [b057a217|04af080f] (1+0/1) Accurately ripped
15 [b0ed1104|e2e13763] (1+0/1) Accurately ripped
16 [ed041cf6|d460a943] (1+0/1) Accurately ripped
17 [903c1d70|1657b853] (1+0/1) Accurately ripped
18 [d1556ba3|0d30a043] (0+0/1) No match

Track Peak [ CRC32 ] [W/O NULL]
– 100,0 [4A632224] [8205ECD3]
01 98,8 [5C40C57F] [051F4EEE]
02 93,4 [B20CE3CD] [90504C90]
03 99,7 [B54EEFBB] [ED5DE7E0]
04 97,7 [F9D5E7BD] [B4624B38]
05 96,1 [89E05E56] [B93F5A9B]
06 97,2 [7B4F3770] [8C7F4792]
07 97,2 [E96B5129] [8EA58387]
08 90,1 [0DDF0544] [6B226076]
09 100,0 [863EEE6A] [4A835B96]
10 90,1 [A66CA5B7] [97E9D05B]
11 97,2 [102CBEF5] [2EF49682]
12 100,0 [E50A8BBA] [FDEF0C3C]
13 100,0 [7C33549F] [460E13AA]
14 97,2 [97F4D30F] [315703C6]
15 97,7 [FE45EADE] [D161EC46]
16 95,5 [62851FDF] [FA5C0585]
17 99,9 [A2607AB2] [4DBE4E40]
18 80,3 [3BC87EFF] [93A297DA]


Released Date: 2005
Format: CD, Compilation
Length: 75:57
Made in Germany

VA - Burning Sky: A Virtuoso Guitar Tribute to Jimi Hendrix (2005)
VA - Burning Sky: A Virtuoso Guitar Tribute to Jimi Hendrix (2005)

******************************************************

CD Rip by vicpalbk2006

The files are interchangeable!