Subcategories

VA - Cadillac Cuties And Hot Rod Heroes (2012)

Posted By: jclane
VA - Cadillac Cuties And Hot Rod Heroes (2012)

VA - Cadillac Cuties And Hot Rod Heroes (2012)
EAC Rip | 2 CDs | FLAC Image + Cue + Log | 404 MB | Complete Scans, 300 dpi PNG | 128 MB
MP3 CBR @320 kbps (LAME 3.99) | Joint Stereo | 282 MB
Fantastic Voyage | #: FVDD147 | Rock & Roll, Rockabilly

Fantastic Voyage dips into rock ’n’ roll’s hotwired legacy of automobile anthems and highway love serenades in the latest tarmac-scorching compilation put together with Wild Wax Show DJ ‘Jailhouse’ John Alexander and Lucky Parker.

Since the birth of rock ’n’ roll, the car has occupied a special place in teenage rampage and backseat romance, rock ’n’ roll music essential as both soundtrack pumping out of the radio or celebration of heaven on wheels. Over two discs, revving up engines and screeching brakes introduce 50 road-worthy classics, including lesser-heard gems rarely encountered on CD (if at all) by names such as the Storey Sisters, Don Pearly, Burt Keyes, Eddie Ringo, Dave ‘Diddle’ Day, Rocky Davis plus a fleet of over-the-limit roadrunners such as Slick Slavin’s ‘Speed Crazy’, Chuck Higgins’ ‘Motor Head Baby’ and Mike Fern’s ‘Brake Jake’ (not forgetting Johnny Tyler’s immortal ‘Devil’s Hot Rod’). This tyre-shredding set also shows how automobile association also brought out the beast in well-known protagonists such as Chuck Berry, Bo Diddley, Carl Perkins, Roy Brown, Eddie Cochran, Howlin’ Wolf, Merrill Moore, the Del-Vikings, Vince Taylor (in his ‘Brand New Cadillac’), plus a brace of revved-up instrumentals like the Duals’ ‘Stick Shift’. Unexpectedly, this immaculately sprayed collection also boasts Gene Vincent warning about the perils of “people driving like crazy” on ‘Why Don’t People Learn How To Drive’, after starting the set in his ‘Pink Thunderbird’.

Cadillac Cuties And Hot Rod Heroes is that rare kind of compilation whose theme is simple but elevated by being beautifully pulled off: along with exhaustive liner notes, photos and memorabilia, it will motivate rock ’n’ roll and R&B fans, while also acting as a perfect cruising soundtrack (or antidote to somnambulant drive-time radio shows) Top gear, in fact.
CD 1

01. Pink Thunderbird (Gene Vincent and His Blue Caps)
02. Wanted (A Solid Gold Cadillac) (The Aquatones)
03. Black And White Thunderbird (The Delicates)
04. You Can’t Catch Me (Chuck Berry)
05. Bring My Cadillac Back (Baker Knight)
06. Buick 59 (The Medallions)
07. Flat Tire (The Del-Vikings)
08. Big Green Car (Jimmy Carroll)
09. Full Racing Cam (Eddie Ringo)
10. Hot Rod Baby (Rocky Davis)
11. Speed Crazy (Slick Slavin)
12. Pop, Let Me Have The Car (Carl Perkins)
13. Bright Red Convertible (Chuck Miller)
14. Cadillac Baby (Roy Brown)
15. Every Woman I Know (Crazy ’Bout Automobiles) (Billy “The Kid” Emerson)
16. Motor Head Baby (Chuck Higgins)
17. Shot Rod (Conny and The Bellhops)
18. Motorcycle Mike (Dave “Diddle” Day)
19. Hot Rod Lincoln (Charlie Ryan)
20. Hard Top Race (Merrill Moore)
21. Pink Cadillac (Sammy Masters)
22. Hot Rod Volkswagen (Bill Parsons)
23. Let’s Go For A Ride (The Collegians)
24. Drive In Show (Eddie Cochran)
25. Stick Shift (The Duals)


Exact Audio Copy V1.0 beta 3 from 29. August 2011

EAC extraction logfile from 7. February 2013, 20:36

Various Artists / Cadillac Cuties And Hot Rod Heroes (CD 1)

Used drive : ASUS DRW-1814BLT Adapter: 3 ID: 0

Read mode : Secure
Utilize accurate stream : Yes
Defeat audio cache : Yes
Make use of C2 pointers : No

Read offset correction : 6
Overread into Lead-In and Lead-Out : No
Fill up missing offset samples with silence : Yes
Delete leading and trailing silent blocks : No
Null samples used in CRC calculations : Yes
Used interface : Native Win32 interface for Win NT & 2000

Used output format : User Defined Encoder
Selected bitrate : 1024 kBit/s
Quality : High
Add ID3 tag : No
Command line compressor : C:\Program Files (x86)\Exact Audio Copy\FLAC\FLAC.EXE
Additional command line options : -8 -V -T "ARTIST=%artist%" -T "TITLE=%title%" -T "ALBUM=%albumtitle%" -T "DATE=%year%" -T "TRACKNUMBER=%tracknr%" -T "GENRE=%genre%" -T "COMMENT=%comment%" -T "BAND=%albuminterpret%" -T "ALBUMARTIST=%albuminterpret%" -T "COMPOSER=%composer%" %haslyrics%–tag-from-file=LYRICS="%lyricsfile%"%haslyrics% -T "DISCNUMBER=%cdnumber%" -T "TOTALDISCS=%totalcds%" -T "TOTALTRACKS=%numtracks%" %hascover%–picture="%coverfile%"%hascover% %source% -o %dest%

TOC of the extracted CD

Track | Start | Length | Start sector | End sector
––––––––––––––––––––––––––––-
1 | 0:00.00 | 2:35.21 | 0 | 11645
2 | 2:35.21 | 2:20.50 | 11646 | 22195
3 | 4:55.71 | 2:14.28 | 22196 | 32273
4 | 7:10.24 | 2:45.68 | 32274 | 44716
5 | 9:56.17 | 2:27.68 | 44717 | 55809
6 | 12:24.10 | 2:37.43 | 55810 | 67627
7 | 15:01.53 | 2:27.37 | 67628 | 78689
8 | 17:29.15 | 2:26.18 | 78690 | 89657
9 | 19:55.33 | 2:39.03 | 89658 | 101585
10 | 22:34.36 | 3:02.22 | 101586 | 115257
11 | 25:36.58 | 1:54.27 | 115258 | 123834
12 | 27:31.10 | 2:15.19 | 123835 | 133978
13 | 29:46.29 | 1:51.32 | 133979 | 142335
14 | 31:37.61 | 2:58.13 | 142336 | 155698
15 | 34:35.74 | 2:45.07 | 155699 | 168080
16 | 37:21.06 | 2:14.47 | 168081 | 178177
17 | 39:35.53 | 2:33.19 | 178178 | 189671
18 | 42:08.72 | 1:53.37 | 189672 | 198183
19 | 44:02.34 | 2:34.04 | 198184 | 209737
20 | 46:36.38 | 2:09.35 | 209738 | 219447
21 | 48:45.73 | 2:22.23 | 219448 | 230120
22 | 51:08.21 | 2:30.60 | 230121 | 241430
23 | 53:39.06 | 1:52.43 | 241431 | 249873
24 | 55:31.49 | 2:05.45 | 249874 | 259293
25 | 57:37.19 | 2:30.54 | 259294 | 270597

Range status and errors

Selected range

Filename G:\Torrent\OUT\Various Artists - Cadillac Cuties And Hot Rod Heroes (CD 1).wav

Peak level 100.0 %
Extraction speed 8.7 X
Range quality 100.0 %
Test CRC 4A672B24
Copy CRC 4A672B24
Copy OK

No errors occurred

AccurateRip summary

Track 1 not present in database
Track 2 not present in database
Track 3 not present in database
Track 4 not present in database
Track 5 not present in database
Track 6 not present in database
Track 7 not present in database
Track 8 not present in database
Track 9 not present in database
Track 10 not present in database
Track 11 not present in database
Track 12 not present in database
Track 13 not present in database
Track 14 not present in database
Track 15 not present in database
Track 16 not present in database
Track 17 not present in database
Track 18 not present in database
Track 19 not present in database
Track 20 not present in database
Track 21 not present in database
Track 22 not present in database
Track 23 not present in database
Track 24 not present in database
Track 25 not present in database

None of the tracks are present in the AccurateRip database

End of status report

–– CUETools DB Plugin V2.1.3

[CTDB TOCID: vGdQcZ9NAQLIk.8bPXrsGjMltwU-] disk not present in database, Submit result: vGdQcZ9NAQLIk.8bPXrsGjMltwU- has been uploaded
[свернуть]


[CUETools log; Date: 19/02/2013 18:25:30; Version: 2.1.4]
[AccurateRip ID: 0036c72b-03d60819-820e1719] disk not present in database.

Track Peak [ CRC32 ] [W/O NULL] [ LOG ]
– 100,0 [4A672B24] [1573FA24] CRC32
01 99,9 [F05206EB] [70918858]
02 100,0 [2E3A984A] [66EC3D3B]
03 100,0 [B385DA09] [F09392FF]
04 100,0 [A78B43E7] [CABC9E4C]
05 100,0 [2C59ECF0] [2193C412]
06 93,7 [FB29C14A] [28A306C1]
07 100,0 [D6472EAA] [A1E421DA]
08 91,9 [A0A20D16] [462C686C]
09 90,3 [F2E52B40] [C865CB62]
10 100,0 [B22B201D] [D7C46D41]
11 100,0 [9CA0B943] [BF315734]
12 100,0 [EC777564] [EB916793]
13 92,0 [4B199B0F] [88B95A8C]
14 100,0 [4D597E76] [40957555]
15 100,0 [4E4C6AF2] [4E4C6AF2]
16 100,0 [8D381DB8] [34A5ECC4]
17 100,0 [5C362F44] [5C362F44]
18 91,6 [244B5B46] [EB38DA3C]
19 100,0 [D2A7A58F] [F8F7A519]
20 76,3 [9C5CBE29] [37A2C7D7]
21 100,0 [C3CE93DB] [18678D11]
22 100,0 [6ED1CEC1] [0E341FA6]
23 100,0 [82B33495] [47707F60]
24 100,0 [56BE7616] [BDB06D8B]
25 97,7 [DCA399D7] [5A2E5164]


CD 2

01. Why Don’t You People Learn How To Drive (Gene Vincent and His Blue Caps)
02. Hot-Rodder’s Dream (Ray Burden)
03. Brake Jake (Mike Fern)
04. Gas Money (Jan and Arnie)
05. Red Cadillac And A Black Moustache (Bob Luman)
06. Little Forty Ford (Leon Smith)
07. Road Runner (Bo Diddley)
08. Drag Strip Baby (Johnny Roane)
09. Spinner Hub Caps (Pat Davis)
10. Girl And A Hot Rod (Richie Deran)
11. Slappin’ Rods And Leaky Oil (The Savoys)
12. Cadillac Baby (Bill Sherrell)
13. Stop Jivin’ Start Drivin’ (Burt Keyes)
14. This Old Bomb Of Mine (Jim Flaherty’s Caravan)
15. Speedway Rock (Jerry Woodard)
16. Mr Highway Man (Howlin’ Wolf)
17. Cadillac Boogie (Willie Brown)
18. Rocket “88” (Jackie Brenston)
19. Jaguar And Thunderbird (Chuck Berry)
20. 59 Volvo (Vernon Green and The Medallions)
21. Bad Motorcycle (The Storey Sisters)
22. Brand New Cadillac (Vince Taylor and His Playboys)
23. Drag Race (Don Pearly)
24. Sixteen Miles (“Peso” Dollar)
25. Devil’s Hot Rod (Johnny Tyler)


Exact Audio Copy V1.0 beta 3 from 29. August 2011

EAC extraction logfile from 7. February 2013, 20:56

Various / Cadillac Cuties And Hot Rod Heroes (CD 2)

Used drive : ASUS DRW-1814BLT Adapter: 3 ID: 0

Read mode : Secure
Utilize accurate stream : Yes
Defeat audio cache : Yes
Make use of C2 pointers : No

Read offset correction : 6
Overread into Lead-In and Lead-Out : No
Fill up missing offset samples with silence : Yes
Delete leading and trailing silent blocks : No
Null samples used in CRC calculations : Yes
Used interface : Native Win32 interface for Win NT & 2000

Used output format : User Defined Encoder
Selected bitrate : 1024 kBit/s
Quality : High
Add ID3 tag : No
Command line compressor : C:\Program Files (x86)\Exact Audio Copy\FLAC\FLAC.EXE
Additional command line options : -8 -V -T "ARTIST=%artist%" -T "TITLE=%title%" -T "ALBUM=%albumtitle%" -T "DATE=%year%" -T "TRACKNUMBER=%tracknr%" -T "GENRE=%genre%" -T "COMMENT=%comment%" -T "BAND=%albuminterpret%" -T "ALBUMARTIST=%albuminterpret%" -T "COMPOSER=%composer%" %haslyrics%–tag-from-file=LYRICS="%lyricsfile%"%haslyrics% -T "DISCNUMBER=%cdnumber%" -T "TOTALDISCS=%totalcds%" -T "TOTALTRACKS=%numtracks%" %hascover%–picture="%coverfile%"%hascover% %source% -o %dest%

TOC of the extracted CD

Track | Start | Length | Start sector | End sector
––––––––––––––––––––––––––––-
1 | 0:00.00 | 2:01.02 | 0 | 9076
2 | 2:01.02 | 2:42.14 | 9077 | 21240
3 | 4:43.16 | 2:08.62 | 21241 | 30902
4 | 6:52.03 | 2:25.74 | 30903 | 41851
5 | 9:18.02 | 2:23.04 | 41852 | 52580
6 | 11:41.06 | 1:48.19 | 52581 | 60699
7 | 13:29.25 | 2:51.29 | 60700 | 73553
8 | 16:20.54 | 2:30.59 | 73554 | 84862
9 | 18:51.38 | 2:00.14 | 84863 | 93876
10 | 20:51.52 | 1:55.12 | 93877 | 102513
11 | 22:46.64 | 2:03.22 | 102514 | 111760
12 | 24:50.11 | 2:01.57 | 111761 | 120892
13 | 26:51.68 | 2:38.52 | 120893 | 132794
14 | 29:30.45 | 2:02.27 | 132795 | 141971
15 | 31:32.72 | 2:31.73 | 141972 | 153369
16 | 34:04.70 | 2:50.02 | 153370 | 166121
17 | 36:54.72 | 2:42.16 | 166122 | 178287
18 | 39:37.13 | 2:52.03 | 178288 | 191190
19 | 42:29.16 | 1:53.20 | 191191 | 199685
20 | 44:22.36 | 2:10.19 | 199686 | 209454
21 | 46:32.55 | 1:57.71 | 209455 | 218300
22 | 48:30.51 | 2:38.11 | 218301 | 230161
23 | 51:08.62 | 2:24.48 | 230162 | 241009
24 | 53:33.35 | 3:09.54 | 241010 | 255238
25 | 56:43.14 | 2:16.74 | 255239 | 265512

Range status and errors

Selected range

Filename G:\Torrent\OUT\Various - Cadillac Cuties And Hot Rod Heroes (CD 2).wav

Peak level 100.0 %
Extraction speed 8.8 X
Range quality 100.0 %
Test CRC FCB785EB
Copy CRC FCB785EB
Copy OK

No errors occurred

AccurateRip summary

Track 1 not present in database
Track 2 not present in database
Track 3 not present in database
Track 4 not present in database
Track 5 not present in database
Track 6 not present in database
Track 7 not present in database
Track 8 not present in database
Track 9 not present in database
Track 10 not present in database
Track 11 not present in database
Track 12 not present in database
Track 13 not present in database
Track 14 not present in database
Track 15 not present in database
Track 16 not present in database
Track 17 not present in database
Track 18 not present in database
Track 19 not present in database
Track 20 not present in database
Track 21 not present in database
Track 22 not present in database
Track 23 not present in database
Track 24 not present in database
Track 25 not present in database

None of the tracks are present in the AccurateRip database

End of status report

–– CUETools DB Plugin V2.1.3

[CTDB TOCID: .3vEgG.1r7T0eSbHLauJQ.WCnF0-] disk not present in database, Submit result: .3vEgG.1r7T0eSbHLauJQ.WCnF0- has been uploaded
[свернуть]


[CUETools log; Date: 19/02/2013 18:30:52; Version: 2.1.4]
[AccurateRip ID: 0033ae28-03a51bc1-4a0dd419] disk not present in database.

Track Peak [ CRC32 ] [W/O NULL] [ LOG ]
– 100,0 [FCB785EB] [39178025] CRC32
01 84,3 [DC0836C2] [2228AE7F]
02 77,2 [4254AEEF] [213ADB9B]
03 100,0 [3B46D2EE] [054038A3]
04 88,3 [4DE13CD8] [4DE13CD8]
05 87,0 [38BFE3C9] [8E8020B4]
06 93,8 [7A8A6260] [B5D95188]
07 100,0 [22367D27] [C587EE3F]
08 93,4 [D4BC5048] [712A16C1]
09 100,0 [52DB7282] [52DB7282]
10 89,7 [7CEA818A] [7CEA818A]
11 100,0 [C1063A1B] [65CC9B78]
12 98,4 [7B95FFBD] [B046664F]
13 100,0 [A924E65D] [EDD95609]
14 90,4 [19614190] [19614190]
15 87,8 [6850732B] [C94125CE]
16 99,2 [A468BFD8] [F7728053]
17 88,7 [799EC04F] [FB461D28]
18 100,0 [AD172C07] [71AA5D85]
19 100,0 [0CF456F6] [09A2EE41]
20 92,8 [191F5AE0] [8F9CE67F]
21 100,0 [F73A4E14] [36D16F2F]
22 91,8 [4AB84239] [DBEAF88C]
23 100,0 [608352AB] [74BD0E2C]
24 92,4 [57D5C85C] [18EC5817]
25 87,2 [50C8C9E3] [A8CA3C13]


Recorded Date: 1950 - 1961
CD Released Date: 15 Oct 2012
Format: 2 x CD, Compilation
Length: 1:00:15 (CD1) / 0:59:10 (CD2)

VA - Cadillac Cuties And Hot Rod Heroes (2012)
VA - Cadillac Cuties And Hot Rod Heroes (2012)
VA - Cadillac Cuties And Hot Rod Heroes (2012)

******************************************************

CD Rip by Mammonth66

The files are interchangeable!