Subcategories

VA - Cafe Del Mar: Volumen Diecisiete (2011) REPOST

Posted By: uff
VA - Cafe Del Mar: Volumen Diecisiete (2011) REPOST

VA - Cafe Del Mar: Volumen Diecisiete (2011)
Chillout | 2cd | EAC Rip | Ape + Cue + Log | covers
Cafe Del Mar Music 01-2011-93 | rel: 2011 | 990Mb

Cafe del Mar compilations are always excellent and showcase music and Artists you would otherwise not know about. I have gone on to buy other records by artists that I found on Cafe del Mar collections. ~Amazon

Track listing
cd1:
01. Glide & Swerve - Y Mor (4:26)
02. Deep Josh & Jose Rodriguez feat. Lisa Rose - The Clouds (5:29)
03. Stefano Carpi - After the sea (5:13)
04. Clelia Felix - Shine So Bright (4:27)
05. Glenn Main - Message to Spain (4:31)
06. Luis Hermandez - Smile (3:46)
07. Joy Askew - Starlight (5:27)
08. Paco Fernandez - Mani in da house (6:20)
09. Bob Zopp - Mi Novia (7:08)
10. Stephanie Mathieu - Take Time (4:29)
11. Music on Canvas feat. Tabitha - Upside Down (4:30)
12. Michael Hornstein - Boom Boom (3:37)
13. J.R. Haim - Lejos (5:11)
14. Atlan Chill - September (4:06)
~ (68:39)

cd2:
01. Luminous - Forever (4:37)
02. J.R. Haim - Puesta Del Sol (4:28)
03. Sabrina Carnevale - Noboy Can Say (4:12)
04. Luis Hermandez - A Tu Lado (Instrumental Mix) (4:30)
05. Glide & Swerve - Aasha (4:16)
06. Alejandro De Pinedo - Raindrops (4:16)
07. Mahara McKay & Minus 8 - Beautiful Day (4:47)
08. Ingo Herrmann - Inner Truth (4:19)
09. Coastline - Adriatic Sea (Milews RMX) (5:49)
10. Gitano & Deep Josh feat. Koo - Residence Lounge (3:59)
11. Crystin - Something Beautiful (Red Roses Remix by Lemongrass) (4:03)
12. Solaris Navis - Blissful Memories (4:34)
13. Elimar - Prosody (5:43)
14. Elmara - Transit (4:07)
~ (63:40)


Exact Audio Copy V0.99 prebeta 5 from 4. May 2009
EAC extraction logfile from 27. September 2011, 8:38
Various / Cafe Del Mar volumen diecisiete CD1
Used drive : Optiarc DVD RW AD-7243S Adapter: 2 ID: 2
Read mode : Secure
Utilize accurate stream : Yes
Defeat audio cache : Yes
Make use of C2 pointers : No
Read offset correction : 48
Overread into Lead-In and Lead-Out : No
Fill up missing offset samples with silence : Yes
Delete leading and trailing silent blocks : No
Null samples used in CRC calculations : Yes
Used interface : Installed external ASPI interface
Gap handling : Appended to previous track
Used output format : Monkey's Audio Lossless Encoder v3.99 DLL
Sample format : High Lossless Compression
TOC of the extracted CD
Track | Start | Length | Start sector | End sector
––––––––––––––––––––––––––––-
1 | 0:00.00 | 4:25.70 | 0 | 19944
2 | 4:25.70 | 5:29.06 | 19945 | 44625
3 | 9:55.01 | 5:13.02 | 44626 | 68102
4 | 15:08.03 | 4:27.33 | 68103 | 88160
5 | 19:35.36 | 4:31.09 | 88161 | 108494
6 | 24:06.45 | 3:45.64 | 108495 | 125433
7 | 27:52.34 | 5:26.53 | 125434 | 149936
8 | 33:19.12 | 6:19.58 | 149937 | 178419
9 | 39:38.70 | 7:07.44 | 178420 | 210488
10 | 46:46.39 | 4:29.20 | 210489 | 230683
11 | 51:15.59 | 4:29.49 | 230684 | 250907
12 | 55:45.33 | 3:36.64 | 250908 | 267171
13 | 59:22.22 | 5:11.32 | 267172 | 290528
14 | 64:33.54 | 4:05.39 | 290529 | 308942
Track 1
Filename F:\ЗАГРУЗКИ\ Cafe Del Mar volumen diecisiete 2CD (2011)\Cafe Del Mar volumen diecisiete CD1\01. Glide & Swerve - Y Mor.ape
Pre-gap length 0:00:02.00
Peak level 98.8 %
Track quality 100.0 %
Test CRC 4676DDF0
Copy CRC 4676DDF0
Track not present in AccurateRip database
Copy OK
Track 2
Filename F:\ЗАГРУЗКИ\ Cafe Del Mar volumen diecisiete 2CD (2011)\Cafe Del Mar volumen diecisiete CD1\02. Deep Josh & Jose Rodriguez
feat. Lisa Rose - The Clouds.ape
Pre-gap length 0:00:01.37
Peak level 98.8 %
Track quality 99.9 %
Test CRC C94ECDFE
Copy CRC C94ECDFE
Track not present in AccurateRip database
Copy OK
Track 3
Filename F:\ЗАГРУЗКИ\ Cafe Del Mar volumen diecisiete 2CD (2011)\Cafe Del Mar volumen diecisiete CD1\03. Stefano Carpi - After the
sea.ape
Pre-gap length 0:00:01.37
Peak level 98.8 %
Track quality 100.0 %
Test CRC 202E7D77
Copy CRC 202E7D77
Track not present in AccurateRip database
Copy OK
Track 4
Filename F:\ЗАГРУЗКИ\ Cafe Del Mar volumen diecisiete 2CD (2011)\Cafe Del Mar volumen diecisiete CD1\04. Clelia Felix - Shine So
Bright.ape
Pre-gap length 0:00:01.37
Peak level 98.8 %
Track quality 100.0 %
Test CRC 63E59113
Copy CRC 63E59113
Track not present in AccurateRip database
Copy OK
Track 5
Filename F:\ЗАГРУЗКИ\ Cafe Del Mar volumen diecisiete 2CD (2011)\Cafe Del Mar volumen diecisiete CD1\05. Glenn Main - Message to
Spain.ape
Pre-gap length 0:00:01.36
Peak level 98.8 %
Track quality 100.0 %
Test CRC D6162E7D
Copy CRC D6162E7D
Track not present in AccurateRip database
Copy OK
Track 6
Filename F:\ЗАГРУЗКИ\ Cafe Del Mar volumen diecisiete 2CD (2011)\Cafe Del Mar volumen diecisiete CD1\06. Luis Hermandez - Smile.ape
Pre-gap length 0:00:01.37
Peak level 98.8 %
Track quality 100.0 %
Test CRC A89969D8
Copy CRC A89969D8
Track not present in AccurateRip database
Copy OK
Track 7
Filename F:\ЗАГРУЗКИ\ Cafe Del Mar volumen diecisiete 2CD (2011)\Cafe Del Mar volumen diecisiete CD1\07. Joy Askew - Starlight.ape
Pre-gap length 0:00:01.37
Peak level 98.8 %
Track quality 100.0 %
Test CRC 59FBEB32
Copy CRC 59FBEB32
Track not present in AccurateRip database
Copy OK
Track 8
Filename F:\ЗАГРУЗКИ\ Cafe Del Mar volumen diecisiete 2CD (2011)\Cafe Del Mar volumen diecisiete CD1\08. Paco Fernandez - Mani in
da house.ape
Pre-gap length 0:00:01.37
Peak level 98.8 %
Track quality 100.0 %
Test CRC FE8DA7D9
Copy CRC FE8DA7D9
Track not present in AccurateRip database
Copy OK
Track 9
Filename F:\ЗАГРУЗКИ\ Cafe Del Mar volumen diecisiete 2CD (2011)\Cafe Del Mar volumen diecisiete CD1\09. Bob Zopp - Mi Novia.ape
Pre-gap length 0:00:01.37
Peak level 98.8 %
Track quality 100.0 %
Test CRC A307260B
Copy CRC A307260B
Track not present in AccurateRip database
Copy OK
Track 10
Filename F:\ЗАГРУЗКИ\ Cafe Del Mar volumen diecisiete 2CD (2011)\Cafe Del Mar volumen diecisiete CD1\10. Stephanie Mathieu - Take
Time.ape
Pre-gap length 0:00:01.37
Peak level 98.8 %
Track quality 100.0 %
Test CRC C46135EB
Copy CRC C46135EB
Track not present in AccurateRip database
Copy OK
Track 11
Filename F:\ЗАГРУЗКИ\ Cafe Del Mar volumen diecisiete 2CD (2011)\Cafe Del Mar volumen diecisiete CD1\11. Music on Canvas feat.
Tabitha - Upside Down.ape
Pre-gap length 0:00:01.37
Peak level 98.8 %
Track quality 99.9 %
Test CRC 3E18D091
Copy CRC 3E18D091
Track not present in AccurateRip database
Copy OK
Track 12
Filename F:\ЗАГРУЗКИ\ Cafe Del Mar volumen diecisiete 2CD (2011)\Cafe Del Mar volumen diecisiete CD1\12. Michael Hornstein - Boom
Boom.ape
Pre-gap length 0:00:01.37
Peak level 98.8 %
Track quality 100.0 %
Test CRC D97DA68D
Copy CRC D97DA68D
Track not present in AccurateRip database
Copy OK
Track 13
Filename F:\ЗАГРУЗКИ\ Cafe Del Mar volumen diecisiete 2CD (2011)\Cafe Del Mar volumen diecisiete CD1\13. J.R. Haim - Lejos.ape
Pre-gap length 0:00:01.37
Peak level 98.8 %
Track quality 100.0 %
Test CRC 43C57DB6
Copy CRC 43C57DB6
Track not present in AccurateRip database
Copy OK
Track 14
Filename F:\ЗАГРУЗКИ\ Cafe Del Mar volumen diecisiete 2CD (2011)\Cafe Del Mar volumen diecisiete CD1\14. Atlan Chill -
September.ape
Pre-gap length 0:00:01.37
Peak level 98.8 %
Track quality 100.0 %
Test CRC 48F400BC
Copy CRC 48F400BC
Track not present in AccurateRip database
Copy OK
None of the tracks are present in the AccurateRip database
No errors occurred
End of status report
–-

Exact Audio Copy V0.99 prebeta 5 from 4. May 2009
EAC extraction logfile from 27. September 2011, 9:17
Various / Cafe Del Mar volumen diecisiete CD2
Used drive : Optiarc DVD RW AD-7243S Adapter: 4 ID: 0
Read mode : Secure
Utilize accurate stream : Yes
Defeat audio cache : Yes
Make use of C2 pointers : No
Read offset correction : 48
Overread into Lead-In and Lead-Out : No
Fill up missing offset samples with silence : Yes
Delete leading and trailing silent blocks : No
Null samples used in CRC calculations : Yes
Used interface : Installed external ASPI interface
Gap handling : Appended to previous track
Used output format : Monkey's Audio Lossless Encoder v3.99 DLL
Sample format : High Lossless Compression
TOC of the extracted CD
Track | Start | Length | Start sector | End sector
––––––––––––––––––––––––––––-
1 | 0:00.00 | 4:37.08 | 0 | 20782
2 | 4:37.08 | 4:27.53 | 20783 | 40860
3 | 9:04.61 | 4:12.30 | 40861 | 59790
4 | 13:17.16 | 4:30.08 | 59791 | 80048
5 | 17:47.24 | 4:16.35 | 80049 | 99283
6 | 22:03.59 | 4:15.48 | 99284 | 118456
7 | 26:19.32 | 4:47.14 | 118457 | 139995
8 | 31:06.46 | 4:18.56 | 139996 | 159401
9 | 35:25.27 | 5:49.05 | 159402 | 185581
10 | 41:14.32 | 3:58.53 | 185582 | 203484
11 | 45:13.10 | 4:03.10 | 203485 | 221719
12 | 49:16.20 | 4:33.67 | 221720 | 242261
13 | 53:50.12 | 5:42.72 | 242262 | 267983
14 | 59:33.09 | 4:06.56 | 267984 | 286489
Track 1
Filename F:\ЗАГРУЗКИ\ Cafe Del Mar volumen diecisiete 2CD (2011)\Cafe Del Mar volumen diecisiete CD2\01. Luminous - Forever.ape
Pre-gap length 0:00:02.00
Peak level 98.8 %
Track quality 100.0 %
Test CRC FC1824FD
Copy CRC FC1824FD
Track not present in AccurateRip database
Copy OK
Track 2
Filename F:\ЗАГРУЗКИ\ Cafe Del Mar volumen diecisiete 2CD (2011)\Cafe Del Mar volumen diecisiete CD2\02. J.R. Haim - Puesta Del
Sol.ape
Pre-gap length 0:00:01.37
Peak level 98.8 %
Track quality 100.0 %
Test CRC E6E443BD
Copy CRC E6E443BD
Track not present in AccurateRip database
Copy OK
Track 3
Filename F:\ЗАГРУЗКИ\ Cafe Del Mar volumen diecisiete 2CD (2011)\Cafe Del Mar volumen diecisiete CD2\03. Sabrina Carnevale - Noboy
Can Say.ape
Pre-gap length 0:00:01.36
Peak level 98.8 %
Track quality 100.0 %
Test CRC BE63D227
Copy CRC BE63D227
Track not present in AccurateRip database
Copy OK
Track 4
Filename F:\ЗАГРУЗКИ\ Cafe Del Mar volumen diecisiete 2CD (2011)\Cafe Del Mar volumen diecisiete CD2\04. Luis Hermandez - A Tu Lado
(Instrumental Mix).ape
Pre-gap length 0:00:01.37
Peak level 98.8 %
Track quality 100.0 %
Test CRC 43D05677
Copy CRC 43D05677
Track not present in AccurateRip database
Copy OK
Track 5
Filename F:\ЗАГРУЗКИ\ Cafe Del Mar volumen diecisiete 2CD (2011)\Cafe Del Mar volumen diecisiete CD2\05. Glide & Swerve - Aasha.ape
Pre-gap length 0:00:01.37
Peak level 98.8 %
Track quality 100.0 %
Test CRC AF1C2987
Copy CRC AF1C2987
Track not present in AccurateRip database
Copy OK
Track 6
Filename F:\ЗАГРУЗКИ\ Cafe Del Mar volumen diecisiete 2CD (2011)\Cafe Del Mar volumen diecisiete CD2\06. Alejandro De Pinedo -
Raindrops.ape
Pre-gap length 0:00:01.37
Peak level 98.8 %
Track quality 100.0 %
Test CRC CAB712C8
Copy CRC CAB712C8
Track not present in AccurateRip database
Copy OK
Track 7
Filename F:\ЗАГРУЗКИ\ Cafe Del Mar volumen diecisiete 2CD (2011)\Cafe Del Mar volumen diecisiete CD2\07. Mahara McKay & Minus 8 -
Beautiful Day.ape
Pre-gap length 0:00:01.37
Peak level 98.8 %
Track quality 100.0 %
Test CRC 389C1035
Copy CRC 389C1035
Track not present in AccurateRip database
Copy OK
Track 8
Filename F:\ЗАГРУЗКИ\ Cafe Del Mar volumen diecisiete 2CD (2011)\Cafe Del Mar volumen diecisiete CD2\08. Ingo Herrmann - Inner
Truth.ape
Pre-gap length 0:00:01.37
Peak level 98.8 %
Track quality 100.0 %
Test CRC 776A1615
Copy CRC 776A1615
Track not present in AccurateRip database
Copy OK
Track 9
Filename F:\ЗАГРУЗКИ\ Cafe Del Mar volumen diecisiete 2CD (2011)\Cafe Del Mar volumen diecisiete CD2\09. Coastline - Adriatic Sea
(Milews RMX).ape
Pre-gap length 0:00:01.37
Peak level 98.8 %
Track quality 100.0 %
Test CRC D3ACD9E5
Copy CRC D3ACD9E5
Track not present in AccurateRip database
Copy OK
Track 10
Filename F:\ЗАГРУЗКИ\ Cafe Del Mar volumen diecisiete 2CD (2011)\Cafe Del Mar volumen diecisiete CD2\10. Gitano & Deep Josh feat.
Koo - Residence Lounge.ape
Pre-gap length 0:00:01.37
Peak level 98.8 %
Track quality 100.0 %
Test CRC 962A7497
Copy CRC 962A7497
Track not present in AccurateRip database
Copy OK
Track 11
Filename F:\ЗАГРУЗКИ\ Cafe Del Mar volumen diecisiete 2CD (2011)\Cafe Del Mar volumen diecisiete CD2\11. Crystin - Something
Beautiful (Red Roses Remix by Lemongrass).ape
Pre-gap length 0:00:01.37
Peak level 98.8 %
Track quality 100.0 %
Test CRC DEF157D7
Copy CRC DEF157D7
Track not present in AccurateRip database
Copy OK
Track 12
Filename F:\ЗАГРУЗКИ\ Cafe Del Mar volumen diecisiete 2CD (2011)\Cafe Del Mar volumen diecisiete CD2\12. Solaris Navis - Blissful
Memories.ape
Pre-gap length 0:00:01.37
Peak level 98.8 %
Track quality 100.0 %
Test CRC 619FEE2A
Copy CRC 619FEE2A
Track not present in AccurateRip database
Copy OK
Track 13
Filename F:\ЗАГРУЗКИ\ Cafe Del Mar volumen diecisiete 2CD (2011)\Cafe Del Mar volumen diecisiete CD2\13. Elimar - Prosody.ape
Pre-gap length 0:00:01.37
Peak level 98.8 %
Track quality 100.0 %
Test CRC 05E0549C
Copy CRC 05E0549C
Track not present in AccurateRip database
Copy OK
Track 14
Filename F:\ЗАГРУЗКИ\ Cafe Del Mar volumen diecisiete 2CD (2011)\Cafe Del Mar volumen diecisiete CD2\14. Elmara - Transit.ape
Pre-gap length 0:00:01.37
Peak level 98.8 %
Track quality 99.9 %
Test CRC 778EDAE1
Copy CRC 778EDAE1
Track not present in AccurateRip database
Copy OK
None of the tracks are present in the AccurateRip database
No errors occurred
End of status report




[CUETools log; Date: 2016.03.27. 11:15:28; Version: 2.1.5]
[CTDB TOCID: DVBZ_IjCf0OrbgEcIXxGvNVY8Eo-] found.
Track | CTDB Status
1 | (49/49) Accurately ripped
2 | (48/49) Accurately ripped
3 | (49/49) Accurately ripped
4 | (49/49) Accurately ripped
5 | (49/49) Accurately ripped
6 | (49/49) Accurately ripped
7 | (48/49) Accurately ripped, or (1/49) differs in 1 samples @00:45:33
8 | (49/49) Accurately ripped
9 | (48/49) Accurately ripped
10 | (48/49) Accurately ripped
11 | (47/49) Accurately ripped
12 | (48/49) Accurately ripped
13 | (47/49) Accurately ripped
14 | (47/49) Accurately ripped
[AccurateRip ID: 0023bbd6-017e3917-d010170e] found.
Track [ CRC | V2 ] Status
01 [484b0730|238d5d20] (00+08/45) Accurately ripped
02 [4963c2e7|8552b999] (00+08/46) Accurately ripped
03 [7b991220|afc75c37] (00+08/46) Accurately ripped
04 [6d61aaa1|21c45c4f] (00+08/47) Accurately ripped
05 [0226028d|84524a34] (00+08/46) Accurately ripped
06 [5073bb90|341b402e] (00+08/47) Accurately ripped
07 [39f8f36a|df21c0b1] (00+06/46) Accurately ripped
08 [bfe65249|e603a000] (00+08/45) Accurately ripped
09 [c2591150|e789ccca] (00+08/46) Accurately ripped
10 [abad51af|95088539] (00+08/46) Accurately ripped
11 [8ce571cc|a46e1c72] (00+08/46) Accurately ripped
12 [2bfa073d|289b8933] (00+08/46) Accurately ripped
13 [97961ba6|e606fe75] (00+08/47) Accurately ripped
14 [239450be|efe92c79] (00+08/46) Accurately ripped
Offsetted by 694:
01 [2c04870d] (07/45) Accurately ripped
02 [8527edbd] (08/46) Accurately ripped
03 [62311688] (08/46) Accurately ripped
04 [cd309d69] (08/47) Accurately ripped
05 [556c7fd7] (07/46) Accurately ripped
06 [65f5c224] (08/47) Accurately ripped
07 [5eb4d670] (07/46) Accurately ripped
08 [d33f50d5] (07/45) Accurately ripped
09 [193dd4ae] (08/46) Accurately ripped
10 [f3ba1017] (07/46) Accurately ripped
11 [fa35f38c] (07/46) Accurately ripped
12 [ebd18385] (07/46) Accurately ripped
13 [5b221696] (08/47) Accurately ripped
14 [60a6903a] (07/46) Accurately ripped

Track Peak [ CRC32 ] [W/O NULL] [ LOG ]
– 98,8 [CEA657B2] [139F4E3D]
01 98,8 [4676DDF0] [C656DF3D] CRC32
02 98,8 [C94ECDFE] [6B0B765C] CRC32
03 98,8 [202E7D77] [B90D1623] CRC32
04 98,8 [63E59113] [6E686B88] CRC32
05 98,8 [D6162E7D] [95038F0F] CRC32
06 98,8 [A89969D8] [AA94DC35] CRC32
07 98,8 [59FBEB32] [C449A1F7] CRC32
08 98,8 [FE8DA7D9] [D2B478D3] CRC32
09 98,8 [A307260B] [97989588] CRC32
10 98,8 [C46135EB] [E2C9E457] CRC32
11 98,8 [3E18D091] [C6CAD488] CRC32
12 98,8 [D97DA68D] [F20ADA1D] CRC32
13 98,8 [43C57DB6] [EA3C629C] CRC32
14 98,8 [48F400BC] [61DE9C67] CRC32
–-

[CUETools log; Date: 2016.03.27. 11:17:53; Version: 2.1.5]
[CTDB TOCID: 6ZLEkwN0nPTtduWGV_R0LaKGNYM-] found.
Track | CTDB Status
1 | (46/46) Accurately ripped
2 | (46/46) Accurately ripped
3 | (46/46) Accurately ripped
4 | (46/46) Accurately ripped
5 | (45/46) Accurately ripped
6 | (46/46) Accurately ripped
7 | (46/46) Accurately ripped
8 | (46/46) Accurately ripped
9 | (46/46) Accurately ripped
10 | (45/46) Accurately ripped
11 | (46/46) Accurately ripped
12 | (46/46) Accurately ripped
13 | (46/46) Accurately ripped
14 | (46/46) Accurately ripped
[AccurateRip ID: 00207142-015aedf7-e10eeb0e] found.
Track [ CRC | V2 ] Status
01 [ee192fe0|64b75b82] (00+06/42) Accurately ripped
02 [72ccb041|7033af46] (00+06/42) Accurately ripped
03 [897d9b31|b16425d4] (00+06/42) Accurately ripped
04 [02719b85|37ec721a] (00+06/43) Accurately ripped
05 [ea3806f5|1a94fb58] (00+06/42) Accurately ripped
06 [53937ad7|3d4d52ad] (00+06/42) Accurately ripped
07 [10c62846|45ecd30d] (00+06/42) Accurately ripped
08 [e291b3ea|fe46a7a4] (00+06/43) Accurately ripped
09 [11c65201|b79b5397] (00+06/42) Accurately ripped
10 [04f188d1|be78200b] (00+06/42) Accurately ripped
11 [778cb211|dcdb9e87] (00+06/43) Accurately ripped
12 [1339303b|382f7d7c] (00+06/43) Accurately ripped
13 [f41c37bc|4fa8aef0] (00+06/42) Accurately ripped
14 [195c2fa0|3cde58f9] (00+06/42) Accurately ripped
Offsetted by 694:
01 [f062bb37] (07/42) Accurately ripped
02 [65c1883d] (07/42) Accurately ripped
03 [aa20f381] (07/42) Accurately ripped
04 [8fff4901] (08/43) Accurately ripped
05 [60ddf701] (07/42) Accurately ripped
06 [ffc37937] (07/42) Accurately ripped
07 [df01b7c8] (07/42) Accurately ripped
08 [023d1ce4] (08/43) Accurately ripped
09 [e5fc92a7] (07/42) Accurately ripped
10 [af6ab1d7] (08/42) Accurately ripped
11 [b1f8c211] (08/43) Accurately ripped
12 [1945e2b1] (08/43) Accurately ripped
13 [d0ab35d0] (07/42) Accurately ripped
14 [98d0a58f] (07/42) Accurately ripped

Track Peak [ CRC32 ] [W/O NULL] [ LOG ]
– 98,8 [23ECD7B3] [92C2DC6F]
01 98,8 [FC1824FD] [0F3EC31B] CRC32
02 98,8 [E6E443BD] [81BCD542] CRC32
03 98,8 [BE63D227] [85F83A1B] CRC32
04 98,8 [43D05677] [73A69E17] CRC32
05 98,8 [AF1C2987] [0EC35CB2] CRC32
06 98,8 [CAB712C8] [83928B15] CRC32
07 98,8 [389C1035] [F9D746CF] CRC32
08 98,8 [776A1615] [6094CEE9] CRC32
09 98,8 [D3ACD9E5] [A8E0839C] CRC32
10 98,8 [962A7497] [6D46801E] CRC32
11 98,8 [DEF157D7] [032B7EAD] CRC32
12 98,8 [619FEE2A] [4A809E4C] CRC32
13 98,8 [05E0549C] [A1CFFCC9] CRC32
14 98,8 [778EDAE1] [20DE76D8] CRC32


Thx to oleandris
Datafile
Yunfile

password: asd