Subcategories

V.A. - Café Del Mar XXV (Volumen Veinticinco) (2019)

Posted By: gribovar
V.A. - Café Del Mar XXV (Volumen Veinticinco) (2019)

V.A. - Cafe Del Mar XXV (Volumen Veinticinco) (2019)
EAC Rip | FLAC (tracks+.cue+log) - 844 MB | MP3 CBR 320 kbps (LAME 3.93) - 321 MB | Covers - 79 MB
Genre: Chillout, Downtempo, Lounge | RAR 3% Rec. | Label: Café Del Mar Music (DL 198-2019)

It has been 25 years since the first Café del Mar Volume was released. To celebrate this milestone we have carefully selected a mix of classics & brand new tracks to reflect the essence of Café del Mar. The double CD release features brand new tracks & remixes by Quantic, The Cinematic Orchestra, Zero 7, Peggu Gou, BadBadNotGood and timeless classics by Chicane, A Man Called Adam, Trio Mocoto, Planet Funk, just to name but a few.
CD 1 Tracklist (The Classics):
01. Chicane - No Ordinary Morning (Thomas Datt Ambient Mix)
02. Zero 7 - Likufanele
03. Trio Mocoto - Nao Adianta
04. Honey Dijon And Tim K Feat Nomi Ruiz - Why
05. DJ Center And Sly5ThAve Feat Thalma De Freitas - Paradise
06. Eugene Tambourine Feat Yevhen Bubon - In The Good Life
07. A Man Called Adam - Barefoot In The Head
08. [Re:Jazz] Featuring Ultra Naté - Twisted
09. Bent - I Can't Believe It's Over
10. Les Jumeaux - Empty Drama
11. Jhelisa - Friendly Pressure (Quiet Storm Mix)
12. Full Intention Feat Shèna - I'll Be Waiting (Lux Sunset Edit)
13. Planet Funk - Inside All The People (Harvey's Ibiza Sleepy Mix)
14. Joe Hume - Adagio For Piano

Total time: 01:13:05

CD 2 Tracklist (Future Classics):
01. BADBADNOTGOOD X Little Dragon - Tried
02. Maribou State Feat Khruangbin - Feel Good (Khruangbin's A Well Nice Version)
03. Camelphat & Elderbrook - Cola (Simon Mills Full Sugar Mix)
04. Quantic Feat Denitia - You Used To Love Me (Radio Edit)
05. Sly5ThAve Feat Quantic - The Edge (Swarvy Remix)
06. Ondatropica - Cumbia Espacial
07. Peggy Gou - It Makes You Forget (Itgehane) (Edit)
08. Groove Armada Feat Jess Larrabee - Just For Tonight
09. Ferreck Dawn, Robosonic & Nikki Ambers - In My Arms (Afterlife Mix)
10. Zero 7 Featuring Jose Gonzalez - Aurora (Alternative Mix)
11. Nickodemus Feat Marcelino Galan - Endangered Species
12. Gizmo Varillas - El Dorado
13. The Cinematic Orchestra, Heidi Vogel - A Promise (Edit)
14. Kidnap - And In Me Too The Wave Rises
15. UNKLE - Trouble In Paradise (With The Heritage Orchestra)

Total time: 01:03:02

Exact Audio Copy V1.3 from 2. September 2016

EAC extraction logfile from 2. November 2019, 18:10

Various Artists / Cafe Del Mar 25 - CD1 - The Classics

Used drive : ASUS DRW-24B3ST Adapter: 1 ID: 0

Read mode : Secure
Utilize accurate stream : Yes
Defeat audio cache : Yes
Make use of C2 pointers : No

Read offset correction : 6
Overread into Lead-In and Lead-Out : No
Fill up missing offset samples with silence : Yes
Delete leading and trailing silent blocks : No
Null samples used in CRC calculations : Yes
Used interface : Native Win32 interface for Win NT & 2000
Gap handling : Appended to previous track

Used output format : User Defined Encoder
Selected bitrate : 896 kBit/s
Quality : High
Add ID3 tag : No
Command line compressor : C:\Program Files (x86)\Exact Audio Copy\Flac\flac.exe
Additional command line options : -8 -V -T "ARTIST=%artist%" -T "TITLE=%title%" -T "ALBUM=%albumtitle%" -T "DATE=%year%" -T "TRACKNUMBER=%tracknr%" -T "GENRE=%genre%" -T "COMMENT=ripped by Oleandris" %source%


TOC of the extracted CD

Track | Start | Length | Start sector | End sector
––––––––––––––––––––––––––––-
1 | 0:00.00 | 5:03.06 | 0 | 22730
2 | 5:03.06 | 6:04.10 | 22731 | 50040
3 | 11:07.16 | 4:05.34 | 50041 | 68449
4 | 15:12.50 | 5:05.19 | 68450 | 91343
5 | 20:17.69 | 3:37.48 | 91344 | 107666
6 | 23:55.42 | 4:53.39 | 107667 | 129680
7 | 28:49.06 | 7:13.57 | 129681 | 162212
8 | 36:02.63 | 5:57.07 | 162213 | 188994
9 | 41:59.70 | 4:16.38 | 188995 | 208232
10 | 46:16.33 | 6:13.54 | 208233 | 236261
11 | 52:30.12 | 5:54.63 | 236262 | 262874
12 | 58:25.00 | 4:15.71 | 262875 | 282070
13 | 62:40.71 | 6:16.13 | 282071 | 310283
14 | 68:57.09 | 4:08.06 | 310284 | 328889


Track 1

Filename I:\AUDIO I\Ambient - Chill Out - Lounge - Downtempo - Easy Listening - Electronic (исполнители и сборники)\ Cafe Del Mar Collection I-XXV (1994-2019) + The Best (2004, 2012)\2019 - Cafe Del Mar XXV (Volumen Veinticinco) 2CD\CD1\01. Chicane -

Pre-gap length 0:00:02.00

Peak level 86.3 %
Extraction speed 3.1 X
Track quality 99.9 %
Test CRC 40AEBB31
Copy CRC 40AEBB31
Accurately ripped (confidence 1) [573E6F59] (AR v2)
Copy OK

Track 2

Filename I:\AUDIO I\Ambient - Chill Out - Lounge - Downtempo - Easy Listening - Electronic (исполнители и сборники)\ Cafe Del Mar Collection I-XXV (1994-2019) + The Best (2004, 2012)\2019 - Cafe Del Mar XXV (Volumen Veinticinco) 2CD\CD1\02. Zero 7 - L

Peak level 86.1 %
Extraction speed 4.3 X
Track quality 100.0 %
Test CRC 0733714D
Copy CRC 0733714D
Accurately ripped (confidence 1) [5A7022C2] (AR v2)
Copy OK

Track 3

Filename I:\AUDIO I\Ambient - Chill Out - Lounge - Downtempo - Easy Listening - Electronic (исполнители и сборники)\ Cafe Del Mar Collection I-XXV (1994-2019) + The Best (2004, 2012)\2019 - Cafe Del Mar XXV (Volumen Veinticinco) 2CD\CD1\03. Trio Mocot

Peak level 86.7 %
Extraction speed 4.5 X
Track quality 100.0 %
Test CRC 3CCA1573
Copy CRC 3CCA1573
Accurately ripped (confidence 1) [488524F5] (AR v2)
Copy OK

Track 4

Filename I:\AUDIO I\Ambient - Chill Out - Lounge - Downtempo - Easy Listening - Electronic (исполнители и сборники)\ Cafe Del Mar Collection I-XXV (1994-2019) + The Best (2004, 2012)\2019 - Cafe Del Mar XXV (Volumen Veinticinco) 2CD\CD1\04. Honey Dijo

Peak level 86.9 %
Extraction speed 4.9 X
Track quality 100.0 %
Test CRC 7A08E8B6
Copy CRC 7A08E8B6
Accurately ripped (confidence 1) [AE815590] (AR v2)
Copy OK

Track 5

Filename I:\AUDIO I\Ambient - Chill Out - Lounge - Downtempo - Easy Listening - Electronic (исполнители и сборники)\ Cafe Del Mar Collection I-XXV (1994-2019) + The Best (2004, 2012)\2019 - Cafe Del Mar XXV (Volumen Veinticinco) 2CD\CD1\05. DJ Center

Peak level 86.6 %
Extraction speed 4.9 X
Track quality 100.0 %
Test CRC 86C20239
Copy CRC 86C20239
Accurately ripped (confidence 1) [7DD9BEA7] (AR v2)
Copy OK

Track 6

Filename I:\AUDIO I\Ambient - Chill Out - Lounge - Downtempo - Easy Listening - Electronic (исполнители и сборники)\ Cafe Del Mar Collection I-XXV (1994-2019) + The Best (2004, 2012)\2019 - Cafe Del Mar XXV (Volumen Veinticinco) 2CD\CD1\06. Eugene Tam

Peak level 86.9 %
Extraction speed 5.4 X
Track quality 100.0 %
Test CRC 15CDA0AF
Copy CRC 15CDA0AF
Accurately ripped (confidence 1) [CC9523E2] (AR v2)
Copy OK

Track 7

Filename I:\AUDIO I\Ambient - Chill Out - Lounge - Downtempo - Easy Listening - Electronic (исполнители и сборники)\ Cafe Del Mar Collection I-XXV (1994-2019) + The Best (2004, 2012)\2019 - Cafe Del Mar XXV (Volumen Veinticinco) 2CD\CD1\07. A Man Call

Peak level 87.4 %
Extraction speed 6.0 X
Track quality 100.0 %
Test CRC 700A1C58
Copy CRC 700A1C58
Accurately ripped (confidence 1) [1F852491] (AR v2)
Copy OK

Track 8

Filename I:\AUDIO I\Ambient - Chill Out - Lounge - Downtempo - Easy Listening - Electronic (исполнители и сборники)\ Cafe Del Mar Collection I-XXV (1994-2019) + The Best (2004, 2012)\2019 - Cafe Del Mar XXV (Volumen Veinticinco) 2CD\CD1\08. [Re-Jazz]

Peak level 86.6 %
Extraction speed 6.2 X
Track quality 100.0 %
Test CRC 74B636CB
Copy CRC 74B636CB
Accurately ripped (confidence 1) [09842237] (AR v2)
Copy OK

Track 9

Filename I:\AUDIO I\Ambient - Chill Out - Lounge - Downtempo - Easy Listening - Electronic (исполнители и сборники)\ Cafe Del Mar Collection I-XXV (1994-2019) + The Best (2004, 2012)\2019 - Cafe Del Mar XXV (Volumen Veinticinco) 2CD\CD1\09. Bent - I C

Peak level 86.6 %
Extraction speed 6.2 X
Track quality 100.0 %
Test CRC 7497FB72
Copy CRC 7497FB72
Accurately ripped (confidence 1) [4AB3DB71] (AR v2)
Copy OK

Track 10

Filename I:\AUDIO I\Ambient - Chill Out - Lounge - Downtempo - Easy Listening - Electronic (исполнители и сборники)\ Cafe Del Mar Collection I-XXV (1994-2019) + The Best (2004, 2012)\2019 - Cafe Del Mar XXV (Volumen Veinticinco) 2CD\CD1\10. Les Jumeau

Peak level 84.2 %
Extraction speed 6.7 X
Track quality 100.0 %
Test CRC 436FFF21
Copy CRC 436FFF21
Accurately ripped (confidence 1) [563B6413] (AR v2)
Copy OK

Track 11

Filename I:\AUDIO I\Ambient - Chill Out - Lounge - Downtempo - Easy Listening - Electronic (исполнители и сборники)\ Cafe Del Mar Collection I-XXV (1994-2019) + The Best (2004, 2012)\2019 - Cafe Del Mar XXV (Volumen Veinticinco) 2CD\CD1\11. Jhelisa -

Peak level 86.9 %
Extraction speed 7.0 X
Track quality 100.0 %
Test CRC 9B3E5F7F
Copy CRC 9B3E5F7F
Accurately ripped (confidence 1) [8E01DDA0] (AR v2)
Copy OK

Track 12

Filename I:\AUDIO I\Ambient - Chill Out - Lounge - Downtempo - Easy Listening - Electronic (исполнители и сборники)\ Cafe Del Mar Collection I-XXV (1994-2019) + The Best (2004, 2012)\2019 - Cafe Del Mar XXV (Volumen Veinticinco) 2CD\CD1\12. Full Inten

Peak level 86.3 %
Extraction speed 5.7 X
Track quality 99.9 %
Test CRC 3011B263
Copy CRC 3011B263
Accurately ripped (confidence 1) [28F6DC21] (AR v2)
Copy OK

Track 13

Filename I:\AUDIO I\Ambient - Chill Out - Lounge - Downtempo - Easy Listening - Electronic (исполнители и сборники)\ Cafe Del Mar Collection I-XXV (1994-2019) + The Best (2004, 2012)\2019 - Cafe Del Mar XXV (Volumen Veinticinco) 2CD\CD1\13. Planet Fun

Peak level 86.1 %
Extraction speed 6.4 X
Track quality 99.9 %
Test CRC 64A1451C
Copy CRC 64A1451C
Accurately ripped (confidence 1) [FA1A0CC7] (AR v2)
Copy OK

Track 14

Filename I:\AUDIO I\Ambient - Chill Out - Lounge - Downtempo - Easy Listening - Electronic (исполнители и сборники)\ Cafe Del Mar Collection I-XXV (1994-2019) + The Best (2004, 2012)\2019 - Cafe Del Mar XXV (Volumen Veinticinco) 2CD\CD1\14. Joe Hume -

Peak level 86.5 %
Extraction speed 7.3 X
Track quality 100.0 %
Test CRC BBBD1260
Copy CRC BBBD1260
Accurately ripped (confidence 1) [5C179C6A] (AR v2)
Copy OK


All tracks accurately ripped

No errors occurred

End of status report

–– CUETools DB Plugin V2.1.6

[CTDB TOCID: r9KVYrJIUvDVTbDXmoazPp9eoJ0-] found
Submit result: already submitted
Track | CTDB Status
1 | (2/2) Accurately ripped
2 | (2/2) Accurately ripped
3 | (2/2) Accurately ripped
4 | (2/2) Accurately ripped
5 | (2/2) Accurately ripped
6 | (2/2) Accurately ripped
7 | (2/2) Accurately ripped
8 | (2/2) Accurately ripped
9 | (2/2) Accurately ripped
10 | (2/2) Accurately ripped
11 | (2/2) Accurately ripped
12 | (2/2) Accurately ripped
13 | (2/2) Accurately ripped
14 | (2/2) Accurately ripped


==== Log checksum 54FF850A942884AD523AB9BEAFAC7E07B26B68F2C002E88F51B8B2AE9FCA1B83 ====

[CUETools log; Date: 05.11.2019 19:47:12; Version: 2.1.4]
[CTDB TOCID: r9KVYrJIUvDVTbDXmoazPp9eoJ0-] found.
Track | CTDB Status
1 | (2/2) Accurately ripped
2 | (2/2) Accurately ripped
3 | (2/2) Accurately ripped
4 | (2/2) Accurately ripped
5 | (2/2) Accurately ripped
6 | (2/2) Accurately ripped
7 | (2/2) Accurately ripped
8 | (2/2) Accurately ripped
9 | (2/2) Accurately ripped
10 | (2/2) Accurately ripped
11 | (2/2) Accurately ripped
12 | (2/2) Accurately ripped
13 | (2/2) Accurately ripped
14 | (2/2) Accurately ripped
[AccurateRip ID: 00256149-0190ac3f-c111210e] found.
Track [ CRC | V2 ] Status
01 [09a57626|573e6f59] (0+1/1) Accurately ripped
02 [16e36cbb|5a7022c2] (0+1/1) Accurately ripped
03 [c5b57be0|488524f5] (0+1/1) Accurately ripped
04 [6f8c6d0b|ae815590] (0+1/1) Accurately ripped
05 [11cfd0a1|7dd9bea7] (0+1/1) Accurately ripped
06 [e950d384|cc9523e2] (0+1/1) Accurately ripped
07 [a291315c|1f852491] (0+1/1) Accurately ripped
08 [f4033a18|09842237] (0+1/1) Accurately ripped
09 [12832c9b|4ab3db71] (0+1/1) Accurately ripped
10 [fbbebd46|563b6413] (0+1/1) Accurately ripped
11 [fa93d5a9|8e01dda0] (0+1/1) Accurately ripped
12 [16da359f|28f6dc21] (0+1/1) Accurately ripped
13 [1f7ad542|fa1a0cc7] (0+1/1) Accurately ripped
14 [54ee6c08|5c179c6a] (0+1/1) Accurately ripped

Track Peak [ CRC32 ] [W/O NULL] [ LOG ]
– 87,4 [31CB9079] [C784F6E0]
01 86,3 [40AEBB31] [C16B47A6] CRC32
02 86,1 [0733714D] [49FF5261] CRC32
03 86,7 [3CCA1573] [54DB64AC] CRC32
04 86,9 [7A08E8B6] [A0BDD3D0] CRC32
05 86,6 [86C20239] [104631E9] CRC32
06 86,9 [15CDA0AF] [3C8B2499] CRC32
07 87,4 [700A1C58] [A035C94D] CRC32
08 86,6 [74B636CB] [2873C2DA] CRC32
09 86,6 [7497FB72] [FD62374A] CRC32
10 84,2 [436FFF21] [09B6D6FE] CRC32
11 86,9 [9B3E5F7F] [81E26D08] CRC32
12 86,3 [3011B263] [87A4074B] CRC32
13 86,1 [64A1451C] [10ACF912] CRC32
14 86,5 [BBBD1260] [B829936C] CRC32

Exact Audio Copy V1.3 from 2. September 2016

EAC extraction logfile from 2. November 2019, 15:02

Various Artists / Cafe Del Mar 25 - CD2 - Future Classics)

Used drive : PLEXTOR DVDR PX-891SA Adapter: 1 ID: 1

Read mode : Secure
Utilize accurate stream : Yes
Defeat audio cache : Yes
Make use of C2 pointers : No

Read offset correction : 6
Overread into Lead-In and Lead-Out : No
Fill up missing offset samples with silence : Yes
Delete leading and trailing silent blocks : No
Null samples used in CRC calculations : Yes
Used interface : Native Win32 interface for Win NT & 2000
Gap handling : Appended to previous track

Used output format : User Defined Encoder
Selected bitrate : 896 kBit/s
Quality : High
Add ID3 tag : No
Command line compressor : C:\Program Files (x86)\Exact Audio Copy\Flac\flac.exe
Additional command line options : -8 -V -T "ARTIST=%artist%" -T "TITLE=%title%" -T "ALBUM=%albumtitle%" -T "DATE=%year%" -T "TRACKNUMBER=%tracknr%" -T "GENRE=%genre%" -T "COMMENT=ripped by Oleandris" %source%


TOC of the extracted CD

Track | Start | Length | Start sector | End sector
––––––––––––––––––––––––––––-
1 | 0:00.00 | 3:32.65 | 0 | 15964
2 | 3:32.65 | 4:42.04 | 15965 | 37118
3 | 8:14.69 | 4:24.59 | 37119 | 56977
4 | 12:39.53 | 3:41.37 | 56978 | 73589
5 | 16:21.15 | 3:31.38 | 73590 | 89452
6 | 19:52.53 | 4:04.44 | 89453 | 107796
7 | 23:57.22 | 3:57.12 | 107797 | 125583
8 | 27:54.34 | 4:05.32 | 125584 | 143990
9 | 31:59.66 | 5:13.71 | 143991 | 167536
10 | 37:13.62 | 5:39.01 | 167537 | 192962
11 | 42:52.63 | 3:30.50 | 192963 | 208762
12 | 46:23.38 | 1:55.70 | 208763 | 217457
13 | 48:19.33 | 4:43.74 | 217458 | 238756
14 | 53:03.32 | 4:28.73 | 238757 | 258929
15 | 57:32.30 | 5:29.46 | 258930 | 283650


Track 1

Filename I:\AUDIO I\Ambient - Chill Out - Lounge - Downtempo - Easy Listening - Electronic (исполнители и сборники)\ Cafe Del Mar Collection I-XXV (1994-2019) + The Best (2004, 2012)\2019 - Cafe Del Mar XXV (Volumen Veinticinco) 2CD\CD2\01. BADBADNOTG

Pre-gap length 0:00:02.00

Peak level 86.7 %
Extraction speed 4.9 X
Track quality 100.0 %
Test CRC 91962991
Copy CRC 91962991
Accurately ripped (confidence 1) [EA6D91B1] (AR v2)
Copy OK

Track 2

Filename I:\AUDIO I\Ambient - Chill Out - Lounge - Downtempo - Easy Listening - Electronic (исполнители и сборники)\ Cafe Del Mar Collection I-XXV (1994-2019) + The Best (2004, 2012)\2019 - Cafe Del Mar XXV (Volumen Veinticinco) 2CD\CD2\02. Maribou St

Peak level 87.3 %
Extraction speed 5.7 X
Track quality 100.0 %
Test CRC 846FA6D2
Copy CRC 846FA6D2
Accurately ripped (confidence 1) [D712B3C4] (AR v2)
Copy OK

Track 3

Filename I:\AUDIO I\Ambient - Chill Out - Lounge - Downtempo - Easy Listening - Electronic (исполнители и сборники)\ Cafe Del Mar Collection I-XXV (1994-2019) + The Best (2004, 2012)\2019 - Cafe Del Mar XXV (Volumen Veinticinco) 2CD\CD2\03. Camelphat

Peak level 86.7 %
Extraction speed 6.3 X
Track quality 100.0 %
Test CRC EC7AC720
Copy CRC EC7AC720
Accurately ripped (confidence 1) [3BEA77C1] (AR v2)
Copy OK

Track 4

Filename I:\AUDIO I\Ambient - Chill Out - Lounge - Downtempo - Easy Listening - Electronic (исполнители и сборники)\ Cafe Del Mar Collection I-XXV (1994-2019) + The Best (2004, 2012)\2019 - Cafe Del Mar XXV (Volumen Veinticinco) 2CD\CD2\04. Quantic Fe

Peak level 86.5 %
Extraction speed 6.5 X
Track quality 100.0 %
Test CRC D862CF34
Copy CRC D862CF34
Accurately ripped (confidence 1) [FE0CA8A1] (AR v2)
Copy OK

Track 5

Filename I:\AUDIO I\Ambient - Chill Out - Lounge - Downtempo - Easy Listening - Electronic (исполнители и сборники)\ Cafe Del Mar Collection I-XXV (1994-2019) + The Best (2004, 2012)\2019 - Cafe Del Mar XXV (Volumen Veinticinco) 2CD\CD2\05. Sly5ThAve

Peak level 86.5 %
Extraction speed 5.6 X
Track quality 99.9 %
Test CRC B7D717F5
Copy CRC B7D717F5
Accurately ripped (confidence 1) [AAD76EF3] (AR v2)
Copy OK

Track 6

Filename I:\AUDIO I\Ambient - Chill Out - Lounge - Downtempo - Easy Listening - Electronic (исполнители и сборники)\ Cafe Del Mar Collection I-XXV (1994-2019) + The Best (2004, 2012)\2019 - Cafe Del Mar XXV (Volumen Veinticinco) 2CD\CD2\06. Ondatropic

Peak level 87.2 %
Extraction speed 7.4 X
Track quality 100.0 %
Test CRC D0BD1CB0
Copy CRC D0BD1CB0
Accurately ripped (confidence 1) [858403C3] (AR v2)
Copy OK

Track 7

Filename I:\AUDIO I\Ambient - Chill Out - Lounge - Downtempo - Easy Listening - Electronic (исполнители и сборники)\ Cafe Del Mar Collection I-XXV (1994-2019) + The Best (2004, 2012)\2019 - Cafe Del Mar XXV (Volumen Veinticinco) 2CD\CD2\07. Peggy Gou

Peak level 86.7 %
Extraction speed 7.8 X
Track quality 100.0 %
Test CRC 1640BD9A
Copy CRC 1640BD9A
Accurately ripped (confidence 1) [C4C83141] (AR v2)
Copy OK

Track 8

Filename I:\AUDIO I\Ambient - Chill Out - Lounge - Downtempo - Easy Listening - Electronic (исполнители и сборники)\ Cafe Del Mar Collection I-XXV (1994-2019) + The Best (2004, 2012)\2019 - Cafe Del Mar XXV (Volumen Veinticinco) 2CD\CD2\08. Groove Arm

Peak level 80.8 %
Extraction speed 8.1 X
Track quality 100.0 %
Test CRC 97C11B83
Copy CRC 97C11B83
Accurately ripped (confidence 1) [9499B745] (AR v2)
Copy OK

Track 9

Filename I:\AUDIO I\Ambient - Chill Out - Lounge - Downtempo - Easy Listening - Electronic (исполнители и сборники)\ Cafe Del Mar Collection I-XXV (1994-2019) + The Best (2004, 2012)\2019 - Cafe Del Mar XXV (Volumen Veinticinco) 2CD\CD2\09. Ferreck Da

Peak level 87.6 %
Extraction speed 8.7 X
Track quality 100.0 %
Test CRC 20D5CE7D
Copy CRC 20D5CE7D
Accurately ripped (confidence 1) [015233B7] (AR v2)
Copy OK

Track 10

Filename I:\AUDIO I\Ambient - Chill Out - Lounge - Downtempo - Easy Listening - Electronic (исполнители и сборники)\ Cafe Del Mar Collection I-XXV (1994-2019) + The Best (2004, 2012)\2019 - Cafe Del Mar XXV (Volumen Veinticinco) 2CD\CD2\10. Zero 7 Fea

Peak level 87.7 %
Extraction speed 9.2 X
Track quality 100.0 %
Test CRC 84D8E956
Copy CRC 84D8E956
Accurately ripped (confidence 1) [0B935913] (AR v2)
Copy OK

Track 11

Filename I:\AUDIO I\Ambient - Chill Out - Lounge - Downtempo - Easy Listening - Electronic (исполнители и сборники)\ Cafe Del Mar Collection I-XXV (1994-2019) + The Best (2004, 2012)\2019 - Cafe Del Mar XXV (Volumen Veinticinco) 2CD\CD2\11. Nickodemus

Peak level 87.0 %
Extraction speed 9.1 X
Track quality 100.0 %
Test CRC F1C97D8E
Copy CRC F1C97D8E
Accurately ripped (confidence 1) [A53AD1FE] (AR v2)
Copy OK

Track 12

Filename I:\AUDIO I\Ambient - Chill Out - Lounge - Downtempo - Easy Listening - Electronic (исполнители и сборники)\ Cafe Del Mar Collection I-XXV (1994-2019) + The Best (2004, 2012)\2019 - Cafe Del Mar XXV (Volumen Veinticinco) 2CD\CD2\12. Gizmo Vari

Peak level 86.6 %
Extraction speed 8.3 X
Track quality 100.0 %
Test CRC 29E5E869
Copy CRC 29E5E869
Accurately ripped (confidence 1) [65DF5C8E] (AR v2)
Copy OK

Track 13

Filename I:\AUDIO I\Ambient - Chill Out - Lounge - Downtempo - Easy Listening - Electronic (исполнители и сборники)\ Cafe Del Mar Collection I-XXV (1994-2019) + The Best (2004, 2012)\2019 - Cafe Del Mar XXV (Volumen Veinticinco) 2CD\CD2\13. The Cinema

Peak level 86.3 %
Extraction speed 9.9 X
Track quality 100.0 %
Test CRC D323F84D
Copy CRC D323F84D
Accurately ripped (confidence 1) [DDB2B36B] (AR v2)
Copy OK

Track 14

Filename I:\AUDIO I\Ambient - Chill Out - Lounge - Downtempo - Easy Listening - Electronic (исполнители и сборники)\ Cafe Del Mar Collection I-XXV (1994-2019) + The Best (2004, 2012)\2019 - Cafe Del Mar XXV (Volumen Veinticinco) 2CD\CD2\14. Kidnap - A

Peak level 86.7 %
Extraction speed 10.1 X
Track quality 100.0 %
Test CRC 83995450
Copy CRC 83995450
Accurately ripped (confidence 1) [0AF31BE9] (AR v2)
Copy OK

Track 15

Filename I:\AUDIO I\Ambient - Chill Out - Lounge - Downtempo - Easy Listening - Electronic (исполнители и сборники)\ Cafe Del Mar Collection I-XXV (1994-2019) + The Best (2004, 2012)\2019 - Cafe Del Mar XXV (Volumen Veinticinco) 2CD\CD2\15. UNKLE - Tr

Peak level 86.5 %
Extraction speed 10.6 X
Track quality 100.0 %
Test CRC 4BF08A88
Copy CRC 4BF08A88
Accurately ripped (confidence 1) [40C2CFC8] (AR v2)
Copy OK


All tracks accurately ripped

No errors occurred

End of status report

–– CUETools DB Plugin V2.1.6

[CTDB TOCID: _yQRZhWHGU.v1KZxaKLBCTMFOdg-] found
Submit result: already submitted
Track | CTDB Status
1 | (2/2) Accurately ripped
2 | (2/2) Accurately ripped
3 | (2/2) Accurately ripped
4 | (2/2) Accurately ripped
5 | (2/2) Accurately ripped
6 | (2/2) Accurately ripped
7 | (2/2) Accurately ripped
8 | (2/2) Accurately ripped
9 | (2/2) Accurately ripped
10 | (2/2) Accurately ripped
11 | (2/2) Accurately ripped
12 | (2/2) Accurately ripped
13 | (2/2) Accurately ripped
14 | (2/2) Accurately ripped
15 | (2/2) Accurately ripped


==== Log checksum C9B5C294AEB543D88C9AAD5BE0F44BE94BEEA313E7A842AB31D4F2F92171421B ====

[CUETools log; Date: 05.11.2019 19:47:40; Version: 2.1.4]
[CTDB TOCID: _yQRZhWHGU.v1KZxaKLBCTMFOdg-] found.
Track | CTDB Status
1 | (2/2) Accurately ripped
2 | (2/2) Accurately ripped
3 | (2/2) Accurately ripped
4 | (2/2) Accurately ripped
5 | (2/2) Accurately ripped
6 | (2/2) Accurately ripped
7 | (2/2) Accurately ripped
8 | (2/2) Accurately ripped
9 | (2/2) Accurately ripped
10 | (2/2) Accurately ripped
11 | (2/2) Accurately ripped
12 | (2/2) Accurately ripped
13 | (2/2) Accurately ripped
14 | (2/2) Accurately ripped
15 | (2/2) Accurately ripped
[AccurateRip ID: 0021da28-0180eb5b-e00ec60f] found.
Track [ CRC | V2 ] Status
01 [5168689a|ea6d91b1] (0+1/1) Accurately ripped
02 [2f283adc|d712b3c4] (0+1/1) Accurately ripped
03 [99d1effc|3bea77c1] (0+1/1) Accurately ripped
04 [2baeb5c5|fe0ca8a1] (0+1/1) Accurately ripped
05 [f8229365|aad76ef3] (0+1/1) Accurately ripped
06 [3b217f34|858403c3] (0+1/1) Accurately ripped
07 [7eacbaee|c4c83141] (0+1/1) Accurately ripped
08 [46c2185b|9499b745] (0+1/1) Accurately ripped
09 [f3f54cff|015233b7] (0+1/1) Accurately ripped
10 [fe4f9c2a|0b935913] (0+1/1) Accurately ripped
11 [a99fae0d|a53ad1fe] (0+1/1) Accurately ripped
12 [612fa171|65df5c8e] (0+1/1) Accurately ripped
13 [c2fa6640|ddb2b36b] (0+1/1) Accurately ripped
14 [f1833f77|0af31be9] (0+1/1) Accurately ripped
15 [130457d5|40c2cfc8] (0+1/1) Accurately ripped

Track Peak [ CRC32 ] [W/O NULL] [ LOG ]
– 87,7 [924EA7A0] [2B4BA802]
01 86,7 [91962991] [F29A906D] CRC32
02 87,3 [846FA6D2] [FFFF37D1] CRC32
03 86,6 [EC7AC720] [EFEB3910] CRC32
04 86,5 [D862CF34] [A44B1F81] CRC32
05 86,5 [B7D717F5] [DC54C7D3] CRC32
06 87,2 [D0BD1CB0] [63BC233E] CRC32
07 86,7 [1640BD9A] [AB7EC41A] CRC32
08 80,8 [97C11B83] [378BF9B5] CRC32
09 87,6 [20D5CE7D] [5FFDC71C] CRC32
10 87,7 [84D8E956] [1D4BA877] CRC32
11 87,0 [F1C97D8E] [E1EA7A13] CRC32
12 86,6 [29E5E869] [6F8356F3] CRC32
13 86,3 [D323F84D] [F65FEA60] CRC32
14 86,7 [83995450] [6C206990] CRC32
15 86,5 [4BF08A88] [C85D53D9] CRC32

Thanks to Oleandris

See also:
V.A. - Café Del Mar XXIV (Volumen Veinticuatro) (2018)