Subcategories

V.A. - Chillout Moods [8CD Box Set] (2001)

Posted By: gribovar
V.A. - Chillout Moods [8CD Box Set] (2001)

V.A. - Chillout Moods [8CD Box Set] (2001)
EAC Rip | APE (image+.cue+log) - 3,44 GB | MP3 CBR 320 kbps (LAME 3.93) - 1,47 GB | Covers included
Genre: New Age, Electronic, World | RAR 3% Rec. | Label: Disky Communications (BX 647752)

This 8 CD box set of 128 tracks will blow your mind with a wide range of chill out music from various artists. It ranges from artists of the 60s and 70s such as Brian and Roger Eno, Mike Oldfield, Tangerine Dream, Klaus Schulze, Jon Anderson, Rick Wakeman, Genesis, to world music from artists like Shelia Chandra, Govinda, Joi, Baaba Maal, to classical themes by Ennio Morricone, Tasmin Little, Michael Nyman and Barrington Pheloung, to New Age and Celtic music from Enigma, Matt Molloy, Mae McKenna, David Byrne, Sacred Spirit, Adiemus, Douglas Spotted Eagle, Yulara, Clear Sound Project, Penquin Cafe Orchestra plus many many more varieties of artists and music. This box set is real good value for money and will satisfy everyones taste and mood for chillout music.

V.A. - Chillout Moods [8CD Box Set] (2001)

CD 1
EAC Rip | APE (image+.cue+log) - 461 MB | MP3 CBR 320 kbps (LAME 3.93) - 189 MB | Covers (5 MB) included
Genre: New Age, Electronic, World | RAR 3% Rec. | Label: Disky Communications (BX 645862)

Tracklist:
01. Mike Oldfield - Tubular Bells
02. Hevia - Busindre Reel
03. Sacred Spirit - Heya-Hee (Intertribal Song To Stop The Rain)
04. Altan - The Waves Of Gola
05. Adiemus - Kayama
06. Chris Hinze - Angel
07. Douglas Spotted Eagle - Grandfather's Song
08. Amarna - Night Rain
09. Jon Anderson - Change We Must
10. Robbie Robertson & The Red Road Ensemble - The Vanishing Breed
11. Brian Eno - From The Same Hill
12. Feargal Sharkey - She Moved Through The Fair
13. Kate Price - Beloved
14. David Arkenstone - Jewels Of The Night
15. Craig Armstrong - Balcony Scene (Romeo And Juliet)
16. Gerry Rafferty - The Right Moment

Total time: 01:18:12

Exact Audio Copy V0.99 prebeta 4 from 23. January 2008

EAC extraction logfile from 22. April 2008, 1:45

Various / Chillout Moods (CD-1)

Used drive : PIONEER DVD-RW DVR-110D Adapter: 0 ID: 0

Read mode : Secure
Utilize accurate stream : Yes
Defeat audio cache : Yes
Make use of C2 pointers : No

Read offset correction : 48
Overread into Lead-In and Lead-Out : No
Fill up missing offset samples with silence : Yes
Delete leading and trailing silent blocks : No
Null samples used in CRC calculations : Yes
Used interface : Installed external ASPI interface

Used output format : Internal WAV Routines
Sample format : 44.100 Hz; 16 Bit; Stereo


TOC of the extracted CD

Track | Start | Length | Start sector | End sector
––––––––––––––––––––––––––––-
1 | 0:00.00 | 4:14.39 | 0 | 19088
2 | 4:14.39 | 4:25.21 | 19089 | 38984
3 | 8:39.60 | 7:32.21 | 38985 | 72905
4 | 16:12.06 | 3:46.53 | 72906 | 89908
5 | 19:58.59 | 3:57.26 | 89909 | 107709
6 | 23:56.10 | 9:16.29 | 107710 | 149438
7 | 33:12.39 | 3:38.28 | 149439 | 165816
8 | 36:50.67 | 5:07.64 | 165817 | 188905
9 | 41:58.56 | 5:34.57 | 188906 | 214012
10 | 47:33.38 | 4:41.26 | 214013 | 235113
11 | 52:14.64 | 2:51.03 | 235114 | 247941
12 | 55:05.67 | 3:05.57 | 247942 | 261873
13 | 58:11.49 | 5:24.46 | 261874 | 286219
14 | 63:36.20 | 6:04.21 | 286220 | 313540
15 | 69:40.41 | 5:18.28 | 313541 | 337418
16 | 74:58.69 | 3:13.27 | 337419 | 351920


Range status and errors

Selected range

Filename F:\- V A-\Chillout Moods (8CD BOX) _ 2001\Chillout Moods (CD-1) _ 2001\Chillout Moods (CD-1) _ 2001.wav

Peak level 95.7 %
Range quality 100.0 %
Test CRC 1F1E552B
Copy CRC 1F1E552B
Copy OK

No errors occurred


AccurateRip summary

Track 1 cannot be verified as accurate (confidence 2) [ECB56358], AccurateRip returned [01D774B6]
Track 2 cannot be verified as accurate (confidence 2) [F08259AB], AccurateRip returned [1A455EC1]
Track 3 cannot be verified as accurate (confidence 2) [4932D403], AccurateRip returned [AC32CC21]
Track 4 cannot be verified as accurate (confidence 2) [825C8F5F], AccurateRip returned [E05097F6]
Track 5 cannot be verified as accurate (confidence 2) [11D6D266], AccurateRip returned [9BCBA46A]
Track 6 cannot be verified as accurate (confidence 2) [866C5E51], AccurateRip returned [B7B22F36]
Track 7 cannot be verified as accurate (confidence 2) [0C16687E], AccurateRip returned [31340572]
Track 8 cannot be verified as accurate (confidence 2) [6933F001], AccurateRip returned [9B239E3A]
Track 9 cannot be verified as accurate (confidence 2) [294831D2], AccurateRip returned [C02E5AC6]
Track 10 cannot be verified as accurate (confidence 2) [0E34AD2A], AccurateRip returned [476A8FF6]
Track 11 cannot be verified as accurate (confidence 2) [34F696BE], AccurateRip returned [B6EF0F6F]
Track 12 cannot be verified as accurate (confidence 2) [8F4AB6E2], AccurateRip returned [AF7A0A2E]
Track 13 cannot be verified as accurate (confidence 2) [CA7F80D3], AccurateRip returned [DBBB3FA3]
Track 14 cannot be verified as accurate (confidence 2) [460EACDF], AccurateRip returned [45089FAE]
Track 15 cannot be verified as accurate (confidence 2) [D3AD40D5], AccurateRip returned [44615F24]
Track 16 cannot be verified as accurate (confidence 2) [5893BFFF], AccurateRip returned [BD681E09]

No tracks could be verified as accurate
You may have a different pressing from the one(s) in the database

End of status report

[CUETools log; Date: 08.04.2017 2:58:26; Version: 2.1.4]
[CTDB TOCID: SVFiKz5HO8kEzWp8RwbwN6IkDMU-] found.
Track | CTDB Status
1 | (53/53) Accurately ripped
2 | (53/53) Accurately ripped
3 | (53/53) Accurately ripped
4 | (53/53) Accurately ripped
5 | (53/53) Accurately ripped
6 | (53/53) Accurately ripped
7 | (53/53) Accurately ripped
8 | (53/53) Accurately ripped
9 | (52/53) Accurately ripped
10 | (53/53) Accurately ripped
11 | (53/53) Accurately ripped
12 | (53/53) Accurately ripped
13 | (53/53) Accurately ripped
14 | (52/53) Accurately ripped
15 | (53/53) Accurately ripped
16 | (53/53) Accurately ripped
[AccurateRip ID: 002f0265-0231b884-d2125410] found.
Track [ CRC | V2 ] Status
01 [ecb56358|b5005d16] (09+05/42) Accurately ripped
02 [f08259ab|a9ccc965] (09+05/42) Accurately ripped
03 [4932d403|cdb77485] (09+05/42) Accurately ripped
04 [825c8f5f|67b86f15] (09+05/42) Accurately ripped
05 [11d6d266|5fec1dc4] (09+05/42) Accurately ripped
06 [866c5e51|49c9469f] (09+05/42) Accurately ripped
07 [0c16687e|d656e654] (09+05/42) Accurately ripped
08 [6933f001|f45f8789] (09+05/42) Accurately ripped
09 [294831d2|e23e34ec] (09+05/42) Accurately ripped
10 [0e34ad2a|a25489da] (09+05/42) Accurately ripped
11 [34f696be|86b24fda] (08+05/41) Accurately ripped
12 [8f4ab6e2|b26d6da5] (09+05/42) Accurately ripped
13 [ca7f80d3|46ad7342] (09+05/42) Accurately ripped
14 [460eacdf|f97d8398] (09+05/43) Accurately ripped
15 [d3ad40d5|1a970d29] (09+05/43) Accurately ripped
16 [5893bfff|06ae27fd] (07+05/41) Accurately ripped
Offsetted by 12:
01 [01d774b6] (09/42) Accurately ripped
02 [1a455ec1] (09/42) Accurately ripped
03 [ac32cc21] (09/42) Accurately ripped
04 [e05097f6] (09/42) Accurately ripped
05 [9bcba46a] (09/42) Accurately ripped
06 [b7b22f36] (09/42) Accurately ripped
07 [31340572] (09/42) Accurately ripped
08 [9b239e3a] (09/42) Accurately ripped
09 [c02e5ac6] (09/42) Accurately ripped
10 [476a8ff6] (09/42) Accurately ripped
11 [b6ef0f6f] (09/41) Accurately ripped
12 [af7a0a2e] (09/42) Accurately ripped
13 [dbbb3fa3] (09/42) Accurately ripped
14 [45089fae] (09/43) Accurately ripped
15 [44615f24] (09/43) Accurately ripped
16 [bd681e09] (09/41) Accurately ripped
Offsetted by 82:
01 [9bae79ce] (02/42) Accurately ripped
02 [a09d0da6] (02/42) Accurately ripped
03 [13634729] (02/42) Accurately ripped
04 [2ba1bd5b] (02/42) Accurately ripped
05 [0675bba2] (02/42) Accurately ripped
06 [b55bf9f3] (02/42) Accurately ripped
07 [30aa2517] (02/42) Accurately ripped
08 [ee7f06b5] (02/42) Accurately ripped
09 [9698cb18] (02/42) Accurately ripped
10 [ca296700] (02/42) Accurately ripped
11 [e03246f5] (02/41) Accurately ripped
12 [c69c1dc3] (02/42) Accurately ripped
13 [97619b93] (02/42) Accurately ripped
14 [9d4136da] (02/43) Accurately ripped
15 [4424c694] (02/43) Accurately ripped
16 [711b6569] (02/41) Accurately ripped
Offsetted by -597:
01 [8b04e3bf] (00/42) No match (V2 was not tested)
02 [7c5f3069] (00/42) No match (V2 was not tested)
03 [d2c9a3f9] (00/42) No match (V2 was not tested)
04 [11904035] (00/42) No match (V2 was not tested)
05 [5b3dd67a] (00/42) No match (V2 was not tested)
06 [2a95ac1b] (00/42) No match (V2 was not tested)
07 [419bc6a2] (00/42) No match (V2 was not tested)
08 [86ebfadb] (00/42) No match (V2 was not tested)
09 [6ef34818] (00/42) No match (V2 was not tested)
10 [d88034cc] (00/42) No match (V2 was not tested)
11 [123781ce] (00/41) No match (V2 was not tested)
12 [2e91f077] (00/42) No match (V2 was not tested)
13 [fb076e61] (00/42) No match (V2 was not tested)
14 [4fc90ef1] (00/43) No match (V2 was not tested)
15 [0987c26a] (00/43) No match (V2 was not tested)
16 [0685b767] (00/41) No match (V2 was not tested)
Offsetted by 70:
01 [36a4a1ef] (00/42) No match (V2 was not tested)
02 [76e5089d] (00/42) No match (V2 was not tested)
03 [08a54f1a] (00/42) No match (V2 was not tested)
04 [5b7ab4a5] (00/42) No match (V2 was not tested)
05 [7bc932fe] (00/42) No match (V2 was not tested)
06 [1c6cc2d9] (00/42) No match (V2 was not tested)
07 [0afc95dc] (00/42) No match (V2 was not tested)
08 [93df5868] (00/42) No match (V2 was not tested)
09 [00b4e5d5] (00/42) No match (V2 was not tested)
10 [e334843b] (00/42) No match (V2 was not tested)
11 [77a9cf03] (00/41) No match (V2 was not tested)
12 [a4d7c998] (00/42) No match (V2 was not tested)
13 [8626dcd3] (00/42) No match (V2 was not tested)
14 [be462316] (00/43) No match (V2 was not tested)
15 [96b0a85b] (00/43) No match (V2 was not tested)
16 [0bbdf57c] (00/41) No match (V2 was not tested)

Track Peak [ CRC32 ] [W/O NULL] [ LOG ]
– 95,7 [1F1E552B] [B88CE838] CRC32
01 95,7 [0B6D3D91] [94F4FC1A]
02 93,8 [D2EF4719] [B3A2022E]
03 95,7 [67388146] [8000C63D]
04 93,8 [7486FF68] [6B768F4E]
05 95,7 [F899CE56] [B76BFAC9]
06 95,7 [17F55C00] [3AFF60DF]
07 95,7 [4B23A06C] [53F240FF]
08 95,7 [DECD6D0F] [7A0DD30B]
09 94,4 [5AD3E71B] [4DC1401B]
10 95,7 [486ACB6B] [9D0ADECA]
11 95,7 [6199D320] [FD239C81]
12 93,8 [1E02A5AA] [6F672D9E]
13 93,6 [C5AE6BBB] [73758974]
14 95,7 [6F7DF71B] [91E7B68C]
15 95,7 [4D8FED4B] [1C724722]
16 94,5 [24471C46] [74ADDD86]

V.A. - Chillout Moods [8CD Box Set] (2001)

CD 2
EAC Rip | APE (image+.cue+log) - 430 MB | MP3 CBR 320 kbps (LAME 3.93) - 183 MB | Covers (5 MB) included
Genre: New Age, Electronic, World | RAR 3% Rec. | Label: Disky Communications (BX 645872)

Tracklist:
01. Douglas Spotted Eagle - Fire Dance
02. Miles Inc. - Children
03. Dune - Who Wants To Live Forever
04. Roxy Music - Tara
05. Tangerine Dream - Love On A Real Train
06. Sacred Spirit - Yeha Noha (Wishes Of Happiness & Prosperity)
07. Chris Hinze - Mantras & Names (Remix II)
08. Colin Towns - Full Circle (Main Theme)
09. Mike Oldfield - Incantations (Part 4-Excerpt)
10. Vision II - The Ocean
11. Hans Zimmer - Courting Song - Love In The Himalaya
12. Matt Molloy - Chinese Lake Reflections
13. Klaus Schulze - Floating
14. Assorted Artists - Chinese Canon
15. Clear Project Studio - Alegria
16. The Future Sound Of London - Cascade

Total time: 01:15:40

Exact Audio Copy V0.99 prebeta 4 from 23. January 2008

EAC extraction logfile from 22. April 2008, 0:38

Various / Chillout Moods (CD-2)

Used drive : PIONEER DVD-RW DVR-110D Adapter: 0 ID: 0

Read mode : Secure
Utilize accurate stream : Yes
Defeat audio cache : Yes
Make use of C2 pointers : No

Read offset correction : 48
Overread into Lead-In and Lead-Out : No
Fill up missing offset samples with silence : Yes
Delete leading and trailing silent blocks : No
Null samples used in CRC calculations : Yes
Used interface : Installed external ASPI interface

Used output format : Internal WAV Routines
Sample format : 44.100 Hz; 16 Bit; Stereo


TOC of the extracted CD

Track | Start | Length | Start sector | End sector
––––––––––––––––––––––––––––-
1 | 0:00.00 | 4:38.49 | 0 | 20898
2 | 4:38.49 | 3:48.72 | 20899 | 38070
3 | 8:27.46 | 3:55.73 | 38071 | 55768
4 | 12:23.44 | 1:35.57 | 55769 | 62950
5 | 13:59.26 | 3:56.12 | 62951 | 80662
6 | 17:55.38 | 4:26.55 | 80663 | 100667
7 | 22:22.18 | 5:43.40 | 100668 | 126432
8 | 28:05.58 | 5:17.34 | 126433 | 150241
9 | 33:23.17 | 4:40.28 | 150242 | 171269
10 | 38:03.45 | 3:44.64 | 171270 | 188133
11 | 41:48.34 | 3:20.11 | 188134 | 203144
12 | 45:08.45 | 2:47.59 | 203145 | 215728
13 | 47:56.29 | 11:23.02 | 215729 | 266955
14 | 59:19.31 | 4:33.24 | 266956 | 287454
15 | 63:52.55 | 5:45.54 | 287455 | 313383
16 | 69:38.34 | 6:01.15 | 313384 | 340473


Range status and errors

Selected range

Filename F:\- V A-\Chillout Moods (8CD BOX) _ 2001\Chillout Moods (CD-2) _ 2001\Chillout Moods (CD-2) _ 2001.wav

Peak level 95.7 %
Range quality 99.9 %
Test CRC 5FC825D5
Copy CRC 5FC825D5
Copy OK

No errors occurred


AccurateRip summary

Track 1 not present in database
Track 2 not present in database
Track 3 not present in database
Track 4 not present in database
Track 5 not present in database
Track 6 not present in database
Track 7 not present in database
Track 8 not present in database
Track 9 not present in database
Track 10 not present in database
Track 11 not present in database
Track 12 not present in database
Track 13 not present in database
Track 14 not present in database
Track 15 not present in database
Track 16 not present in database

None of the tracks are present in the AccurateRip database

End of status report

[CUETools log; Date: 08.04.2017 2:59:52; Version: 2.1.4]
[CTDB TOCID: nV.DskrRzSFb8lcYCPeL3jfDQY8-] found.
Track | CTDB Status
1 | (39/39) Accurately ripped
2 | (39/39) Accurately ripped
3 | (39/39) Accurately ripped
4 | (39/39) Accurately ripped
5 | (39/39) Accurately ripped
6 | (39/39) Accurately ripped
7 | (39/39) Accurately ripped
8 | (39/39) Accurately ripped
9 | (39/39) Accurately ripped
10 | (39/39) Accurately ripped
11 | (39/39) Accurately ripped
12 | (39/39) Accurately ripped
13 | (39/39) Accurately ripped
14 | (39/39) Accurately ripped
15 | (39/39) Accurately ripped
16 | (38/39) Accurately ripped
[AccurateRip ID: 00280323-01ea2455-d911bb10] found.
Track [ CRC | V2 ] Status
01 [aebffd5f|bc8ff93b] (12+07/27) Accurately ripped
02 [acf80aad|826b685f] (12+07/27) Accurately ripped
03 [d8ee654a|caec900d] (12+07/27) Accurately ripped
04 [28f7fecd|f4e742fb] (12+07/27) Accurately ripped
05 [142c3e28|eaeb4e1f] (12+07/27) Accurately ripped
06 [cfe321ef|1c22d5ed] (12+06/26) Accurately ripped
07 [e37d9e10|fefb44ee] (12+06/26) Accurately ripped
08 [98a33bf6|d5dbc963] (12+06/26) Accurately ripped
09 [60e87750|a9399e95] (12+06/26) Accurately ripped
10 [2caa6b33|5fd8e135] (12+06/26) Accurately ripped
11 [20f89e7b|ab9c3c27] (12+06/26) Accurately ripped
12 [2a296dba|25f7f85a] (12+06/26) Accurately ripped
13 [9493c056|1e9f51c8] (12+06/26) Accurately ripped
14 [16b7841f|a2ea8857] (12+07/27) Accurately ripped
15 [a8e0952c|4edb58ef] (12+07/27) Accurately ripped
16 [19466b10|67decd42] (12+08/28) Accurately ripped
Offsetted by -12:
01 [e75de59b] (03/27) Accurately ripped
02 [ba8e6f51] (03/27) Accurately ripped
03 [427dc592] (03/27) Accurately ripped
04 [aa1de105] (03/27) Accurately ripped
05 [efa5b2f0] (03/27) Accurately ripped
06 [106a2d63] (03/26) Accurately ripped
07 [efca7428] (03/26) Accurately ripped
08 [0a865ee2] (03/26) Accurately ripped
09 [cab094d8] (03/26) Accurately ripped
10 [93ab49ef] (03/26) Accurately ripped
11 [9629d3a3] (03/26) Accurately ripped
12 [c2de5cf2] (03/26) Accurately ripped
13 [d985c5de] (03/26) Accurately ripped
14 [6fe6eb37] (03/27) Accurately ripped
15 [5a79bf08] (03/27) Accurately ripped
16 [e6b9782c] (03/28) Accurately ripped

Track Peak [ CRC32 ] [W/O NULL] [ LOG ]
– 95,7 [5FC825D5] [B505BF4F] CRC32
01 95,7 [E770EE50] [2CF4EE7F]
02 95,7 [4B46AC19] [C49EACF0]
03 85,9 [2F4B651B] [E235682B]
04 93,8 [BB2DB446] [E7587D62]
05 93,8 [CEC37566] [6D66FD8A]
06 68,6 [0E49FD6F] [4E885B34]
07 67,0 [857F9DC1] [205A2F9F]
08 95,4 [D3279280] [9B493942]
09 95,7 [969C2428] [8F089421]
10 94,2 [AFF77B98] [6350D4B0]
11 95,4 [63AB1FD0] [C2EBB1F8]
12 94,0 [66B34AFA] [323F24CA]
13 90,7 [6D765281] [09D1ED19]
14 93,9 [2D63E908] [3F31C5DE]
15 95,4 [A809BBFA] [BC3B8203]
16 93,9 [43D4C7BF] [901F072B]

V.A. - Chillout Moods [8CD Box Set] (2001)

CD 3
EAC Rip | APE (image+.cue+log) - 432 MB | MP3 CBR 320 kbps (LAME 3.93) - 191 MB | Covers (5 MB) included
Genre: New Age, Electronic, World | RAR 3% Rec. | Label: Disky Communications (BX 645882)

Tracklist:
01. Enigma - Sadeness (Part 1)
02. David Bedford - King Aeolus
03. Ennio Morricone - The Man With The Harmonica
04. Future Sound Of London, The - Lifeforms (Path 4)
05. Dj Snow - Theme From 'The X-Files' (Dance Version)
06. Sacred Spirit - Roots
07. Barrington Pheloung - Theme From 'Inspector Morse'
08. Paul Schutze - Sleep 2
09. Spencer Brewer - Portraits
10. Michael Nyman - The Heart Asks Pleasure First - The Promise
11. Roger Eno - Through The Blue
12. Divine Works - Ancient Person Of My Heart
13. 3rd Force - Echoes Of A Dream
14. Michael Gettel - Cumbrian Autumn
15. Sheila Chandra - Excerpt From A Bone Crone Done 3
16. Iarla O Lionaird - Seacht

Total time: 01:18:53

Exact Audio Copy V0.99 prebeta 4 from 23. January 2008

EAC extraction logfile from 22. April 2008, 0:11

Various / Chillout Moods (CD-3)

Used drive : PIONEER DVD-RW DVR-110D Adapter: 0 ID: 0

Read mode : Secure
Utilize accurate stream : Yes
Defeat audio cache : Yes
Make use of C2 pointers : No

Read offset correction : 48
Overread into Lead-In and Lead-Out : No
Fill up missing offset samples with silence : Yes
Delete leading and trailing silent blocks : No
Null samples used in CRC calculations : Yes
Used interface : Installed external ASPI interface

Used output format : Internal WAV Routines
Sample format : 44.100 Hz; 16 Bit; Stereo


TOC of the extracted CD

Track | Start | Length | Start sector | End sector
––––––––––––––––––––––––––––-
1 | 0:00.00 | 4:04.66 | 0 | 18365
2 | 4:04.66 | 4:27.36 | 18366 | 38426
3 | 8:32.27 | 3:23.43 | 38427 | 53694
4 | 11:55.70 | 8:57.57 | 53695 | 94026
5 | 20:53.52 | 4:13.07 | 94027 | 113008
6 | 25:06.59 | 3:54.69 | 113009 | 130627
7 | 29:01.53 | 3:24.37 | 130628 | 145964
8 | 32:26.15 | 8:17.55 | 145965 | 183294
9 | 40:43.70 | 4:29.67 | 183295 | 203536
10 | 45:13.62 | 3:10.45 | 203537 | 217831
11 | 48:24.32 | 4:16.71 | 217832 | 237102
12 | 52:41.28 | 3:21.56 | 237103 | 252233
13 | 56:03.09 | 5:58.69 | 252234 | 279152
14 | 62:02.03 | 6:41.60 | 279153 | 309287
15 | 68:43.63 | 3:57.38 | 309288 | 327100
16 | 72:41.26 | 6:11.71 | 327101 | 354996


Range status and errors

Selected range

Filename F:\- V A-\Chillout Moods (8CD BOX) _ 2001\Chillout Moods (CD-3) _ 2001\Chillout Moods (CD-3) _ 2001.wav

Peak level 95.7 %
Range quality 100.0 %
Test CRC 89EC5358
Copy CRC 89EC5358
Copy OK

No errors occurred


AccurateRip summary

Track 1 not present in database
Track 2 not present in database
Track 3 not present in database
Track 4 accurately ripped (confidence 2) [4AB3A59E]
Track 5 not present in database
Track 6 not present in database
Track 7 not present in database
Track 8 not present in database
Track 9 not present in database
Track 10 not present in database
Track 11 not present in database
Track 12 not present in database
Track 13 not present in database
Track 14 not present in database
Track 15 not present in database
Track 16 not present in database

1 track(s) accurately ripped
15 track(s) not present in the AccurateRip database

Some tracks could not be verified as accurate

End of status report

[CUETools log; Date: 08.04.2017 3:01:51; Version: 2.1.4]
[CTDB TOCID: q9.reRiyKdbwO8tRjdVMqya_mbM-] found.
Track | CTDB Status
1 | (26/26) Accurately ripped
2 | (26/26) Accurately ripped
3 | (26/26) Accurately ripped
4 | (26/26) Accurately ripped
5 | (26/26) Accurately ripped
6 | (26/26) Accurately ripped
7 | (26/26) Accurately ripped
8 | (26/26) Accurately ripped
9 | (26/26) Accurately ripped
10 | (26/26) Accurately ripped
11 | (26/26) Accurately ripped
12 | (26/26) Accurately ripped
13 | (26/26) Accurately ripped
14 | (25/26) Accurately ripped
15 | (25/26) Accurately ripped
16 | (25/26) Accurately ripped
[AccurateRip ID: 002d2541-021f7f15-e0127d10] found.
Track [ CRC | V2 ] Status
01 [0278d6be|a7d87885] (13+05/18) Accurately ripped
02 [34b58150|0d10777d] (13+05/18) Accurately ripped
03 [05cc3fec|01c7e13a] (13+05/18) Accurately ripped
04 [4ab3a59e|c3ccac48] (14+05/19) Accurately ripped
05 [4c5468a9|ff0b0a71] (13+05/18) Accurately ripped
06 [28d42715|788b28f7] (13+05/18) Accurately ripped
07 [049fd95e|c179fd96] (13+05/18) Accurately ripped
08 [46d275bf|efcc972f] (13+05/18) Accurately ripped
09 [f53a88fc|141e301e] (13+05/18) Accurately ripped
10 [aa7968bf|8aa3d882] (13+05/18) Accurately ripped
11 [223bf007|a96e0bdb] (13+05/18) Accurately ripped
12 [c3119b89|834b93bf] (13+05/18) Accurately ripped
13 [50281ebf|37e71e10] (12+05/17) Accurately ripped
14 [41d9991f|758afa45] (12+05/17) Accurately ripped
15 [27c28f9c|f7be2495] (13+05/18) Accurately ripped
16 [dd1cdaf3|095d9c3b] (11+05/16) Accurately ripped

Track Peak [ CRC32 ] [W/O NULL] [ LOG ]
– 95,7 [89EC5358] [D9F6C8C7] CRC32
01 95,7 [B2DE55E1] [202CCF16]
02 93,6 [852ED8DA] [8FF10DF6]
03 95,7 [03010B75] [C1C99632]
04 67,0 [A79130C5] [A93689E8]
05 92,5 [E190FFF4] [4568123B]
06 95,7 [C563F703] [EC7C303E]
07 89,2 [22721094] [C95B9A55]
08 94,3 [9BDF94EE] [516F48D1]
09 95,7 [29A94B0E] [13E0B78E]
10 95,7 [CBA39462] [24E05298]
11 83,1 [B2FE9BCF] [324F595E]
12 95,7 [BC1AA845] [E9B1AFDC]
13 95,7 [B68A36B9] [428207E5]
14 93,6 [7227B4C8] [9466BB53]
15 89,9 [92E869AB] [6AFF4394]
16 93,6 [36CA38C9] [A3DB01DA]

V.A. - Chillout Moods [8CD Box Set] (2001)

CD 4
EAC Rip | APE (image+.cue+log) - 420 MB | MP3 CBR 320 kbps (LAME 3.93) - 183 MB | Covers (5 MB) included
Genre: New Age, Electronic, World | RAR 3% Rec. | Label: Disky Communications (BX 645892)

Tracklist:
01. Sacred Spirit - Tor-Cheney-Nahana (Winter Ceremony)
02. Harold Budd And Brian Eno - The Pearl
03. Mike Oldfield - Jungle Gardenia
04. Tasmin Little - Theme From Schindlers List
05. Hans Zimmer - The Stone Drag
06. Robbie Robertson And The Red Road Ensemble - Mahk ichi (Heartbeat Drum Song)
07. Michael Gettel - When All Is Quiet (She Dreams Of Horses)
08. Adiemus - Rain Dance
09. David Sylvian - I Surrender
10. Ennio Morricone - Chi mai
11. Tangerine Dream - Rubycon (Part 2)
12. Baaba Maal - Call To A Prayer
13. Edge, The - Island
14. Christopher Franke - A Radiant Band Of Light
15. Joi - Oh My People
16. Soul II Soul - Courtney Blows

Total time: 01:15:28

Exact Audio Copy V0.99 prebeta 4 from 23. January 2008

EAC extraction logfile from 21. April 2008, 23:42

Various / Chillout Moods (CD-4)

Used drive : PIONEER DVD-RW DVR-110D Adapter: 0 ID: 0

Read mode : Secure
Utilize accurate stream : Yes
Defeat audio cache : Yes
Make use of C2 pointers : No

Read offset correction : 48
Overread into Lead-In and Lead-Out : No
Fill up missing offset samples with silence : Yes
Delete leading and trailing silent blocks : No
Null samples used in CRC calculations : Yes
Used interface : Installed external ASPI interface

Used output format : Internal WAV Routines
Sample format : 44.100 Hz; 16 Bit; Stereo


TOC of the extracted CD

Track | Start | Length | Start sector | End sector
––––––––––––––––––––––––––––-
1 | 0:00.00 | 6:55.64 | 0 | 31188
2 | 6:55.64 | 3:00.30 | 31189 | 44718
3 | 9:56.19 | 2:33.61 | 44719 | 56254
4 | 12:30.05 | 4:56.66 | 56255 | 78520
5 | 17:26.71 | 2:21.31 | 78521 | 89126
6 | 19:48.27 | 4:11.26 | 89127 | 107977
7 | 23:59.53 | 6:47.21 | 107978 | 138523
8 | 30:46.74 | 3:53.17 | 138524 | 156015
9 | 34:40.16 | 9:16.00 | 156016 | 197715
10 | 43:56.16 | 5:03.62 | 197716 | 220502
11 | 49:00.03 | 6:23.29 | 220503 | 249256
12 | 55:23.32 | 3:52.26 | 249257 | 266682
13 | 59:15.58 | 1:53.09 | 266683 | 275166
14 | 61:08.67 | 4:32.17 | 275167 | 295583
15 | 65:41.09 | 5:20.22 | 295584 | 319605
16 | 71:01.31 | 4:26.63 | 319606 | 339618


Range status and errors

Selected range

Filename F:\- V A-\Chillout Moods (8CD BOX) _ 2001\Chillout Moods (CD-4) _ 2001\Chillout Moods (CD-4) _ 2001.wav

Peak level 92.6 %
Range quality 100.0 %
Test CRC ACD0CB23
Copy CRC ACD0CB23
Copy OK

No errors occurred


AccurateRip summary

Track 1 accurately ripped (confidence 1) [48B68EF6]
Track 2 accurately ripped (confidence 1) [38358BA0]
Track 3 accurately ripped (confidence 1) [D0D57D53]
Track 4 accurately ripped (confidence 1) [51E1ED2C]
Track 5 accurately ripped (confidence 1) [C2BE9F8C]
Track 6 accurately ripped (confidence 1) [DF903F50]
Track 7 accurately ripped (confidence 1) [07FE9FC8]
Track 8 accurately ripped (confidence 1) [CCF5FFE8]
Track 9 accurately ripped (confidence 1) [F95B8388]
Track 10 accurately ripped (confidence 1) [496CE87A]
Track 11 accurately ripped (confidence 1) [85A5E98B]
Track 12 accurately ripped (confidence 1) [E0B59E51]
Track 13 accurately ripped (confidence 1) [4FB981AB]
Track 14 accurately ripped (confidence 1) [E7B31396]
Track 15 accurately ripped (confidence 1) [AAA56AE9]
Track 16 accurately ripped (confidence 1) [BDA0E60B]

All tracks accurately ripped

End of status report

[CUETools log; Date: 08.04.2017 3:03:38; Version: 2.1.4]
[CTDB TOCID: .h4u_M19DKM24NzIYCTaJsf4nBk-] found.
Track | CTDB Status
1 | (21/21) Accurately ripped
2 | (21/21) Accurately ripped
3 | (21/21) Accurately ripped
4 | (21/21) Accurately ripped
5 | (21/21) Accurately ripped
6 | (20/21) Accurately ripped
7 | (21/21) Accurately ripped
8 | (21/21) Accurately ripped
9 | (21/21) Accurately ripped
10 | (21/21) Accurately ripped
11 | (20/21) Accurately ripped
12 | (21/21) Accurately ripped
13 | (21/21) Accurately ripped
14 | (21/21) Accurately ripped
15 | (21/21) Accurately ripped
16 | (20/21) Accurately ripped
[AccurateRip ID: 002bbd20-0210bbc6-ec11b010] found.
Track [ CRC | V2 ] Status
01 [48b68ef6|670769bc] (14+06/20) Accurately ripped
02 [38358ba0|a24bad29] (14+06/20) Accurately ripped
03 [d0d57d53|c7ea32a3] (14+06/20) Accurately ripped
04 [51e1ed2c|8fc912f4] (14+06/20) Accurately ripped
05 [c2be9f8c|10d1f878] (14+06/20) Accurately ripped
06 [df903f50|ff654d3c] (14+05/19) Accurately ripped
07 [07fe9fc8|a7735fd7] (14+06/20) Accurately ripped
08 [ccf5ffe8|e92aae4e] (14+06/20) Accurately ripped
09 [f95b8388|7277277d] (14+06/20) Accurately ripped
10 [496ce87a|9b6f7a40] (14+06/20) Accurately ripped
11 [85a5e98b|59552487] (13+06/19) Accurately ripped
12 [e0b59e51|b2bcd702] (14+06/20) Accurately ripped
13 [4fb981ab|9691a1a0] (14+06/20) Accurately ripped
14 [e7b31396|d4812740] (14+06/20) Accurately ripped
15 [aaa56ae9|d90c07f8] (14+06/20) Accurately ripped
16 [bda0e60b|7c66dae2] (13+06/19) Accurately ripped

Track Peak [ CRC32 ] [W/O NULL] [ LOG ]
– 92,6 [ACD0CB23] [3E68711B] CRC32
01 90,8 [5077144A] [961BD351]
02 92,6 [A01B1B8D] [33B6102A]
03 92,3 [D571FDBE] [6E04F615]
04 90,5 [4DC18B53] [550BF662]
05 92,3 [BC3B1CBA] [622EAA29]
06 90,8 [1D646825] [848C5F89]
07 92,3 [667FB7C1] [948F0A4A]
08 91,3 [F6320CA8] [C3B17C39]
09 81,3 [0A3BB6CF] [402FFA48]
10 90,5 [388E1647] [0ECBE391]
11 91,3 [C3C469E0] [EE66BB24]
12 92,6 [939E035C] [AABC077E]
13 91,4 [DD3B4146] [EEE24FCF]
14 77,7 [F93BA292] [C20194C5]
15 61,0 [24963878] [A81C05E1]
16 89,5 [34A37523] [36A5DD50]

V.A. - Chillout Moods [8CD Box Set] (2001)

CD 5
EAC Rip | APE (image+.cue+log) - 425 MB | MP3 CBR 320 kbps (LAME 3.93) - 186 MB | Covers (5 MB) included
Genre: New Age, Electronic, World | RAR 3% Rec. | Label: Disky Communications (BX 645902)

Tracklist:
01. Adiemus - Cantus -'Song Of Tears'
02. The Grid - Angel Tech
03. Nusrat Fateh Ali Khan - Mustt Mustt
04. Divine Works - Father Of Eternal Life
05. The Edge - Rowena's Theme
06. Ryuichi Sakamoto with Youssou N'Dour - Diabaram
07. Alpha - Sometime Later
08. Christopher Franke - Black Garden View
09. Ennio Morricone - Once Upon A Time In The West
10. Brian Eno - Another Green World
11. Craig Armstrong - This Love
12. David Arkenstone - Discovery
13. Mike Oldfield - Hibernaculum
14. Paban Das Baul & Sam Mills - Dil Ki Doya
15. Tama - Ta'aba (The Leaving)
16. The Future Sound Of London - Ephidrena

Total time: 01:16:54

Exact Audio Copy V0.99 prebeta 4 from 23. January 2008

EAC extraction logfile from 21. April 2008, 22:47

Various / Chillout Moods (CD-5)

Used drive : PIONEER DVD-RW DVR-110D Adapter: 0 ID: 0

Read mode : Secure
Utilize accurate stream : Yes
Defeat audio cache : Yes
Make use of C2 pointers : No

Read offset correction : 48
Overread into Lead-In and Lead-Out : No
Fill up missing offset samples with silence : Yes
Delete leading and trailing silent blocks : No
Null samples used in CRC calculations : Yes
Used interface : Installed external ASPI interface

Used output format : Internal WAV Routines
Sample format : 44.100 Hz; 16 Bit; Stereo


TOC of the extracted CD

Track | Start | Length | Start sector | End sector
––––––––––––––––––––––––––––-
1 | 0:00.00 | 3:56.00 | 0 | 17699
2 | 3:56.00 | 4:38.25 | 17700 | 38574
3 | 8:34.25 | 5:28.72 | 38575 | 63246
4 | 14:03.22 | 5:03.55 | 63247 | 86026
5 | 19:07.02 | 3:56.27 | 86027 | 103753
6 | 23:03.29 | 4:02.00 | 103754 | 121903
7 | 27:05.29 | 6:34.61 | 121904 | 151514
8 | 33:40.15 | 4:50.34 | 151515 | 173298
9 | 38:30.49 | 5:02.19 | 173299 | 195967
10 | 43:32.68 | 1:28.24 | 195968 | 202591
11 | 45:01.17 | 6:11.30 | 202592 | 230446
12 | 51:12.47 | 3:34.66 | 230447 | 246562
13 | 54:47.38 | 3:24.14 | 246563 | 261876
14 | 58:11.52 | 5:24.56 | 261877 | 286232
15 | 63:36.33 | 4:48.25 | 286233 | 307857
16 | 68:24.58 | 8:29.31 | 307858 | 346063


Range status and errors

Selected range

Filename F:\- V A-\Chillout Moods (8CD BOX) _ 2001\Chillout Moods (CD-5) _ 2001\Chillout Moods (CD-5) _ 2001.wav

Copy aborted

End of status report

––––––––––––––––––––––––––––––

Exact Audio Copy V0.99 prebeta 4 from 23. January 2008

EAC extraction logfile from 21. April 2008, 23:11

Various / Chillout Moods (CD-5)

Used drive : PIONEER DVD-RW DVR-110D Adapter: 0 ID: 0

Read mode : Secure
Utilize accurate stream : Yes
Defeat audio cache : Yes
Make use of C2 pointers : No

Read offset correction : 48
Overread into Lead-In and Lead-Out : No
Fill up missing offset samples with silence : Yes
Delete leading and trailing silent blocks : No
Null samples used in CRC calculations : Yes
Used interface : Installed external ASPI interface

Used output format : Internal WAV Routines
Sample format : 44.100 Hz; 16 Bit; Stereo


TOC of the extracted CD

Track | Start | Length | Start sector | End sector
––––––––––––––––––––––––––––-
1 | 0:00.00 | 3:56.00 | 0 | 17699
2 | 3:56.00 | 4:38.25 | 17700 | 38574
3 | 8:34.25 | 5:28.72 | 38575 | 63246
4 | 14:03.22 | 5:03.55 | 63247 | 86026
5 | 19:07.02 | 3:56.27 | 86027 | 103753
6 | 23:03.29 | 4:02.00 | 103754 | 121903
7 | 27:05.29 | 6:34.61 | 121904 | 151514
8 | 33:40.15 | 4:50.34 | 151515 | 173298
9 | 38:30.49 | 5:02.19 | 173299 | 195967
10 | 43:32.68 | 1:28.24 | 195968 | 202591
11 | 45:01.17 | 6:11.30 | 202592 | 230446
12 | 51:12.47 | 3:34.66 | 230447 | 246562
13 | 54:47.38 | 3:24.14 | 246563 | 261876
14 | 58:11.52 | 5:24.56 | 261877 | 286232
15 | 63:36.33 | 4:48.25 | 286233 | 307857
16 | 68:24.58 | 8:29.31 | 307858 | 346063


Range status and errors

Selected range

Filename F:\CDI collection\- V A-\Chillout Moods (8CD BOX) _ 2001\Chillout Moods (CD-5) _ 2001\Chillout Moods (CD-5) _ 2001.wav

Peak level 95.7 %
Range quality 100.0 %
Test CRC 1593441F
Copy CRC 1593441F
Copy OK

No errors occurred


AccurateRip summary

Track 1 accurately ripped (confidence 4) [82BA9FF7]
Track 2 accurately ripped (confidence 4) [E26C59FF]
Track 3 accurately ripped (confidence 4) [F1B4B0B4]
Track 4 accurately ripped (confidence 4) [6E32CD21]
Track 5 accurately ripped (confidence 4) [FE383BA8]
Track 6 accurately ripped (confidence 4) [B72964EB]
Track 7 accurately ripped (confidence 4) [0B8377EB]
Track 8 accurately ripped (confidence 4) [13F6165F]
Track 9 accurately ripped (confidence 4) [009CA94A]
Track 10 accurately ripped (confidence 4) [DD9C064F]
Track 11 accurately ripped (confidence 4) [3496E38C]
Track 12 accurately ripped (confidence 4) [12D4442F]
Track 13 accurately ripped (confidence 4) [A3B51DBB]
Track 14 accurately ripped (confidence 4) [6570B533]
Track 15 accurately ripped (confidence 4) [20A0D115]
Track 16 accurately ripped (confidence 4) [D56FCCC5]

All tracks accurately ripped

End of status report

[CUETools log; Date: 08.04.2017 3:05:24; Version: 2.1.4]
[CTDB TOCID: a5P2rT5cnSXVH.u54PGkykkiVYU-] found.
Track | CTDB Status
1 | (55/55) Accurately ripped
2 | (55/55) Accurately ripped
3 | (54/55) Accurately ripped
4 | (54/55) Accurately ripped
5 | (55/55) Accurately ripped
6 | (55/55) Accurately ripped
7 | (55/55) Accurately ripped
8 | (55/55) Accurately ripped
9 | (55/55) Accurately ripped
10 | (54/55) Accurately ripped
11 | (54/55) Accurately ripped
12 | (55/55) Accurately ripped
13 | (54/55) Accurately ripped
14 | (55/55) Accurately ripped
15 | (54/55) Accurately ripped
16 | (55/55) Accurately ripped
[AccurateRip ID: 002b3cd7-0206f120-d9120610] found.
Track [ CRC | V2 ] Status
01 [82ba9ff7|08ced797] (22+19/47) Accurately ripped
02 [e26c59ff|8c286661] (22+19/47) Accurately ripped
03 [f1b4b0b4|f03549f6] (22+19/47) Accurately ripped
04 [6e32cd21|dde74c02] (22+19/47) Accurately ripped
05 [fe383ba8|70ae97e4] (22+19/47) Accurately ripped
06 [b72964eb|26647b8a] (22+19/47) Accurately ripped
07 [0b8377eb|025c6e37] (22+19/47) Accurately ripped
08 [13f6165f|64ba328c] (22+19/47) Accurately ripped
09 [009ca94a|f2e45d8c] (22+19/47) Accurately ripped
10 [dd9c064f|62d15afe] (22+19/47) Accurately ripped
11 [3496e38c|4bb6c4d1] (22+18/46) Accurately ripped
12 [12d4442f|92708606] (21+19/46) Accurately ripped
13 [a3b51dbb|ffa9f528] (22+19/47) Accurately ripped
14 [6570b533|1b474d33] (22+19/47) Accurately ripped
15 [20a0d115|64640e71] (22+19/47) Accurately ripped
16 [d56fccc5|e8ccd0c0] (19+19/44) Accurately ripped
Offsetted by -12:
01 [93e3c112] (02/47) Accurately ripped
02 [20ea8c43] (02/47) Accurately ripped
03 [7da8d2b7] (02/47) Accurately ripped
04 [7e5514f7] (02/47) Accurately ripped
05 [aed71f27] (02/47) Accurately ripped
06 [8179bd32] (02/47) Accurately ripped
07 [37b9da47] (02/47) Accurately ripped
08 [1aa1be6e] (02/47) Accurately ripped
09 [2a9cd485] (02/47) Accurately ripped
10 [15847a11] (02/47) Accurately ripped
11 [943f9a32] (02/46) Accurately ripped
12 [2a7d50a3] (02/46) Accurately ripped
13 [35004149] (02/47) Accurately ripped
14 [bbec5376] (02/47) Accurately ripped
15 [da9614f6] (02/47) Accurately ripped
16 [55f679b9] (02/44) Accurately ripped
Offsetted by -18:
01 [5ffd2d7e] (00/47) No match (V2 was not tested)
02 [1ae5cb06] (00/47) No match (V2 was not tested)
03 [94f3357a] (00/47) No match (V2 was not tested)
04 [38376a4a] (00/47) No match (V2 was not tested)
05 [816a9d9b] (00/47) No match (V2 was not tested)
06 [5275fd34] (00/47) No match (V2 was not tested)
07 [a5c20e9a] (00/47) No match (V2 was not tested)
08 [64cd4c05] (00/47) No match (V2 was not tested)
09 [40029c10] (00/47) No match (V2 was not tested)
10 [68d46b31] (00/47) No match (V2 was not tested)
11 [4ed26b40] (00/46) No match (V2 was not tested)
12 [d1f02313] (00/46) No match (V2 was not tested)
13 [6447063c] (00/47) No match (V2 was not tested)
14 [dfa21be9] (00/47) No match (V2 was not tested)
15 [314133ed] (00/47) No match (V2 was not tested)
16 [17918f22] (00/44) No match (V2 was not tested)

Track Peak [ CRC32 ] [W/O NULL] [ LOG ]
– 95,7 [1593441F] [CE5B21C6] CRC32
01 93,8 [EC2328D1] [CCAAD9A5]
02 95,7 [58FAE6EB] [4A0A1D45]
03 93,8 [636C7C7A] [6D5949E0]
04 93,8 [41A523C6] [3DDBF5D2]
05 92,6 [30834489] [75964ACA]
06 93,8 [CDFABB2E] [25ED0AEE]
07 59,2 [12293C18] [775B8A51]
08 88,6 [F83038C8] [FDCE9675]
09 95,7 [9C355449] [81F80908]
10 81,9 [3D79FD67] [C5DDB5BD]
11 66,4 [DF87F576] [56E0BF17]
12 78,9 [0409C283] [FEAE3F23]
13 95,7 [2B1E66D1] [C0FF512E]
14 93,8 [9666ACDD] [A9834A76]
15 93,8 [46911887] [8D256D3A]
16 95,0 [207B8694] [FF84C489]

V.A. - Chillout Moods [8CD Box Set] (2001)

CD 6
EAC Rip | APE (image+.cue+log) - 424 MB | MP3 CBR 320 kbps (LAME 3.93) - 175 MB | Covers (5 MB) included
Genre: New Age, Electronic, World | RAR 3% Rec. | Label: Disky Communications (BX 645912)

Tracklist:
01. Genesis - The Brazilian
02. Mike Oldfield - Platinum (Part 1 - Airborn)
03. Kate Price - The Isle Of Dreaming
04. Brian Eno - Sombre Reptiles
05. Douglas Spotted Eagle - Silent Trail
06. The Gardyne Chamber Ensemble - The Gypsy
07. Sacred Spirit - You've Gotta Learn (Three Kingdoms)
08. David Sylvian - Home
09. Philip Glass - Etoile Polaire (North Star)
10. Adiemus - Hymn
11. Tangerine Dream - The Dream Is Always The Same
12. Runrig - An Ubhal As Airde (The Highest Apple)
13. Ultravox - Dreams
14. Craig Armstrong - Weather Storm
15. Penguin Cafe Orchestra - Perpetuum Mobile
16. Suite Chinoise

Total time: 01:12:32

Exact Audio Copy V0.99 prebeta 4 from 23. January 2008

EAC extraction logfile from 21. April 2008, 22:36

Various / Chillout Moods (CD-6)

Used drive : PIONEER DVD-RW DVR-110D Adapter: 0 ID: 0

Read mode : Secure
Utilize accurate stream : Yes
Defeat audio cache : Yes
Make use of C2 pointers : No

Read offset correction : 48
Overread into Lead-In and Lead-Out : No
Fill up missing offset samples with silence : Yes
Delete leading and trailing silent blocks : No
Null samples used in CRC calculations : Yes
Used interface : Installed external ASPI interface

Used output format : Internal WAV Routines
Sample format : 44.100 Hz; 16 Bit; Stereo


TOC of the extracted CD

Track | Start | Length | Start sector | End sector
––––––––––––––––––––––––––––-
1 | 0:00.00 | 4:50.00 | 0 | 21749
2 | 4:50.00 | 5:08.65 | 21750 | 44914
3 | 9:58.65 | 7:29.00 | 44915 | 78589
4 | 17:27.65 | 2:17.30 | 78590 | 88894
5 | 19:45.20 | 6:24.37 | 88895 | 117731
6 | 26:09.57 | 2:11.68 | 117732 | 127624
7 | 28:21.50 | 3:51.37 | 127625 | 144986
8 | 32:13.12 | 4:08.15 | 144987 | 163601
9 | 36:21.27 | 2:38.28 | 163602 | 175479
10 | 38:59.55 | 2:39.10 | 175480 | 187414
11 | 41:38.65 | 3:41.32 | 187415 | 204021
12 | 45:20.22 | 3:45.65 | 204022 | 220961
13 | 49:06.12 | 2:31.41 | 220962 | 232327
14 | 51:37.53 | 6:00.74 | 232328 | 259401
15 | 57:38.52 | 4:30.21 | 259402 | 279672
16 | 62:08.73 | 10:22.42 | 279673 | 326364


Range status and errors

Selected range

Filename F:\- V A-\Chillout Moods (8CD BOX) _ 2001\Chillout Moods (CD-6) _ 2001\Chillout Moods (CD-6) _ 2001.wav

Peak level 95.7 %
Range quality 100.0 %
Test CRC 99A535E6
Copy CRC 99A535E6
Copy OK

No errors occurred


AccurateRip summary

Track 1 cannot be verified as accurate (confidence 1) [3277520A], AccurateRip returned [0B6FCFBE]
Track 2 cannot be verified as accurate (confidence 1) [2F6197EF], AccurateRip returned [7A85DFFF]
Track 3 cannot be verified as accurate (confidence 1) [C00E0D8F], AccurateRip returned [93A4F1E5]
Track 4 cannot be verified as accurate (confidence 1) [B86A89D5], AccurateRip returned [2AF63762]
Track 5 cannot be verified as accurate (confidence 1) [C166AD43], AccurateRip returned [2701B3B6]
Track 6 cannot be verified as accurate (confidence 1) [D21D9AB0], AccurateRip returned [26EF606D]
Track 7 cannot be verified as accurate (confidence 1) [35ED1D88], AccurateRip returned [312B7B54]
Track 8 cannot be verified as accurate (confidence 1) [5E8A13BE], AccurateRip returned [8646D1B8]
Track 9 cannot be verified as accurate (confidence 1) [45D49D9A], AccurateRip returned [73902E4B]
Track 10 cannot be verified as accurate (confidence 1) [16031AE0], AccurateRip returned [7AA0897C]
Track 11 cannot be verified as accurate (confidence 1) [6478FE1A], AccurateRip returned [F3A3EA98]
Track 12 cannot be verified as accurate (confidence 1) [120C93C5], AccurateRip returned [42DB31DC]
Track 13 cannot be verified as accurate (confidence 1) [400FE991], AccurateRip returned [ADE96BC9]
Track 14 cannot be verified as accurate (confidence 1) [D05CA0C2], AccurateRip returned [FAFE7517]
Track 15 cannot be verified as accurate (confidence 1) [B9B16410], AccurateRip returned [702D5635]
Track 16 cannot be verified as accurate (confidence 1) [F7BEFB5F], AccurateRip returned [4C5C4DA7]

No tracks could be verified as accurate
You may have a different pressing from the one(s) in the database

End of status report

[CUETools log; Date: 08.04.2017 3:09:18; Version: 2.1.4]
[CTDB TOCID: YRDQWLOCs729S2z12g_unJ8Rg3Q-] found.
Track | CTDB Status
1 | (36/36) Accurately ripped
2 | (35/36) Accurately ripped
3 | (36/36) Accurately ripped
4 | (36/36) Accurately ripped
5 | (36/36) Accurately ripped
6 | (36/36) Accurately ripped
7 | (36/36) Accurately ripped
8 | (36/36) Accurately ripped
9 | (36/36) Accurately ripped
10 | (35/36) Accurately ripped
11 | (35/36) Accurately ripped
12 | (35/36) Accurately ripped
13 | (35/36) Accurately ripped
14 | (35/36) Accurately ripped
15 | (35/36) Accurately ripped
16 | (34/36) Accurately ripped
[AccurateRip ID: 0028cc4f-01e03cfc-d110ff10] found.
Track [ CRC | V2 ] Status
01 [3277520a|55a38056] (02+03/23) Accurately ripped
02 [2f6197ef|07e5425d] (02+03/23) Accurately ripped
03 [c00e0d8f|ad8107a1] (02+03/23) Accurately ripped
04 [b86a89d5|96156490] (02+03/23) Accurately ripped
05 [c166ad43|7cbcc422] (02+03/23) Accurately ripped
06 [d21d9ab0|4ebbe9a8] (02+03/23) Accurately ripped
07 [35ed1d88|ead9ac9c] (02+03/23) Accurately ripped
08 [5e8a13be|986701fb] (02+03/23) Accurately ripped
09 [45d49d9a|e8dfe938] (02+03/23) Accurately ripped
10 [16031ae0|7b9e3fc5] (02+03/23) Accurately ripped
11 [6478fe1a|ca1b1f1a] (02+03/23) Accurately ripped
12 [120c93c5|329c51c0] (02+03/23) Accurately ripped
13 [400fe991|52ab61ff] (02+03/23) Accurately ripped
14 [d05ca0c2|57dc372b] (02+03/23) Accurately ripped
15 [b9b16410|f87e6791] (02+03/23) Accurately ripped
16 [f7befb5f|3d85e323] (02+03/22) Accurately ripped
Offsetted by 12:
01 [0b6fcfbe] (02/23) Accurately ripped
02 [7a85dfff] (02/23) Accurately ripped
03 [93a4f1e5] (02/23) Accurately ripped
04 [2af63762] (02/23) Accurately ripped
05 [2701b3b6] (02/23) Accurately ripped
06 [26ef606d] (02/23) Accurately ripped
07 [312b7b54] (02/23) Accurately ripped
08 [8646d1b8] (02/23) Accurately ripped
09 [73902e4b] (02/23) Accurately ripped
10 [7aa0897c] (02/23) Accurately ripped
11 [f3a3ea98] (02/23) Accurately ripped
12 [42db31dc] (02/23) Accurately ripped
13 [ade96bc9] (02/23) Accurately ripped
14 [fafe7517] (02/23) Accurately ripped
15 [702d5635] (02/23) Accurately ripped
16 [4c5c4da7] (02/22) Accurately ripped
Offsetted by 560:
01 [cc2cf976] (04/23) Accurately ripped
02 [f698069b] (04/23) Accurately ripped
03 [33ad863d] (04/23) Accurately ripped
04 [55aa0f4a] (04/23) Accurately ripped
05 [69677bb3] (04/23) Accurately ripped
06 [09273697] (04/23) Accurately ripped
07 [21c93c29] (04/23) Accurately ripped
08 [46bb24c9] (04/23) Accurately ripped
09 [cf668a8d] (04/23) Accurately ripped
10 [03197368] (04/23) Accurately ripped
11 [6ba36f55] (04/23) Accurately ripped
12 [e854c5f3] (04/23) Accurately ripped
13 [c7e4e743] (04/23) Accurately ripped
14 [36147386] (04/23) Accurately ripped
15 [62aae964] (04/23) Accurately ripped
16 [99e9aff6] (03/22) Accurately ripped
Offsetted by 621:
01 [72802ba9] (04/23) Accurately ripped
02 [5d43da24] (04/23) Accurately ripped
03 [7bc21de6] (04/23) Accurately ripped
04 [8114e25e] (04/23) Accurately ripped
05 [59791c81] (04/23) Accurately ripped
06 [fcfe73eb] (04/23) Accurately ripped
07 [bb8e80ca] (04/23) Accurately ripped
08 [a7ec419b] (04/23) Accurately ripped
09 [4c5ac5e4] (04/23) Accurately ripped
10 [c73bcd69] (04/23) Accurately ripped
11 [fffc8cf2] (04/23) Accurately ripped
12 [5d479135] (04/23) Accurately ripped
13 [8dc6892d] (04/23) Accurately ripped
14 [b95ff09b] (04/23) Accurately ripped
15 [9793acca] (04/23) Accurately ripped
16 [66e4ef49] (04/22) Accurately ripped

Track Peak [ CRC32 ] [W/O NULL] [ LOG ]
– 95,7 [99A535E6] [750EEA0D] CRC32
01 58,8 [F0344643] [ADEBE07A]
02 95,7 [9A2E14A3] [8B51A049]
03 93,6 [8922256B] [B4B0D7EE]
04 94,1 [0302AA75] [9F549AD1]
05 95,7 [CA12DA8A] [9175A0F1]
06 90,3 [8CCBCFB9] [986B629E]
07 95,7 [2B0DBBF8] [8883444B]
08 94,1 [FBBA3C40] [434DEAC5]
09 93,6 [64349429] [FCA8721C]
10 94,3 [E89929AF] [BCB076DD]
11 93,6 [EBFB18CD] [F7D3FF5D]
12 70,3 [77932E02] [512321A7]
13 93,2 [C6AE6581] [B9A8FE50]
14 95,7 [37080A2E] [58067924]
15 93,6 [4466EEC2] [E1CF2CBC]
16 95,7 [8F7838E3] [A1402418]

V.A. - Chillout Moods [8CD Box Set] (2001)

CD 7
EAC Rip | APE (image+.cue+log) - 428 MB | MP3 CBR 320 kbps (LAME 3.93) - 188 MB | Covers (5 MB) included
Genre: New Age, Electronic, World | RAR 3% Rec. | Label: Disky Communications (BX 645922)

Tracklist:
01. Adiemus - Beyond The Century
02. Jocelyn Pook - Masked Ball (1999 Remix)
03. Hevia - El Garrotin
04. Jonathan Caine - Body Language
05. Neal Schon - Cool Breeze
06. The Future Sound Of London - My Kingdom
07. Ennio Morricone - Theme From The Mission
08. Julia Fordham - Happy Ever After
09. Yulara - Narayana
10. Vision I - Vision
11. Harold Budd & Brian Eno - Their Memories
12. Clear Project Studio - Quidam
13. Seigen Ono - The Green Chinese Table
14. Joy - Fingers
15. Govinda - Exotica
16. Ryuichi Sakamoto & David Sylvian - Forbidden Colors

Total time: 01:17:50

Exact Audio Copy V0.99 prebeta 4 from 23. January 2008

EAC extraction logfile from 21. April 2008, 22:14

Various / Chillout Moods (CD-7)

Used drive : PIONEER DVD-RW DVR-110D Adapter: 0 ID: 0

Read mode : Secure
Utilize accurate stream : Yes
Defeat audio cache : Yes
Make use of C2 pointers : No

Read offset correction : 48
Overread into Lead-In and Lead-Out : No
Fill up missing offset samples with silence : Yes
Delete leading and trailing silent blocks : No
Null samples used in CRC calculations : Yes
Used interface : Installed external ASPI interface

Used output format : Internal WAV Routines
Sample format : 44.100 Hz; 16 Bit; Stereo


TOC of the extracted CD

Track | Start | Length | Start sector | End sector
––––––––––––––––––––––––––––-
1 | 0:00.00 | 4:52.61 | 0 | 21960
2 | 4:52.61 | 6:09.60 | 21961 | 49695
3 | 11:02.46 | 4:25.10 | 49696 | 69580
4 | 15:27.56 | 4:31.26 | 69581 | 89931
5 | 19:59.07 | 4:49.64 | 89932 | 111670
6 | 24:48.71 | 5:49.08 | 111671 | 137853
7 | 30:38.04 | 2:48.59 | 137854 | 150512
8 | 33:26.63 | 4:41.09 | 150513 | 171596
9 | 38:07.72 | 5:14.51 | 171597 | 195197
10 | 43:22.48 | 3:37.29 | 195198 | 211501
11 | 47:00.02 | 2:42.15 | 211502 | 223666
12 | 49:42.17 | 5:35.60 | 223667 | 248851
13 | 55:18.02 | 6:19.33 | 248852 | 277309
14 | 61:37.35 | 6:30.66 | 277310 | 306625
15 | 68:08.26 | 4:12.15 | 306626 | 325540
16 | 72:20.41 | 5:29.00 | 325541 | 350215


Range status and errors

Selected range

Filename F:\- V A-\Chillout Moods (8CD BOX) _ 2001\Chillout Moods (CD-7) _ 2001\Chillout Moods (CD-7) _ 2001.wav

Peak level 92.5 %
Range quality 100.0 %
Test CRC 9B5C5D17
Copy CRC 9B5C5D17
Copy OK

No errors occurred


AccurateRip summary

Track 1 not present in database
Track 2 not present in database
Track 3 not present in database
Track 4 not present in database
Track 5 not present in database
Track 6 not present in database
Track 7 not present in database
Track 8 not present in database
Track 9 not present in database
Track 10 not present in database
Track 11 not present in database
Track 12 not present in database
Track 13 not present in database
Track 14 not present in database
Track 15 not present in database
Track 16 not present in database

None of the tracks are present in the AccurateRip database

End of status report

[CUETools log; Date: 08.04.2017 3:10:46; Version: 2.1.4]
[CTDB TOCID: Fwa4kfPDigESf1mPcbL8fhEvROM-] found.
Track | CTDB Status
1 | (42/42) Accurately ripped
2 | (41/42) Accurately ripped
3 | (42/42) Accurately ripped
4 | (42/42) Accurately ripped
5 | (42/42) Accurately ripped
6 | (42/42) Accurately ripped
7 | (42/42) Accurately ripped
8 | (42/42) Accurately ripped
9 | (42/42) Accurately ripped
10 | (42/42) Accurately ripped
11 | (42/42) Accurately ripped
12 | (39/42) Accurately ripped, or (2/42) differs in 20 samples @00:13:07
13 | (42/42) Accurately ripped
14 | (42/42) Accurately ripped
15 | (42/42) Accurately ripped
16 | (35/42) Accurately ripped
[AccurateRip ID: 002ce315-02184984-e1123d10] found.
Track [ CRC | V2 ] Status
01 [cf70e299|77ecc75b] (14+10/37) Accurately ripped
02 [f7b6403c|ee1e7d68] (14+10/37) Accurately ripped
03 [559827d3|b2a54322] (14+10/37) Accurately ripped
04 [2a651c33|486893e0] (14+10/37) Accurately ripped
05 [b631bd62|5b7ee2e0] (14+10/37) Accurately ripped
06 [969809d0|b4f33ed9] (14+10/37) Accurately ripped
07 [c1aff389|03f9308a] (14+10/37) Accurately ripped
08 [226ca41e|9cf6c2aa] (14+10/37) Accurately ripped
09 [b895d952|be34a366] (14+10/37) Accurately ripped
10 [ce4175c4|67cd6851] (14+10/37) Accurately ripped
11 [ea56424f|a57639d5] (13+10/36) Accurately ripped
12 [f3ed6272|ab9fc947] (13+10/36) Accurately ripped
13 [b87f48fd|41a63437] (14+10/37) Accurately ripped
14 [da101923|eedbe75f] (14+10/37) Accurately ripped
15 [f4e32c6b|491a2641] (13+10/36) Accurately ripped
16 [3826ab00|13eb1b52] (14+10/37) Accurately ripped
Offsetted by -303:
01 [26619c7e] (03/37) Accurately ripped
02 [e9b7b44e] (03/37) Accurately ripped
03 [fbf4ca52] (03/37) Accurately ripped
04 [069d5798] (03/37) Accurately ripped
05 [09e36fea] (03/37) Accurately ripped
06 [84a5a668] (03/37) Accurately ripped
07 [0afccc87] (03/37) Accurately ripped
08 [97d97801] (03/37) Accurately ripped
09 [597127c5] (03/37) Accurately ripped
10 [c957482b] (03/37) Accurately ripped
11 [f000a895] (03/36) Accurately ripped
12 [e1f42e58] (03/36) Accurately ripped
13 [dca9f574] (03/37) Accurately ripped
14 [8b73bd41] (03/37) Accurately ripped
15 [dcb277eb] (03/36) Accurately ripped
16 [ddcf6618] (00/37) No match (V2 was not tested)
Offsetted by -12:
01 [0e2808ea] (00/37) No match (V2 was not tested)
02 [49472d1a] (00/37) No match (V2 was not tested)
03 [626fabd8] (00/37) No match (V2 was not tested)
04 [4ed57e41] (00/37) No match (V2 was not tested)
05 [ebb105b8] (00/37) No match (V2 was not tested)
06 [b90edfce] (00/37) No match (V2 was not tested)
07 [b057e62b] (00/37) No match (V2 was not tested)
08 [9d0f05a6] (00/37) No match (V2 was not tested)
09 [dd2b7dd7] (00/37) No match (V2 was not tested)
10 [3cb99de0] (00/37) No match (V2 was not tested)
11 [53d636b8] (00/36) No match (V2 was not tested)
12 [1c797d08] (00/36) No match (V2 was not tested)
13 [ab99cd4d] (00/37) No match (V2 was not tested)
14 [b0dd6ed8] (00/37) No match (V2 was not tested)
15 [7c2b5b67] (00/36) No match (V2 was not tested)
16 [d7b262dc] (00/37) No match (V2 was not tested)
Offsetted by 294:
01 [2c380b0b] (02/37) Accurately ripped
02 [b4997c40] (02/37) Accurately ripped
03 [0f8fdddf] (02/37) Accurately ripped
04 [698b5fff] (02/37) Accurately ripped
05 [b655cb88] (02/37) Accurately ripped
06 [044a7f21] (02/37) Accurately ripped
07 [4fcc007e] (02/37) Accurately ripped
08 [2ba8822e] (02/37) Accurately ripped
09 [61b6a080] (02/37) Accurately ripped
10 [e07dd7d3] (02/37) Accurately ripped
11 [edbbc851] (02/36) Accurately ripped
12 [75d3b9dc] (00/36) No match (V2 was not tested)
13 [a8e11341] (02/37) Accurately ripped
14 [1cb1c787] (02/37) Accurately ripped
15 [3ed7cd89] (02/36) Accurately ripped
16 [d668cd9f] (02/37) Accurately ripped

Track Peak [ CRC32 ] [W/O NULL] [ LOG ]
– 92,5 [9B5C5D17] [45CAF18C] CRC32
01 92,5 [77343AFF] [1DB4D923]
02 67,1 [DAEA22AA] [CBAE6933]
03 60,2 [A93D89BA] [9A3C9F91]
04 92,5 [65E41303] [BBC00B43]
05 82,9 [61F1B04F] [DF65ED4C]
06 90,6 [8406C53E] [7D5D4755]
07 92,5 [5B5541EA] [3C646D84]
08 72,3 [2B9D26EF] [A60EE600]
09 89,7 [CBFEC5E2] [2A900923]
10 89,8 [8C20319A] [56EE1792]
11 83,0 [CA75EBC6] [1DBF7FEA]
12 81,7 [A4A8671C] [87B8B18C]
13 90,6 [6DC028BF] [1E182656]
14 81,0 [397C3E1F] [1F821763]
15 78,8 [AD3CC3CC] [AF4FF19A]
16 92,5 [3D005BCA] [350E7677]

V.A. - Chillout Moods [8CD Box Set] (2001)

CD 8
EAC Rip | APE (image+.cue+log) - 439 MB | MP3 CBR 320 kbps (LAME 3.93) - 183 MB | Covers (5 MB) included
Genre: New Age, Electronic, World | RAR 3% Rec. | Label: Disky Communications (BX 645932)

Tracklist:
1. Simple Minds - Somebody Up There Likes You
02. Bryan Ferry - I Put A Spell On You
03. Brian Eno - An Ending (Ascent)
04. Dealer - Scott Walker
05. Adiemus - Cantus Insolitus
06. Craig Chaquico - Indian Spring
07. David Byrne - The Last Emperor
08. Sheila Chandra - Ever So Lonely
09. Mae McKenna - Sayonara
10. The Gardyne Chamber Ensemble - Riverdance
11. David Arkenstone - Magic Forest
12. Rick Wakeman - The Journey
13. Mike Oldfield - Guilty
14. Yulara - Horizon
15. Ennio Morricone - Cockey's Song
16. Tempus Fugit - Variazioni

Total time: 01:15:49

Exact Audio Copy V0.99 prebeta 4 from 23. January 2008

EAC extraction logfile from 21. April 2008, 21:46

Various / Chillout Moods (CD-8)

Used drive : PIONEER DVD-RW DVR-110D Adapter: 0 ID: 0

Read mode : Secure
Utilize accurate stream : Yes
Defeat audio cache : Yes
Make use of C2 pointers : No

Read offset correction : 48
Overread into Lead-In and Lead-Out : No
Fill up missing offset samples with silence : Yes
Delete leading and trailing silent blocks : No
Null samples used in CRC calculations : Yes
Used interface : Installed external ASPI interface

Used output format : Internal WAV Routines
Sample format : 44.100 Hz; 16 Bit; Stereo


TOC of the extracted CD

Track | Start | Length | Start sector | End sector
––––––––––––––––––––––––––––-
1 | 0:00.00 | 4:45.21 | 0 | 21395
2 | 4:45.21 | 5:22.34 | 21396 | 45579
3 | 10:07.55 | 4:09.17 | 45580 | 64271
4 | 14:16.72 | 4:51.04 | 64272 | 86100
5 | 19:08.01 | 5:33.51 | 86101 | 111126
6 | 24:41.52 | 3:29.42 | 111127 | 126843
7 | 28:11.19 | 3:59.19 | 126844 | 144787
8 | 32:10.38 | 3:17.10 | 144788 | 159572
9 | 35:27.48 | 5:48.20 | 159573 | 185692
10 | 41:15.68 | 5:31.66 | 185693 | 210583
11 | 46:47.59 | 5:38.12 | 210584 | 235945
12 | 52:25.71 | 4:00.72 | 235946 | 254017
13 | 56:26.68 | 6:02.18 | 254018 | 281185
14 | 62:29.11 | 6:38.60 | 281186 | 311095
15 | 69:07.71 | 4:13.59 | 311096 | 330129
16 | 73:21.55 | 2:27.15 | 330130 | 341169


Range status and errors

Selected range

Filename F:\- V A-\Chillout Moods (8CD BOX) _ 2001\Chillout Moods (CD-8) _ 2001\Chillout Moods (CD-8) _ 2001.wav

Peak level 94.8 %
Range quality 99.9 %
Test CRC C8EDFAA7
Copy CRC C8EDFAA7
Copy OK

No errors occurred


AccurateRip summary

Track 1 not present in database
Track 2 not present in database
Track 3 not present in database
Track 4 not present in database
Track 5 not present in database
Track 6 not present in database
Track 7 not present in database
Track 8 not present in database
Track 9 not present in database
Track 10 not present in database
Track 11 not present in database
Track 12 not present in database
Track 13 not present in database
Track 14 not present in database
Track 15 not present in database
Track 16 cannot be verified as accurate (confidence 2) [E24CA1A2], AccurateRip returned [6395F011]

1 track(s) could not be verified as accurate
15 track(s) not present in the AccurateRip database

No tracks could be verified as accurate
You may have a different pressing from the one(s) in the database

End of status report

[CUETools log; Date: 08.04.2017 3:12:49; Version: 2.1.4]
[CTDB TOCID: dr6Jd.nuUbjwZp06MQLspBzvhxo-] found.
Track | CTDB Status
1 | (25/28) Accurately ripped
2 | (25/28) Accurately ripped
3 | (25/28) Accurately ripped
4 | (25/28) Accurately ripped
5 | (25/28) Accurately ripped
6 | (25/28) Accurately ripped
7 | (25/28) Accurately ripped
8 | (25/28) Accurately ripped
9 | (25/28) Accurately ripped
10 | (25/28) Accurately ripped
11 | (23/28) Accurately ripped
12 | (23/28) Accurately ripped
13 | (23/28) Accurately ripped
14 | (22/28) Accurately ripped
15 | (24/28) Accurately ripped
16 | (21/28) Accurately ripped
[AccurateRip ID: 002c6540-02162ed3-f711c410] found.
Track [ CRC | V2 ] Status
01 [4e91101c|724bbfb0] (11+06/28) Accurately ripped
02 [3cd2bdb4|ff5befb9] (11+06/28) Accurately ripped
03 [4c7ef854|90c36640] (11+06/28) Accurately ripped
04 [459c5b54|f905dd3a] (11+06/28) Accurately ripped
05 [fdef51d5|e4e86d17] (11+06/28) Accurately ripped
06 [b0a372a8|dded4b63] (11+06/28) Accurately ripped
07 [91a510e0|44dc4cb5] (11+06/28) Accurately ripped
08 [b161a47e|3f05c923] (11+06/28) Accurately ripped
09 [017278a4|aa01d1da] (11+06/28) Accurately ripped
10 [af36c546|0e06aa12] (11+06/28) Accurately ripped
11 [c778e82a|11efc8e8] (11+06/28) Accurately ripped
12 [562489fb|0625d07a] (11+05/27) Accurately ripped
13 [9e385110|a8a02d38] (11+06/28) Accurately ripped
14 [b8c1cbd1|60f23393] (11+05/27) Accurately ripped
15 [fc8e0793|e076cce1] (11+05/27) Accurately ripped
16 [e24ca1a2|38775cf6] (11+05/28) Accurately ripped
Offsetted by 58:
01 [d725cfd6] (03/28) Accurately ripped
02 [be916d30] (03/28) Accurately ripped
03 [e36e0602] (03/28) Accurately ripped
04 [d87ca1f0] (03/28) Accurately ripped
05 [eda9ee2d] (03/28) Accurately ripped
06 [be5917fa] (03/28) Accurately ripped
07 [28cadec2] (03/28) Accurately ripped
08 [e557b86c] (03/28) Accurately ripped
09 [dedf5af2] (03/28) Accurately ripped
10 [c39ed134] (03/28) Accurately ripped
11 [8d981fe8] (00/28) No match (V2 was not tested)
12 [09475095] (00/27) No match (V2 was not tested)
13 [e01202a2] (00/28) No match (V2 was not tested)
14 [fb6e8355] (03/27) Accurately ripped
15 [09a0f433] (03/27) Accurately ripped
16 [a50618a6] (00/28) No match (V2 was not tested)
Offsetted by 566:
01 [9d96f23b] (00/28) No match (V2 was not tested)
02 [970b1af4] (00/28) No match (V2 was not tested)
03 [8f9763d9] (00/28) No match (V2 was not tested)
04 [31f9b0c6] (00/28) No match (V2 was not tested)
05 [984e75bb] (00/28) No match (V2 was not tested)
06 [fc57edde] (00/28) No match (V2 was not tested)
07 [dc4cc0fd] (00/28) No match (V2 was not tested)
08 [62a72897] (00/28) No match (V2 was not tested)
09 [11696059] (00/28) No match (V2 was not tested)
10 [17adc30f] (00/28) No match (V2 was not tested)
11 [182f3eaf] (00/28) No match (V2 was not tested)
12 [435a5bbf] (00/27) No match (V2 was not tested)
13 [042f9d93] (00/28) No match (V2 was not tested)
14 [c4876426] (00/27) No match (V2 was not tested)
15 [63b3b226] (00/27) No match (V2 was not tested)
16 [3c45fc89] (00/28) No match (V2 was not tested)

Track Peak [ CRC32 ] [W/O NULL] [ LOG ]
– 94,8 [C8EDFAA7] [B7B9FEB6] CRC32
01 94,6 [9724C2AF] [605E1D76]
02 72,7 [A76071C1] [F95992C4]
03 94,6 [4471FAB2] [6DEC2B26]
04 94,6 [A9CFFB12] [0EE5C328]
05 94,8 [C7A1205D] [A0C6DFFB]
06 94,6 [F6212479] [F5A44860]
07 94,6 [AF716CA0] [BA23B8AF]
08 77,8 [12F14F56] [88CC4B73]
09 94,6 [DE317D16] [55970FFC]
10 94,5 [C073697C] [4BD76DA2]
11 94,6 [5621DF57] [F4E07291]
12 94,6 [D3F05F53] [3D3A2EAE]
13 82,6 [240ADAE6] [1E7D3A11]
14 94,6 [013309EB] [2570C53F]
15 94,6 [14FDBE13] [4A85762F]
16 94,6 [FD5110CF] [50365C6D]

Thanks to nakts