VA - Classic Mellow Mastercuts Vol. 3 (1994)

Posted By: JET 1
VA - Classic Mellow Mastercuts Vol. 3 (1994)

VA - Classic Mellow Mastercuts Vol. 3 (1994)
EAC Rip | FLAC (Tracks) +CUE, LOG | 454 MB | Covers Included
Genre: Jazz-Funk / Soul / Disco | Label: Mastercuts | Catalog Number: CUTSCD 17

The Mastercuts series is a must for all the old Funkateers still wanting to remember what is was really like back in the 70s and early 80s.The real draw on this album for me was the 7.15 full version of You're Gonna Get Next To Me.

Exact Audio Copy V1.0 beta 4 from 7. December 2014

EAC extraction logfile from 5. March 2017, 14:42

Various Artists / Classic Mellow Mastercuts Volume 3

Used drive : TSSTcorpCDDVDW SH-224DB Adapter: 1 ID: 0

Read mode : Secure
Utilize accurate stream : Yes
Defeat audio cache : Yes
Make use of C2 pointers : No

Read offset correction : 6
Overread into Lead-In and Lead-Out : No
Fill up missing offset samples with silence : Yes
Delete leading and trailing silent blocks : No
Null samples used in CRC calculations : Yes
Used interface : Native Win32 interface for Win NT & 2000
Gap handling : Appended to previous track

Used output format : User Defined Encoder
Selected bitrate : 896 kBit/s
Quality : High
Add ID3 tag : No
Command line compressor : C:\Program Files\Exact Audio Copy\Flac\flac.exe
Additional command line options : -6 -V -T "ARTIST=%artist%" -T "TITLE=%title%" -T "ALBUM=%albumtitle%" -T "DATE=%year%" -T "TRACKNUMBER=%tracknr%" -T "GENRE=%genre%" -T "COMMENT=%comment%" %source% -o %dest%


TOC of the extracted CD

Track | Start | Length | Start sector | End sector
––––––––––––––––––––––––––––-
1 | 0:00.00 | 5:41.47 | 0 | 25621
2 | 5:41.47 | 7:15.33 | 25622 | 58279
3 | 12:57.05 | 3:42.52 | 58280 | 74981
4 | 16:39.57 | 3:12.55 | 74982 | 89436
5 | 19:52.37 | 4:52.00 | 89437 | 111336
6 | 24:44.37 | 4:37.10 | 111337 | 132121
7 | 29:21.47 | 4:32.00 | 132122 | 152521
8 | 33:53.47 | 8:25.55 | 152522 | 190451
9 | 42:19.27 | 7:12.15 | 190452 | 222866
10 | 49:31.42 | 5:12.28 | 222867 | 246294
11 | 54:43.70 | 4:26.17 | 246295 | 266261
12 | 59:10.12 | 3:45.23 | 266262 | 283159


Track 1

Filename C:\New Folder\01 - Luther Vandross - Never Too Much (Original 12'' Mix).wav

Pre-gap length 0:00:02.00

Peak level 90.0 %
Extraction speed 1.8 X
Track quality 99.9 %
Test CRC 22A94395
Copy CRC 22A94395
Accurately ripped (confidence 8) [08A8940E] (AR v2)
Copy OK

Track 2

Filename C:\New Folder\02 - Bo Kirkland & Ruth Davis - You're Gonna Get Next To Me (Original Full Length Album Version).wav

Pre-gap length 0:00:02.07

Peak level 100.0 %
Extraction speed 2.3 X
Track quality 100.0 %
Test CRC 531B43B5
Copy CRC 531B43B5
Accurately ripped (confidence 8) [0A484E5F] (AR v2)
Copy OK

Track 3

Filename C:\New Folder\03 - The Jones Girls - Nights Over Egypt (Original 12'' Mix).wav

Pre-gap length 0:00:00.02

Peak level 100.0 %
Extraction speed 2.3 X
Track quality 100.0 %
Test CRC 1FB9EA8A
Copy CRC 1FB9EA8A
Accurately ripped (confidence 8) [28FCB6C0] (AR v2)
Copy OK

Track 4

Filename C:\New Folder\04 - The O'Jays - Now That We Found Love (Original Full Length Album Version).wav

Pre-gap length 0:00:02.34

Peak level 100.0 %
Extraction speed 2.4 X
Track quality 100.0 %
Test CRC 9B540D21
Copy CRC 9B540D21
Accurately ripped (confidence 8) [4977EE1E] (AR v2)
Copy OK

Track 5

Filename C:\New Folder\05 - Jean Carn - Don't Let It Go To Your Head (Original Full Length Album Version).wav

Pre-gap length 0:00:02.24

Peak level 95.4 %
Extraction speed 2.7 X
Track quality 100.0 %
Test CRC 448FB700
Copy CRC 448FB700
Accurately ripped (confidence 8) [FBE8A82C] (AR v2)
Copy OK

Track 6

Filename C:\New Folder\06 - Shirley Jones - Do You Get Enough Love (Original 12'' 'Love' Mix).wav

Pre-gap length 0:00:02.49

Peak level 92.6 %
Extraction speed 2.8 X
Track quality 100.0 %
Test CRC 1DD34CEC
Copy CRC 1DD34CEC
Accurately ripped (confidence 8) [71B01DF1] (AR v2)
Copy OK

Track 7

Filename C:\New Folder\07 - Norman Connors - You Are My Starship (Original Full Length Album Version).wav

Pre-gap length 0:00:02.22

Peak level 85.8 %
Extraction speed 2.9 X
Track quality 100.0 %
Test CRC B35F8D13
Copy CRC B35F8D13
Accurately ripped (confidence 8) [F03AD018] (AR v2)
Copy OK

Track 8

Filename C:\New Folder\08 - Earth, Wind & Fire - Reasons (Live Version) (Original Full Length Live Album Version).wav

Pre-gap length 0:00:01.34

Peak level 95.9 %
Extraction speed 3.3 X
Track quality 100.0 %
Test CRC CB1DE615
Copy CRC CB1DE615
Accurately ripped (confidence 8) [2ED72D41] (AR v2)
Copy OK

Track 9

Filename C:\New Folder\09 - Freddie Jackson - Rock Me Tonight (For Old Times Sake) (Original Full Length Album Version).wav

Pre-gap length 0:00:02.17

Peak level 89.1 %
Extraction speed 3.4 X
Track quality 100.0 %
Test CRC 2104A0E2
Copy CRC 2104A0E2
Accurately ripped (confidence 8) [30206DE0] (AR v2)
Copy OK

Track 10

Filename C:\New Folder\10 - Eugene Wilde - Gotta Get You Home Tonight (Original 12'' Mix).wav

Pre-gap length 0:00:01.19

Peak level 94.5 %
Extraction speed 3.5 X
Track quality 100.0 %
Test CRC 09F9C76C
Copy CRC 09F9C76C
Accurately ripped (confidence 8) [E64B1FCC] (AR v2)
Copy OK

Track 11

Filename C:\New Folder\11 - Anita Baker - Sweet Love (Original 12'' Mix).wav

Pre-gap length 0:00:00.02

Peak level 100.0 %
Extraction speed 2.8 X
Track quality 99.9 %
Test CRC 8383893C
Copy CRC 8383893C
Accurately ripped (confidence 8) [7D9F3D45] (AR v2)
Copy OK

Track 12

Filename C:\New Folder\12 - Al Jarreau - We're In This Love Together (Original 12'' Mix).wav

Pre-gap length 0:00:00.03

Peak level 89.1 %
Extraction speed 3.5 X
Track quality 100.0 %
Test CRC 51ADA770
Copy CRC 51ADA770
Accurately ripped (confidence 8) [055B4943] (AR v2)
Copy OK


All tracks accurately ripped

No errors occurred

End of status report

–– CUETools DB Plugin V2.1.4

[CTDB TOCID: j94jd136X9MP5MYREpqBs8fuLwQ-] found
Submit result: j94jd136X9MP5MYREpqBs8fuLwQ- has been confirmed
Track | CTDB Status
1 | (9/9) Accurately ripped
2 | (9/9) Accurately ripped
3 | (9/9) Accurately ripped
4 | (9/9) Accurately ripped
5 | (9/9) Accurately ripped
6 | (9/9) Accurately ripped
7 | (9/9) Accurately ripped
8 | (9/9) Accurately ripped
9 | (9/9) Accurately ripped
10 | (9/9) Accurately ripped
11 | (9/9) Accurately ripped
12 | (9/9) Accurately ripped


==== Log checksum B584F0F3ABE68522F3BBFCD949D3EC78D086E882035B580622EF8F641CCEB2FD ====


Tracklist:
01. Luther Vandross - Never Too Much (Original 12'' Mix) [5:42]
02. Bo Kirkland & Ruth Davis - You're Gonna Get Next To Me (Original Full Length Album Version) [7:15]
03. The Jones Girls - Nights Over Egypt (Original 12'' Mix) [3:43]
04. The O'Jays - Now That We Found Love (Original Full Length Album Version) [3:13]
05. Jean Carn - Don't Let It Go To Your Head (Original Full Length Album Version) [4:52]
06. Shirley Jones - Do You Get Enough Love (Original 12'' 'Love' Mix) [4:37]
07. Norman Connors - You Are My Starship (Original Full Length Album Version) [4:32]
08. Earth, Wind & Fire - Reasons (Live Version) (Original Full Length Live Album Version) [8:26]
09. Freddie Jackson - Rock Me Tonight (For Old Times Sake) (Original Full Length Album Version) [7:12]
10. Eugene Wilde - Gotta Get You Home Tonight (Original 12'' Mix) [5:12]
11. Anita Baker - Sweet Love (Original 12'' Mix) [4:26]
12. Al Jarreau - We're In This Love Together (Original 12'' Mix) [3:45]