V.A. - Cosmic Chill Lounge Vol. 3 (2009) (Repost)

Posted By: gribovar
V.A. - Cosmic Chill Lounge Vol. 3 (2009) (Repost)

V.A. - Cosmic Chill Lounge Vol. 3 (2009)
EAC Rip | FLAC (image+.cue+log) - 528 MB | MP3 CBR 320 kbps (LAME 3.93) - 200 MB | Covers (14 MB) included
Genre: Chillout, Lounge, Downtempo | RAR 3% Rec. | Label: Sine Music (SM0005)

Following the overwhelming success of the compilation "Cosmic Chill Lounge Vol.2", Sine Music is proud to announce the completion of the long-awaited sequel. The CD, with its 80 minutes playing time, will carry the listener on ocean waves into the sunset. Music to let thoughts run free, to kick back and escape from the days stress and to just drift in chill-Dreamscapes. As with its predecessors, "Cosmic Chill Lounge Vol.3" has been created with the emphasis on top-quality productions with high recognition value. A total of 15 exclusive tracks by renowned producers of the scene, silken vocals, mesmerizing beats, with warming Pads and beautiful instrumental solos make the compilation perfect.
Music you can drift off to on ocean waves, wherever you are, and even after awakening the sea still sparkles on the horizon…
Tracklist:
01. Merge Of Equals - As One
02. Ensoul - Clouds
03. Sine - To The Sky
04. Merge Of Equals - Clear Blue Sky
05. Electrix - Spicy Sand
06. Polished Chrome - Mala
07. Deeper Sublime & MoVoX & Marga Sol - Noname Story
08. Merge Of Equals - Hot Rain
09. Sine - Flying
10. Polished Chrome - Your Shoes
11. SoulAvenue - Try
12. Rhodescreen - Peace System
13. The Architect - Cocoon Baloon
14. Klangstein - Deep Dive
15. Sine - The Orient Sun

Total time: 01:18:34

Exact Audio Copy V0.99 prebeta 4 from 23. January 2008

EAC extraction logfile from 8. May 2009, 21:38

Various / Cosmic Chill Lounge Vol.3

Used drive : PIONEER DVD-RW DVR-112D Adapter: 1 ID: 0

Read mode : Secure
Utilize accurate stream : Yes
Defeat audio cache : Yes
Make use of C2 pointers : No

Read offset correction : 48
Overread into Lead-In and Lead-Out : No
Fill up missing offset samples with silence : Yes
Delete leading and trailing silent blocks : No
Null samples used in CRC calculations : Yes
Used interface : Installed external ASPI interface

Used output format : User Defined Encoder
Selected bitrate : 192 kBit/s
Quality : Low
Add ID3 tag : Yes
Command line compressor : C:\Program Files\E A C Audio\Flac\flac.exe
Additional command line options : -V -8 -T "artist=%a" -T "title=%t" -T "album=%g" -T "date=%y" -T "tracknumber=%n" -T "genre=%m" %s


TOC of the extracted CD

Track | Start | Length | Start sector | End sector
––––––––––––––––––––––––––––-
1 | 0:00.00 | 5:54.60 | 0 | 26609
2 | 5:54.60 | 4:17.60 | 26610 | 45944
3 | 10:12.45 | 5:16.29 | 45945 | 69673
4 | 15:28.74 | 4:54.67 | 69674 | 91790
5 | 20:23.66 | 5:21.04 | 91791 | 115869
6 | 25:44.70 | 5:36.04 | 115870 | 141073
7 | 31:20.74 | 5:04.06 | 141074 | 163879
8 | 36:25.05 | 4:50.68 | 163880 | 185697
9 | 41:15.73 | 5:11.47 | 185698 | 209069
10 | 46:27.45 | 5:52.16 | 209070 | 235485
11 | 52:19.61 | 5:01.40 | 235486 | 258100
12 | 57:21.26 | 5:15.13 | 258101 | 281738
13 | 62:36.39 | 4:11.19 | 281739 | 300582
14 | 66:47.58 | 5:53.16 | 300583 | 327073
15 | 72:40.74 | 5:52.64 | 327074 | 353537


Range status and errors

Selected range

Filename G:\Various - Cosmic Chill Lounge Vol.3\Various - Cosmic Chill Lounge Vol.3.wav

Peak level 98.9 %
Range quality 100.0 %
Test CRC CAD8DF39
Copy CRC CAD8DF39
Copy OK

No errors occurred


AccurateRip summary

Track 1 not present in database
Track 2 not present in database
Track 3 not present in database
Track 4 not present in database
Track 5 not present in database
Track 6 not present in database
Track 7 not present in database
Track 8 not present in database
Track 9 not present in database
Track 10 not present in database
Track 11 not present in database
Track 12 not present in database
Track 13 not present in database
Track 14 not present in database
Track 15 not present in database

None of the tracks are present in the AccurateRip database

End of status report

[CUETools log; Date: 13.10.2017 23:38:47; Version: 2.1.4]
[CTDB TOCID: sh9MG2.Qi_OZE9BCjZAd.OJxp.U-] found.
Track | CTDB Status
1 | (1/1) Accurately ripped
2 | (1/1) Accurately ripped
3 | (1/1) Accurately ripped
4 | (1/1) Accurately ripped
5 | (1/1) Accurately ripped
6 | (1/1) Accurately ripped
7 | (1/1) Accurately ripped
8 | (1/1) Accurately ripped
9 | (1/1) Accurately ripped
10 | (1/1) Accurately ripped
11 | (1/1) Accurately ripped
12 | (1/1) Accurately ripped
13 | (1/1) Accurately ripped
14 | (1/1) Accurately ripped
15 | (1/1) Accurately ripped
[AccurateRip ID: 002ad175-01e55048-de12690f] found.
Track [ CRC | V2 ] Status
01 [ba4aaf6b|5c97c754] (0+1/1) Accurately ripped
02 [1c04be2a|81e3c8c9] (0+1/1) Accurately ripped
03 [e33a1587|18b0df76] (0+1/1) Accurately ripped
04 [09051fdb|0cae4d20] (0+1/1) Accurately ripped
05 [ac83a4c3|a6e97f70] (0+1/1) Accurately ripped
06 [88d3913e|3703e69e] (0+1/1) Accurately ripped
07 [1de2fd76|0f836a40] (0+1/1) Accurately ripped
08 [31536ec4|690c373f] (0+1/1) Accurately ripped
09 [e6f00e3e|956c27f8] (0+1/1) Accurately ripped
10 [97298443|2f5df153] (0+1/1) Accurately ripped
11 [00330cef|7a6c8392] (0+1/1) Accurately ripped
12 [4eeae34e|144c2e2c] (0+1/1) Accurately ripped
13 [3d888c30|be9cd6fe] (0+1/1) Accurately ripped
14 [841e03da|ebbd145b] (0+1/1) Accurately ripped
15 [42d00351|fb1849ee] (0+1/1) Accurately ripped

Track Peak [ CRC32 ] [W/O NULL] [ LOG ]
– 98,9 [CAD8DF39] [EB1478C2] CRC32
01 98,9 [AC926520] [A007AFD2]
02 98,8 [6854C95B] [E62C56C3]
03 98,9 [335E1B8C] [5089B90E]
04 98,9 [33FD4165] [C002ACBE]
05 98,9 [D8EEE132] [C9290C9D]
06 98,8 [1F67C0FA] [7170F747]
07 98,9 [73E097AB] [5F081DF8]
08 98,9 [82DC6A1F] [CED4DA8A]
09 98,8 [7B8146B7] [3BCDC6A3]
10 98,8 [4A04F9EE] [A3FAC600]
11 98,8 [2E5E71E4] [187D6C26]
12 98,9 [C15B1E91] [D6627A01]
13 98,9 [EE44A67B] [0DE9873A]
14 98,9 [F6059EF4] [B045A06C]
15 98,8 [702D2523] [BC699140]

Thanks to sklon

See also:
V.A. - Cosmic Chill Lounge Vol. 1 (2007)