Subcategories

VA - David Foster Presents Love Stories (2002)

Posted By: JET 1
VA - David Foster Presents Love Stories (2002)

VA - David Foster Presents Love Stories (2002)
EAC Rip | FLAC (Tracks) +CUE, LOG | 631 MB | Covers Included
Genre: Pop, Soul, Easy Listening | Label: Wea Records [Japan] | Catalog Number: WPCR-11250

Japan compilation album featuring songs written and or produced by David Foster, Features Celine Dion, Chicago, Whitney Houston, Earth Wind & Fire & More.

Exact Audio Copy V1.0 beta 3 from 29. August 2011

EAC extraction logfile from 23. February 2012, 20:44

Various Artists / David Foster Presents Love Stories

Used drive : MATSHITADVD-RAM UJ880AS Adapter: 0 ID: 1

Read mode : Secure
Utilize accurate stream : Yes
Defeat audio cache : Yes
Make use of C2 pointers : No

Read offset correction : 102
Overread into Lead-In and Lead-Out : No
Fill up missing offset samples with silence : Yes
Delete leading and trailing silent blocks : No
Null samples used in CRC calculations : Yes
Used interface : Native Win32 interface for Win NT & 2000
Gap handling : Appended to previous track

Used output format : User Defined Encoder
Selected bitrate : 1024 kBit/s
Quality : High
Add ID3 tag : No
Command line compressor : C:\Program Files\Exact Audio Copy\FLAC\FLAC.EXE
Additional command line options : -8 -V -T "ARTIST=%artist%" -T "TITLE=%title%" -T "ALBUM=%albumtitle%" -T "DATE=%year%" -T "TRACKNUMBER=%tracknr%" -T "GENRE=%genre%" -T "COMMENT=%comment%" -T "BAND=%albuminterpret%" -T "COMPOSER=%composer%" %haslyrics%–tag-from-file=LYRICS="%lyricsfile%"%haslyrics% -T "DISCNUMBER=%cdnumber%" -T "TOTALDISCS=%totalcds%" -T "TOTALTRACKS=%numtracks%" %hascover%–picture="%coverfile%"%hascover% %source% -o %dest%


TOC of the extracted CD

Track | Start | Length | Start sector | End sector
––––––––––––––––––––––––––––-
1 | 0:00.00 | 3:48.52 | 0 | 17151
2 | 3:48.52 | 4:03.73 | 17152 | 35449
3 | 7:52.50 | 4:33.62 | 35450 | 55986
4 | 12:26.37 | 3:28.20 | 55987 | 71606
5 | 15:54.57 | 4:20.10 | 71607 | 91116
6 | 20:14.67 | 4:25.05 | 91117 | 110996
7 | 24:39.72 | 4:46.08 | 110997 | 132454
8 | 29:26.05 | 4:20.45 | 132455 | 151999
9 | 33:46.50 | 4:28.37 | 152000 | 172136
10 | 38:15.12 | 4:37.45 | 172137 | 192956
11 | 42:52.57 | 4:24.35 | 192957 | 212791
12 | 47:17.17 | 4:19.10 | 212792 | 232226
13 | 51:36.27 | 4:19.33 | 232227 | 251684
14 | 55:55.60 | 4:03.50 | 251685 | 269959
15 | 59:59.35 | 4:22.37 | 269960 | 289646
16 | 64:21.72 | 4:33.05 | 289647 | 310126
17 | 68:55.02 | 3:30.25 | 310127 | 325901
18 | 72:25.27 | 4:25.63 | 325902 | 345839


Track 1

Filename E:\barca008\Various Artists - David Foster Presents Love Stories\01 - Chicago - You're The Inspiration.wav

Pre-gap length 0:00:02.00

Peak level 100.0 %
Extraction speed 1.2 X
Track quality 100.0 %
Test CRC 45B97A95
Copy CRC 45B97A95
Accurately ripped (confidence 2) [514F57E7] (AR v1)
Copy OK

Track 2

Filename E:\barca008\Various Artists - David Foster Presents Love Stories\02 - Olivia Newton-John & David Foster - The Best Of Me.wav

Peak level 99.9 %
Extraction speed 1.3 X
Track quality 100.0 %
Test CRC 997B8312
Copy CRC 997B8312
Accurately ripped (confidence 2) [8B233A2C] (AR v1)
Copy OK

Track 3

Filename E:\barca008\Various Artists - David Foster Presents Love Stories\03 - Celine Dion - Because You Loved Me.wav

Peak level 100.0 %
Extraction speed 1.4 X
Track quality 100.0 %
Test CRC BF65B745
Copy CRC BF65B745
Accurately ripped (confidence 2) [22D60770] (AR v1)
Copy OK

Track 4

Filename E:\barca008\Various Artists - David Foster Presents Love Stories\04 - Natalie Cole & Nat King Cole - Unforgettable.wav

Pre-gap length 0:00:01.20

Peak level 100.0 %
Extraction speed 1.5 X
Track quality 100.0 %
Test CRC 49EC97EC
Copy CRC 49EC97EC
Accurately ripped (confidence 2) [B1D2AF7D] (AR v1)
Copy OK

Track 5

Filename E:\barca008\Various Artists - David Foster Presents Love Stories\05 - Whitney Houston - I Learned From The Best.wav

Pre-gap length 0:00:00.52

Peak level 100.0 %
Extraction speed 1.6 X
Track quality 100.0 %
Test CRC 1173DEDE
Copy CRC 1173DEDE
Accurately ripped (confidence 2) [D0B9019B] (AR v1)
Copy OK

Track 6

Filename E:\barca008\Various Artists - David Foster Presents Love Stories\06 - Earth, Wind & Fire - After The Love Has Gone.wav

Pre-gap length 0:00:00.42

Peak level 100.0 %
Extraction speed 1.7 X
Track quality 100.0 %
Test CRC 914C7C58
Copy CRC 914C7C58
Accurately ripped (confidence 2) [DABF3B20] (AR v1)
Copy OK

Track 7

Filename E:\barca008\Various Artists - David Foster Presents Love Stories\07 - Chaka Khan - Through The Fire.wav

Peak level 100.0 %
Extraction speed 1.8 X
Track quality 100.0 %
Test CRC A7978A07
Copy CRC A7978A07
Accurately ripped (confidence 2) [F5F8CB2F] (AR v1)
Copy OK

Track 8

Filename E:\barca008\Various Artists - David Foster Presents Love Stories\08 - Peter Cetera - Glory Of Love.wav

Pre-gap length 0:00:00.25

Peak level 100.0 %
Extraction speed 1.7 X
Track quality 99.9 %
Test CRC AA6B543C
Copy CRC AA6B543C
Accurately ripped (confidence 2) [4AB525AF] (AR v1)
Copy OK

Track 9

Filename E:\barca008\Various Artists - David Foster Presents Love Stories\09 - Toni Braxton - Un-Break My Heart.wav

Peak level 100.0 %
Extraction speed 1.9 X
Track quality 100.0 %
Test CRC 85E441AC
Copy CRC 85E441AC
Accurately ripped (confidence 2) [A814014A] (AR v1)
Copy OK

Track 10

Filename E:\barca008\Various Artists - David Foster Presents Love Stories\10 - Madonna - You'll See.wav

Peak level 100.0 %
Extraction speed 2.0 X
Track quality 100.0 %
Test CRC 7481130A
Copy CRC 7481130A
Accurately ripped (confidence 2) [52B41E76] (AR v1)
Copy OK

Track 11

Filename E:\barca008\Various Artists - David Foster Presents Love Stories\11 - The Corrs - Runaway.wav

Peak level 100.0 %
Extraction speed 2.1 X
Track quality 100.0 %
Test CRC 30BD5AE8
Copy CRC 30BD5AE8
Accurately ripped (confidence 2) [67F6EEB9] (AR v1)
Copy OK

Track 12

Filename E:\barca008\Various Artists - David Foster Presents Love Stories\12 - All-4-One - I Swear.wav

Pre-gap length 0:00:00.42

Peak level 100.0 %
Extraction speed 2.2 X
Track quality 100.0 %
Test CRC 1DC7FB97
Copy CRC 1DC7FB97
Accurately ripped (confidence 2) [35C38BE3] (AR v1)
Copy OK

Track 13

Filename E:\barca008\Various Artists - David Foster Presents Love Stories\13 - Take 6 - You Can Never Ask Too Much (Of Love).wav

Pre-gap length 0:00:00.25

Peak level 100.0 %
Extraction speed 2.2 X
Track quality 100.0 %
Test CRC DBA53512
Copy CRC DBA53512
Accurately ripped (confidence 2) [D0D516F7] (AR v1)
Copy OK

Track 14

Filename E:\barca008\Various Artists - David Foster Presents Love Stories\14 - Air Supply - Goodbye.wav

Peak level 99.7 %
Extraction speed 2.0 X
Track quality 99.9 %
Test CRC C9E382B6
Copy CRC C9E382B6
Track not present in AccurateRip database
Copy OK

Track 15

Filename E:\barca008\Various Artists - David Foster Presents Love Stories\15 - David Foster & Chris Kirkpatrick - I Will.wav

Pre-gap length 0:00:00.50

Peak level 100.0 %
Extraction speed 2.3 X
Track quality 100.0 %
Test CRC 3BD29261
Copy CRC 3BD29261
Accurately ripped (confidence 2) [16727443] (AR v1)
Copy OK

Track 16

Filename E:\barca008\Various Artists - David Foster Presents Love Stories\16 - U.N.V. - So In Love With You.wav

Peak level 100.0 %
Extraction speed 2.4 X
Track quality 100.0 %
Test CRC E2C05958
Copy CRC E2C05958
Accurately ripped (confidence 2) [C1103691] (AR v1)
Copy OK

Track 17

Filename E:\barca008\Various Artists - David Foster Presents Love Stories\17 - David Foster - Love Theme From ''St. Elmo's Fire''.wav

Peak level 100.0 %
Extraction speed 2.3 X
Track quality 100.0 %
Test CRC A798CDA3
Copy CRC A798CDA3
Accurately ripped (confidence 2) [B475A90F] (AR v1)
Copy OK

Track 18

Filename E:\barca008\Various Artists - David Foster Presents Love Stories\18 - Josh Groban & Charlotte Church - The Prayer.wav

Pre-gap length 0:00:00.50

Peak level 100.0 %
Extraction speed 2.6 X
Track quality 100.0 %
Test CRC C97103FA
Copy CRC C97103FA
Accurately ripped (confidence 2) [5490BFE4] (AR v1)
Copy OK


17 track(s) accurately ripped
1 track(s) not present in the AccurateRip database

Some tracks could not be verified as accurate

No errors occurred

End of status report

–– CUETools DB Plugin V2.1.3

[CTDB TOCID: XU2T6BXQ.WHon5FYcjDK_YwzkT4-] found, Submit result: XU2T6BXQ.WHon5FYcjDK_YwzkT4- has been confirmed
[f5cbe1a9] (1/1) Accurately ripped


==== Log checksum 0A6215A335D062702C5F2626F0CBDCA672292F3505EF7D4AF6F30E0CD5E8B115 ====


Tracklist:
01. Chicago / You're The Inspiration [0:03:48.52]
02. Olivia Newton-John & David Foster / The Best Of Me [0:04:03.73]
03. Celine Dion / Because You Loved Me [0:04:33.62]
04. Natalie Cole & Nat King Cole / Unforgettable [0:03:28.20]
05. Whitney Houston / I Learned From The Best [0:04:20.10]
06. Earth, Wind & Fire / After The Love Has Gone [0:04:25.05]
07. Chaka Khan / Through The Fire [0:04:46.08]
08. Peter Cetera / Glory Of Love [0:04:20.45]
09. Toni Braxton / Un-Break My Heart [0:04:28.37]
10. Madonna / You'll See [0:04:37.45]
11. The Corrs / Runaway [0:04:24.35]
12. All-4-One / I Swear [0:04:19.10]
13. Take 6 / You Can Never Ask Too Much (Of Love) [0:04:19.33]
14. Air Supply / Goodbye [0:04:03.50]
15. David Foster & Chris Kirkpatrick / I Will [0:04:22.37]
16. U.N.V. / So In Love With You [0:04:33.05]
17. David Foster / Love Theme From "St. Elmo's Fire" [0:03:30.25]
18. Josh Groban & Charlotte Church / The Prayer [0:04:25.63]

Thanks to the original ripper