VA - Die Hit Giganten - Best Of 80's (2011) [3CD Box Set]

Posted By: popsakov
VA - Die Hit Giganten - Best Of 80's (2011) [3CD Box Set]

VA - Die Hit Giganten - Best Of 80's (2011)
3CD | EAC Rip | FLAC (Img) + Cue + Log ~ 1,7 Gb | MP3 CBR320 ~ 599 Mb
Scans Included (JPG, 300 dpi) | RAR 5% Recovery
New Wave, Synth-Pop, Pop, Rock, Disco | Sony Music #88697942152

The best hits of 80's from the German pop compilation series.

VA - Die Hit Giganten - Best Of 80's (2011) [3CD Box Set]

Track List CD1:

01. Simple Minds - Don't You (Forget About Me) [04:21]
02. Duran Duran - Wild Boys [04:18]
03. Aha - Take On Me [03:48]
04. Alphaville - Big In Japan [04:44]
05. Bonnie Tyler - Total Eclipse Of The Heart [04:28]
06. Billy Idol - Eyes Without A Face [04:10]
07. Kim Wilde - Kids In America [03:26]
08. Paul Young - Come Back And Stay [04:24]
09. Spandau Ballet - True [05:31]
10. Propaganda - Duel [04:43]
11. Dead or Alive - You Spin Me Round (Like A Record) [03:15]
12. King - Love & Pride [03:22]
13. Heaven 17 - Temptation [03:34]
14. Icehouse - Hey Little Girl [04:22]
15. Yazoo - Don't Go [03:07]
16. ABC - The Look Of Love (Part 1) [03:30]
17. OMD - Maid Of Orleans [04:12]
18. Real Life - Send Me An Angel [03:55]
19. The Bangels - Walk Like An Egyptian [03:23]
20. Frankie Goes To Hollywood - Two Tribes [03:24]

Exact Audio Copy V1.0 beta 3 from 29. August 2011

EAC extraction logfile from 22. April 2015, 0:38

Various Artists / Die Hit-Giganten - Best Of 80's CD1

Used drive : PLEXTOR DVDR PX-860A Adapter: 4 ID: 0

Read mode : Secure
Utilize accurate stream : Yes
Defeat audio cache : Yes
Make use of C2 pointers : No

Read offset correction : 96
Overread into Lead-In and Lead-Out : No
Fill up missing offset samples with silence : Yes
Delete leading and trailing silent blocks : No
Null samples used in CRC calculations : Yes
Used interface : Installed external ASPI interface

Used output format : User Defined Encoder
Selected bitrate : 128 kBit/s
Quality : High
Add ID3 tag : Yes
Command line compressor : G:\Program Files (x86)\Exact Audio Copy\Flac\flac.exe
Additional command line options : -V -8 -T "Date=%year%" -T "Genre=%genre%" %source%


TOC of the extracted CD

Track | Start | Length | Start sector | End sector
––––––––––––––––––––––––––––-
1 | 0:00.00 | 4:20.43 | 0 | 19542
2 | 4:20.43 | 4:17.18 | 19543 | 38835
3 | 8:37.61 | 3:47.26 | 38836 | 55886
4 | 12:25.12 | 4:43.74 | 55887 | 77185
5 | 17:09.11 | 4:27.58 | 77186 | 97268
6 | 21:36.69 | 4:09.62 | 97269 | 116005
7 | 25:46.56 | 3:25.68 | 116006 | 131448
8 | 29:12.49 | 4:23.44 | 131449 | 151217
9 | 33:36.18 | 5:30.70 | 151218 | 176037
10 | 39:07.13 | 4:42.10 | 176038 | 197197
11 | 43:49.23 | 3:14.33 | 197198 | 211780
12 | 47:03.56 | 3:21.20 | 211781 | 226875
13 | 50:25.01 | 3:33.58 | 226876 | 242908
14 | 53:58.59 | 4:21.15 | 242909 | 262498
15 | 58:19.74 | 3:06.04 | 262499 | 276452
16 | 61:26.03 | 3:29.71 | 276453 | 292198
17 | 64:55.74 | 4:11.63 | 292199 | 311086
18 | 69:07.62 | 3:54.17 | 311087 | 328653
19 | 73:02.04 | 3:22.34 | 328654 | 343837
20 | 76:24.38 | 3:23.59 | 343838 | 359121


Range status and errors

Selected range

Filename D:\MUSIC\Various Artists - Die Hit-Giganten - Best Of 80's CD1.wav

Peak level 99.0 %
Extraction speed 8.3 X
Range quality 100.0 %
Test CRC 4E2A2BBB
Copy CRC 4E2A2BBB
Copy OK

No errors occurred


AccurateRip summary

Track 1 accurately ripped (confidence 3) [9666248C] (AR v2)
Track 2 accurately ripped (confidence 3) [7AD22ED2] (AR v2)
Track 3 accurately ripped (confidence 3) [DBA4237B] (AR v2)
Track 4 accurately ripped (confidence 3) [E93931A3] (AR v2)
Track 5 accurately ripped (confidence 3) [5661DEB8] (AR v2)
Track 6 accurately ripped (confidence 3) [36090ED7] (AR v2)
Track 7 accurately ripped (confidence 3) [8BC33CEE] (AR v2)
Track 8 accurately ripped (confidence 3) [877FB238] (AR v2)
Track 9 accurately ripped (confidence 3) [C347837E] (AR v2)
Track 10 accurately ripped (confidence 3) [B42D0F13] (AR v2)
Track 11 accurately ripped (confidence 3) [79375E02] (AR v2)
Track 12 accurately ripped (confidence 3) [6F76E9F7] (AR v2)
Track 13 accurately ripped (confidence 3) [33F48234] (AR v2)
Track 14 accurately ripped (confidence 3) [909A3586] (AR v2)
Track 15 accurately ripped (confidence 3) [832AE729] (AR v2)
Track 16 accurately ripped (confidence 3) [6E405F6B] (AR v2)
Track 17 accurately ripped (confidence 3) [1D3CEA10] (AR v2)
Track 18 accurately ripped (confidence 3) [581C5F63] (AR v2)
Track 19 accurately ripped (confidence 3) [30CF3DA0] (AR v2)
Track 20 accurately ripped (confidence 3) [4F059E14] (AR v2)

All tracks accurately ripped

End of status report

==== Log checksum 389D5563CAC74C134BD256860DD8B9A11A0BA032D8F0F5CE39A058D12B929C66 ====

foobar2000 1.2.6 / Dynamic Range Meter 1.1.1
log date: 2015-04-26 02:07:33

––––––––––––––––––––––––––––––––––––––––
Analyzed: Aha / Die Hit-Giganten - Best Of 80's CD1 (1)
Alphaville / Die Hit-Giganten - Best Of 80's CD1 (2)
Billy Idol / Die Hit-Giganten - Best Of 80's CD1 (3)
––––––––––––––––––––––––––––––––––––––––

DR Peak RMS Duration Track
––––––––––––––––––––––––––––––––––––––––
DR9 -0.58 dB -11.62 dB 3:47 03-Take On Me
DR9 -0.08 dB -11.62 dB 4:44 04-Big In Japan
DR8 -0.98 dB -10.57 dB 4:10 06-Eyes Without A Face
––––––––––––––––––––––––––––––––––––––––

Number of tracks: 3
Official DR value: DR9

Samplerate: 44100 Hz
Channels: 2
Bits per sample: 16
Bitrate: 955 kbps
Codec: FLAC
================================================================================

––––––––––––––––––––––––––––––––––––––––
Analyzed: Bonnie Tyler / Die Hit-Giganten - Best Of 80's CD1 (1)
Dead or Alive / Die Hit-Giganten - Best Of 80's CD1 (2)
––––––––––––––––––––––––––––––––––––––––

DR Peak RMS Duration Track
––––––––––––––––––––––––––––––––––––––––
DR8 -0.08 dB -11.28 dB 4:28 05-Total Eclipse Of The Heart
DR9 -0.68 dB -10.75 dB 3:14 11-You Spin Me Round (Like A Record)
––––––––––––––––––––––––––––––––––––––––

Number of tracks: 2
Official DR value: DR9

Samplerate: 44100 Hz
Channels: 2
Bits per sample: 16
Bitrate: 955 kbps
Codec: FLAC
================================================================================

––––––––––––––––––––––––––––––––––––––––
Analyzed: Duran Duran / Die Hit-Giganten - Best Of 80's CD1 (1)
Frankie Goes To Hollywood / Die Hit-Giganten - Best Of 80's CD1 (2)
––––––––––––––––––––––––––––––––––––––––

DR Peak RMS Duration Track
––––––––––––––––––––––––––––––––––––––––
DR10 -0.08 dB -11.39 dB 4:17 02-Wild Boys
DR8 -0.58 dB -11.21 dB 3:24 20-Two Tribes
––––––––––––––––––––––––––––––––––––––––

Number of tracks: 2
Official DR value: DR9

Samplerate: 44100 Hz
Channels: 2
Bits per sample: 16
Bitrate: 955 kbps
Codec: FLAC
================================================================================

––––––––––––––––––––––––––––––––––––––––
Analyzed: Heaven 17 / Die Hit-Giganten - Best Of 80's CD1 (1)
Icehouse / Die Hit-Giganten - Best Of 80's CD1 (2)
––––––––––––––––––––––––––––––––––––––––

DR Peak RMS Duration Track
––––––––––––––––––––––––––––––––––––––––
DR8 -0.78 dB -10.47 dB 3:34 13-Temptation
DR9 -0.50 dB -11.14 dB 4:21 14-Hey Little Girl
––––––––––––––––––––––––––––––––––––––––

Number of tracks: 2
Official DR value: DR8

Samplerate: 44100 Hz
Channels: 2
Bits per sample: 16
Bitrate: 955 kbps
Codec: FLAC
================================================================================

––––––––––––––––––––––––––––––––––––––––
Analyzed: Kim Wilde / Die Hit-Giganten - Best Of 80's CD1 (1)
King / Die Hit-Giganten - Best Of 80's CD1 (2)
OMD / Die Hit-Giganten - Best Of 80's CD1 (3)
––––––––––––––––––––––––––––––––––––––––

DR Peak RMS Duration Track
––––––––––––––––––––––––––––––––––––––––
DR7 -0.08 dB -9.82 dB 3:26 07-Kids In America
DR8 -0.21 dB -9.86 dB 3:21 12-Love & Pride
DR9 -0.08 dB -11.78 dB 4:12 17-Maid Of Orleans
––––––––––––––––––––––––––––––––––––––––

Number of tracks: 3
Official DR value: DR8

Samplerate: 44100 Hz
Channels: 2
Bits per sample: 16
Bitrate: 955 kbps
Codec: FLAC
================================================================================

––––––––––––––––––––––––––––––––––––––––
Analyzed: Paul Young / Die Hit-Giganten - Best Of 80's CD1 (1)
Propaganda / Die Hit-Giganten - Best Of 80's CD1 (2)
Real Life / Die Hit-Giganten - Best Of 80's CD1 (3)
––––––––––––––––––––––––––––––––––––––––

DR Peak RMS Duration Track
––––––––––––––––––––––––––––––––––––––––
DR8 -0.88 dB -10.89 dB 4:24 08-Come Back And Stay
DR8 -0.91 dB -10.98 dB 4:42 10-Duel
DR8 -0.18 dB -10.54 dB 3:54 18-Send Me An Angel
––––––––––––––––––––––––––––––––––––––––

Number of tracks: 3
Official DR value: DR8

Samplerate: 44100 Hz
Channels: 2
Bits per sample: 16
Bitrate: 955 kbps
Codec: FLAC
================================================================================

––––––––––––––––––––––––––––––––––––––––
Analyzed: Simple Minds / Die Hit-Giganten - Best Of 80's CD1 (1)
Spandau Ballet / Die Hit-Giganten - Best Of 80's CD1 (2)
The Bangels / Die Hit-Giganten - Best Of 80's CD1 (3)
––––––––––––––––––––––––––––––––––––––––

DR Peak RMS Duration Track
––––––––––––––––––––––––––––––––––––––––
DR9 -0.09 dB -10.94 dB 4:21 01-Don't You (Forget About Me)
DR8 -0.09 dB -10.33 dB 5:31 09-True
DR8 -0.90 dB -11.32 dB 3:22 19-Walk Like An Egyptian
––––––––––––––––––––––––––––––––––––––––

Number of tracks: 3
Official DR value: DR9

Samplerate: 44100 Hz
Channels: 2
Bits per sample: 16
Bitrate: 955 kbps
Codec: FLAC
================================================================================

––––––––––––––––––––––––––––––––––––––––
Statistics for: 15-Don't Go
Number of samples: 8204952
Duration: 3:06
––––––––––––––––––––––––––––––––––––––––

Left Right

Peak Value: -0.08 dB –- -0.08 dB
Avg RMS: -11.79 dB –- -11.55 dB
DR channel: 9.88 dB –- 9.61 dB
––––––––––––––––––––––––––––––––––––––––

Official DR Value: DR10

Samplerate: 44100 Hz
Channels: 2
Bits per sample: 16
Bitrate: 955 kbps
Codec: FLAC
================================================================================
foobar2000 1.2.6 / Dynamic Range Meter 1.1.1
log date: 2015-04-26 02:07:29

––––––––––––––––––––––––––––––––––––––––
Statistics for: 16-The Look Of Love (Part 1)
Number of samples: 9258648
Duration: 3:30
––––––––––––––––––––––––––––––––––––––––

Left Right

Peak Value: -0.08 dB –- -0.08 dB
Avg RMS: -11.38 dB –- -11.32 dB
DR channel: 9.49 dB –- 9.15 dB
––––––––––––––––––––––––––––––––––––––––

Official DR Value: DR9

Samplerate: 44100 Hz
Channels: 2
Bits per sample: 16
Bitrate: 955 kbps
Codec: FLAC
================================================================================

[CUETools log; Date: 26.04.2015 2:04:10; Version: 2.1.5]
[CTDB TOCID: ZHx7emDBbliV4FnlJl4iQnv50yU-] found.
Track | CTDB Status
1 | (25/25) Accurately ripped
2 | (25/25) Accurately ripped
3 | (25/25) Accurately ripped
4 | (25/25) Accurately ripped
5 | (25/25) Accurately ripped
6 | (25/25) Accurately ripped
7 | (25/25) Accurately ripped
8 | (25/25) Accurately ripped
9 | (25/25) Accurately ripped
10 | (25/25) Accurately ripped
11 | (25/25) Accurately ripped
12 | (25/25) Accurately ripped
13 | (25/25) Accurately ripped
14 | (25/25) Accurately ripped
15 | (25/25) Accurately ripped
16 | (25/25) Accurately ripped
17 | (25/25) Accurately ripped
18 | (25/25) Accurately ripped
19 | (25/25) Accurately ripped
20 | (24/25) Accurately ripped
[AccurateRip ID: 003bc110-036584b5-3212b414] found.
Track [ CRC | V2 ] Status
01 [f0f15eeb|9666248c] (00+03/16) Accurately ripped
02 [1ce18cb6|7ad22ed2] (00+03/15) Accurately ripped
03 [43aba39f|dba4237b] (00+03/15) Accurately ripped
04 [c0d41d8f|e93931a3] (00+03/15) Accurately ripped
05 [4c29f41f|5661deb8] (00+03/15) Accurately ripped
06 [4b2356d4|36090ed7] (00+03/15) Accurately ripped
07 [e3cce6d6|8bc33cee] (00+03/15) Accurately ripped
08 [414b6a3b|877fb238] (00+03/15) Accurately ripped
09 [745cc146|c347837e] (00+03/15) Accurately ripped
10 [6e12ac4c|b42d0f13] (00+03/15) Accurately ripped
11 [9beec71c|79375e02] (00+03/15) Accurately ripped
12 [6b053d19|6f76e9f7] (00+03/15) Accurately ripped
13 [2b42c36d|33f48234] (00+03/15) Accurately ripped
14 [f6ac650f|909a3586] (00+03/15) Accurately ripped
15 [17906df5|832ae729] (00+03/15) Accurately ripped
16 [4c8d45f5|6e405f6b] (00+03/15) Accurately ripped
17 [0e7bf4f2|1d3cea10] (00+03/15) Accurately ripped
18 [3f8600b7|581c5f63] (00+03/16) Accurately ripped
19 [9e711509|30cf3da0] (00+03/15) Accurately ripped
20 [3eb0981a|4f059e14] (00+03/15) Accurately ripped
Offsetted by -12:
01 [ca474e4f] (00/16) No match (V2 was not tested)
02 [dfb35b5a] (00/15) No match (V2 was not tested)
03 [bea9a45b] (00/15) No match (V2 was not tested)
04 [bf0ef753] (00/15) No match (V2 was not tested)
05 [5c2d2f03] (00/15) No match (V2 was not tested)
06 [31261b84] (00/15) No match (V2 was not tested)
07 [25daceee] (00/15) No match (V2 was not tested)
08 [da92fcb3] (00/15) No match (V2 was not tested)
09 [85b57526] (00/15) No match (V2 was not tested)
10 [204f7848] (00/15) No match (V2 was not tested)
11 [c3fba5d8] (00/15) No match (V2 was not tested)
12 [e6c50de1] (00/15) No match (V2 was not tested)
13 [b95b6b55] (00/15) No match (V2 was not tested)
14 [f32c0e17] (00/15) No match (V2 was not tested)
15 [aabff961] (00/15) No match (V2 was not tested)
16 [a34fc825] (00/15) No match (V2 was not tested)
17 [985bb26a] (00/15) No match (V2 was not tested)
18 [74517f43] (00/16) No match (V2 was not tested)
19 [a5c7c731] (00/15) No match (V2 was not tested)
20 [72757bc6] (00/15) No match (V2 was not tested)

Track Peak [ CRC32 ] [W/O NULL] [ LOG ]
– 99,0 [4E2A2BBB] [357F1CCD] CRC32
01 99,0 [B8317FAD] [45C81DCD]
02 99,0 [2FD03316] [ED79E432]
03 93,5 [1FFA7D16] [6D6B8DEA]
04 99,0 [57D1FEFA] [3D1CD0C9]
05 99,0 [AA77CB97] [65F34873]
06 89,2 [A5D593E1] [7CB44566]
07 99,0 [C2468358] [B5D5D5E2]
08 90,3 [7F77C637] [996142DE]
09 99,0 [B294B24A] [E0EF2EC5]
10 90,0 [E09CA970] [1C252FC1]
11 92,4 [19DDEE45] [D834D146]
12 97,5 [21730534] [70E26568]
13 91,3 [776A0F44] [726C262A]
14 94,3 [C5CCDBB7] [429CC524]
15 99,0 [0BFB3E0B] [559DFDCE]
16 99,0 [3A8488F4] [AF153341]
17 99,0 [24FECC84] [31766CB2]
18 97,9 [9443E77A] [DA06E485]
19 90,2 [E0D04E1D] [492FA103]
20 93,5 [D8E1BB15] [1A181ACF]

Track List CD2:

01. Tina Turner - Private Dancer [04:01]
02. Jermaine Jackson & Pia Zadora - When The Rain Begins To Fall [04:07]
03. Terence Trent D'arby - Wishing Well [03:32]
04. Rick Astley - Never Gonna Give You Up [03:34]
05. Howard Jones - What Is Love? [03:41]
06. Kenny Loggins - Footloose [03:48]
07. Cyndi Lauper - Girls Just Want To Have Fun [03:47]
08. Thompson Twins - Hold Me Now [04:45]
09. Tanita Tikaram - Twist In My Sobriety [04:53]
10. A Flock Of Seagulls - I Ran [05:05]
11. Living In A Box - Living In A Box [03:05]
12. Adam Ant - Goody Two Shoes [03:31]
13. Cock Robin - The Promise You Made [03:55]
14. Don Johnson - Heartbeat [04:19]
15. Moti Special - Cold Days, Hot Nights [03:41]
16. Modern Talking - You're My Heart, You're My Soul [03:24]
17. Daryl Hall & John Oates - Maneater [04:33]
18. Roachford - Cuddly Toy [03:50]
19. Fine Young Cannibals - She Drives Me Crazy [03:37]
20. Whitney Houston - I Wanna Dance With Somebody [04:51]

Exact Audio Copy V1.0 beta 3 from 29. August 2011

EAC extraction logfile from 22. April 2015, 0:40

Various Artists / Die Hit-Giganten - Best Of 80s CD2

Used drive : PLEXTOR BD-R PX-B940SA Adapter: 5 ID: 0

Read mode : Secure
Utilize accurate stream : Yes
Defeat audio cache : Yes
Make use of C2 pointers : No

Read offset correction : 667
Overread into Lead-In and Lead-Out : No
Fill up missing offset samples with silence : Yes
Delete leading and trailing silent blocks : No
Null samples used in CRC calculations : Yes
Used interface : Installed external ASPI interface

Used output format : User Defined Encoder
Selected bitrate : 128 kBit/s
Quality : High
Add ID3 tag : Yes
Command line compressor : G:\Program Files (x86)\Exact Audio Copy\Flac\flac.exe
Additional command line options : -V -8 -T "Date=%year%" -T "Genre=%genre%" %source%


TOC of the extracted CD

Track | Start | Length | Start sector | End sector
––––––––––––––––––––––––––––-
1 | 0:00.00 | 4:00.30 | 0 | 18029
2 | 4:00.30 | 4:06.38 | 18030 | 36517
3 | 8:06.68 | 3:31.54 | 36518 | 52396
4 | 11:38.47 | 3:33.74 | 52397 | 68445
5 | 15:12.46 | 3:40.20 | 68446 | 84965
6 | 18:52.66 | 3:47.46 | 84966 | 102036
7 | 22:40.37 | 3:46.37 | 102037 | 119023
8 | 26:26.74 | 4:44.27 | 119024 | 140350
9 | 31:11.26 | 4:52.09 | 140351 | 162259
10 | 36:03.35 | 5:04.16 | 162260 | 185075
11 | 41:07.51 | 3:04.24 | 185076 | 198899
12 | 44:12.00 | 3:30.57 | 198900 | 214706
13 | 47:42.57 | 3:54.15 | 214707 | 232271
14 | 51:36.72 | 4:18.65 | 232272 | 251686
15 | 55:55.62 | 3:40.17 | 251687 | 268203
16 | 59:36.04 | 3:23.05 | 268204 | 283433
17 | 62:59.09 | 4:32.52 | 283434 | 303885
18 | 67:31.61 | 3:49.52 | 303886 | 321112
19 | 71:21.38 | 3:36.72 | 321113 | 337384
20 | 74:58.35 | 4:50.47 | 337385 | 359181


Range status and errors

Selected range

Filename D:\MUSIC\Various Artists - Die Hit-Giganten - Best Of 80s CD2.wav

Peak level 99.7 %
Extraction speed 5.4 X
Range quality 99.9 %
Test CRC 28AC57B0
Copy CRC 28AC57B0
Copy OK

No errors occurred


AccurateRip summary

Track 1 accurately ripped (confidence 3) [60895335] (AR v2)
Track 2 accurately ripped (confidence 3) [E590E222] (AR v2)
Track 3 accurately ripped (confidence 3) [AF83A29F] (AR v2)
Track 4 accurately ripped (confidence 3) [BDE2C242] (AR v2)
Track 5 accurately ripped (confidence 3) [F8EBB20A] (AR v2)
Track 6 accurately ripped (confidence 3) [285A2C5F] (AR v2)
Track 7 accurately ripped (confidence 3) [1E946B50] (AR v2)
Track 8 accurately ripped (confidence 3) [271FB608] (AR v2)
Track 9 accurately ripped (confidence 3) [F03066E4] (AR v2)
Track 10 accurately ripped (confidence 3) [3F77E14D] (AR v2)
Track 11 accurately ripped (confidence 3) [13BF75AC] (AR v2)
Track 12 accurately ripped (confidence 3) [27695160] (AR v2)
Track 13 accurately ripped (confidence 3) [697FC773] (AR v2)
Track 14 accurately ripped (confidence 3) [07AEF5DE] (AR v2)
Track 15 accurately ripped (confidence 3) [83197A36] (AR v2)
Track 16 accurately ripped (confidence 3) [659D96B4] (AR v2)
Track 17 accurately ripped (confidence 3) [35948632] (AR v2)
Track 18 accurately ripped (confidence 3) [D4B4D7B0] (AR v2)
Track 19 accurately ripped (confidence 3) [A9C20054] (AR v2)
Track 20 accurately ripped (confidence 3) [C7DF2FB5] (AR v2)

All tracks accurately ripped

End of status report

==== Log checksum 501A815A94062F3524067A2D79402580A701AAE35FDC48279259F27799C79CAC ====

foobar2000 1.2.6 / Dynamic Range Meter 1.1.1
log date: 2015-04-26 02:18:07

––––––––––––––––––––––––––––––––––––––––
Analyzed: A Flock Of Seagulls / Die Hit-Giganten - Best Of 80s CD2 (1)
Adam Ant / Die Hit-Giganten - Best Of 80s CD2 (2)
Cock Robin / Die Hit-Giganten - Best Of 80s CD2 (3)
––––––––––––––––––––––––––––––––––––––––

DR Peak RMS Duration Track
––––––––––––––––––––––––––––––––––––––––
DR8 -0.59 dB -10.58 dB 5:04 10-I Ran
DR7 -1.37 dB -9.64 dB 3:31 12-Goody Two Shoes
DR9 -0.48 dB -11.73 dB 3:54 13-The Promise You Made
––––––––––––––––––––––––––––––––––––––––

Number of tracks: 3
Official DR value: DR8

Samplerate: 44100 Hz
Channels: 2
Bits per sample: 16
Bitrate: 962 kbps
Codec: FLAC
================================================================================

––––––––––––––––––––––––––––––––––––––––
Analyzed: Cyndi Lauper / Die Hit-Giganten - Best Of 80s CD2 (1)
Daryl Hall & John Oates / Die Hit-Giganten - Best Of 80s CD2 (2)
––––––––––––––––––––––––––––––––––––––––

DR Peak RMS Duration Track
––––––––––––––––––––––––––––––––––––––––
DR8 -0.23 dB -9.64 dB 3:46 07-Girls Just Want To Have Fun
DR9 -1.07 dB -11.11 dB 4:33 17-Maneater
––––––––––––––––––––––––––––––––––––––––

Number of tracks: 2
Official DR value: DR8

Samplerate: 44100 Hz
Channels: 2
Bits per sample: 16
Bitrate: 962 kbps
Codec: FLAC
================================================================================

––––––––––––––––––––––––––––––––––––––––
Analyzed: Don Johnson / Die Hit-Giganten - Best Of 80s CD2 (1)
Fine Young Cannibals / Die Hit-Giganten - Best Of 80s CD2 (2)
––––––––––––––––––––––––––––––––––––––––

DR Peak RMS Duration Track
––––––––––––––––––––––––––––––––––––––––
DR8 -1.08 dB -10.53 dB 4:19 14-Heartbeat
DR7 -2.10 dB -10.24 dB 3:37 19-She Drives Me Crazy
––––––––––––––––––––––––––––––––––––––––

Number of tracks: 2
Official DR value: DR7

Samplerate: 44100 Hz
Channels: 2
Bits per sample: 16
Bitrate: 962 kbps
Codec: FLAC
================================================================================

––––––––––––––––––––––––––––––––––––––––
Statistics for: 05-What Is Love?
Number of samples: 9713760
Duration: 3:40
––––––––––––––––––––––––––––––––––––––––

Left Right

Peak Value: -1.58 dB –- -1.58 dB
Avg RMS: -9.72 dB –- -9.83 dB
DR channel: 7.05 dB –- 7.04 dB
––––––––––––––––––––––––––––––––––––––––

Official DR Value: DR7

Samplerate: 44100 Hz
Channels: 2
Bits per sample: 16
Bitrate: 962 kbps
Codec: FLAC
================================================================================
––––––––––––––––––––––––––––––––––––––––
Analyzed: Jermaine Jackson & Pia Zadora / Die Hit-Giganten - Best Of 80s CD2 (1)
Kenny Loggins / Die Hit-Giganten - Best Of 80s CD2 (2)
Living In A Box / Die Hit-Giganten - Best Of 80s CD2 (3)
Modern Talking / Die Hit-Giganten - Best Of 80s CD2 (4)
––––––––––––––––––––––––––––––––––––––––

DR Peak RMS Duration Track
––––––––––––––––––––––––––––––––––––––––
DR7 -0.78 dB -9.77 dB 4:07 02-When The Rain Begins To Fall
DR7 -1.00 dB -9.71 dB 3:48 06-Footloose
DR10 -0.02 dB -11.33 dB 3:04 11-Living In A Box
DR10 -0.09 dB -11.54 dB 3:23 16-You're My Heart, You're My Soul
––––––––––––––––––––––––––––––––––––––––

Number of tracks: 4
Official DR value: DR8

Samplerate: 44100 Hz
Channels: 2
Bits per sample: 16
Bitrate: 962 kbps
Codec: FLAC
================================================================================

––––––––––––––––––––––––––––––––––––––––
Statistics for: 15-Cold Days, Hot Nights
Number of samples: 9711996
Duration: 3:40
––––––––––––––––––––––––––––––––––––––––

Left Right

Peak Value: -0.88 dB –- -0.88 dB
Avg RMS: -9.69 dB –- -9.94 dB
DR channel: 7.27 dB –- 7.60 dB
––––––––––––––––––––––––––––––––––––––––

Official DR Value: DR7

Samplerate: 44100 Hz
Channels: 2
Bits per sample: 16
Bitrate: 962 kbps
Codec: FLAC
================================================================================
––––––––––––––––––––––––––––––––––––––––
Analyzed: Rick Astley / Die Hit-Giganten - Best Of 80s CD2 (1)
Roachford / Die Hit-Giganten - Best Of 80s CD2 (2)
––––––––––––––––––––––––––––––––––––––––

DR Peak RMS Duration Track
––––––––––––––––––––––––––––––––––––––––
DR9 -0.80 dB -11.87 dB 3:34 04-Never Gonna Give You Up
DR8 -1.08 dB -10.16 dB 3:50 18-Cuddly Toy
––––––––––––––––––––––––––––––––––––––––

Number of tracks: 2
Official DR value: DR8

Samplerate: 44100 Hz
Channels: 2
Bits per sample: 16
Bitrate: 962 kbps
Codec: FLAC
================================================================================

––––––––––––––––––––––––––––––––––––––––
Statistics for: 09-Twist In My Sobriety
Number of samples: 12882492
Duration: 4:52
––––––––––––––––––––––––––––––––––––––––

Left Right

Peak Value: -0.18 dB –- -0.19 dB
Avg RMS: -10.28 dB –- -9.89 dB
DR channel: 8.85 dB –- 8.60 dB
––––––––––––––––––––––––––––––––––––––––

Official DR Value: DR9

Samplerate: 44100 Hz
Channels: 2
Bits per sample: 16
Bitrate: 962 kbps
Codec: FLAC
================================================================================
––––––––––––––––––––––––––––––––––––––––
Analyzed: Terence Trent D'arby / Die Hit-Giganten - Best Of 80s CD2 (1)
Thompson Twins / Die Hit-Giganten - Best Of 80s CD2 (2)
––––––––––––––––––––––––––––––––––––––––

DR Peak RMS Duration Track
––––––––––––––––––––––––––––––––––––––––
DR8 -0.98 dB -10.87 dB 3:32 03-Wishing Well
DR7 -1.16 dB -9.99 dB 4:44 08-Hold Me Now
––––––––––––––––––––––––––––––––––––––––

Number of tracks: 2
Official DR value: DR8

Samplerate: 44100 Hz
Channels: 2
Bits per sample: 16
Bitrate: 962 kbps
Codec: FLAC
================================================================================

––––––––––––––––––––––––––––––––––––––––
Analyzed: Tina Turner / Die Hit-Giganten - Best Of 80s CD2 (1)
Whitney Houston / Die Hit-Giganten - Best Of 80s CD2 (2)
––––––––––––––––––––––––––––––––––––––––

DR Peak RMS Duration Track
––––––––––––––––––––––––––––––––––––––––
DR9 -0.38 dB -12.09 dB 4:00 01-Private Dancer
DR8 -0.90 dB -10.12 dB 4:51 20-I Wanna Dance With Somebody
––––––––––––––––––––––––––––––––––––––––

Number of tracks: 2
Official DR value: DR8

Samplerate: 44100 Hz
Channels: 2
Bits per sample: 16
Bitrate: 962 kbps
Codec: FLAC
================================================================================

[CUETools log; Date: 26.04.2015 2:04:38; Version: 2.1.5]
[CTDB TOCID: JxBkNVUTpiiMCFTVrhu5.D2VRA4-] found.
Track | CTDB Status
1 | (25/25) Accurately ripped
2 | (25/25) Accurately ripped
3 | (25/25) Accurately ripped
4 | (25/25) Accurately ripped
5 | (25/25) Accurately ripped
6 | (25/25) Accurately ripped
7 | (25/25) Accurately ripped
8 | (25/25) Accurately ripped
9 | (25/25) Accurately ripped
10 | (25/25) Accurately ripped
11 | (25/25) Accurately ripped
12 | (25/25) Accurately ripped
13 | (25/25) Accurately ripped
14 | (25/25) Accurately ripped
15 | (25/25) Accurately ripped
16 | (25/25) Accurately ripped
17 | (25/25) Accurately ripped
18 | (25/25) Accurately ripped
19 | (25/25) Accurately ripped
20 | (25/25) Accurately ripped
[AccurateRip ID: 003910e3-0346ccf6-3012b514] found.
Track [ CRC | V2 ] Status
01 [7c44b2f3|60895335] (00+03/13) Accurately ripped
02 [82eb3a38|e590e222] (00+03/13) Accurately ripped
03 [067d3b4a|af83a29f] (00+03/13) Accurately ripped
04 [90bb266e|bde2c242] (00+03/13) Accurately ripped
05 [20e906d4|f8ebb20a] (00+03/13) Accurately ripped
06 [5de42f98|285a2c5f] (00+03/13) Accurately ripped
07 [27d0f59b|1e946b50] (00+03/13) Accurately ripped
08 [9c7e56b0|271fb608] (00+03/13) Accurately ripped
09 [0b6f48a3|f03066e4] (00+03/13) Accurately ripped
10 [bfcedf46|3f77e14d] (00+03/13) Accurately ripped
11 [1c5d853d|13bf75ac] (00+03/13) Accurately ripped
12 [01efc848|27695160] (00+03/13) Accurately ripped
13 [4ea2562a|697fc773] (00+03/13) Accurately ripped
14 [35dba233|07aef5de] (00+03/13) Accurately ripped
15 [f0839ae3|83197a36] (00+03/13) Accurately ripped
16 [2ec35e48|659d96b4] (00+03/13) Accurately ripped
17 [f2b8e688|35948632] (00+03/14) Accurately ripped
18 [af5a3541|d4b4d7b0] (00+03/14) Accurately ripped
19 [2b61a910|a9c20054] (00+03/14) Accurately ripped
20 [65dc235f|c7df2fb5] (00+03/13) Accurately ripped
Offsetted by -12:
01 [268af5ef] (00/13) No match (V2 was not tested)
02 [f98e4ebc] (00/13) No match (V2 was not tested)
03 [1d0527e2] (00/13) No match (V2 was not tested)
04 [7de27442] (00/13) No match (V2 was not tested)
05 [4538f094] (00/13) No match (V2 was not tested)
06 [4a0c5f78] (00/13) No match (V2 was not tested)
07 [9f340743] (00/13) No match (V2 was not tested)
08 [11aaa8f8] (00/13) No match (V2 was not tested)
09 [84ddfbb7] (00/13) No match (V2 was not tested)
10 [06cb68aa] (00/13) No match (V2 was not tested)
11 [44a424ed] (00/13) No match (V2 was not tested)
12 [3cc54cf8] (00/13) No match (V2 was not tested)
13 [f7ee50aa] (00/13) No match (V2 was not tested)
14 [a29d2a03] (00/13) No match (V2 was not tested)
15 [1e644663] (00/13) No match (V2 was not tested)
16 [dde71960] (00/13) No match (V2 was not tested)
17 [cb64b774] (00/14) No match (V2 was not tested)
18 [aff11969] (00/14) No match (V2 was not tested)
19 [cb9ed188] (00/14) No match (V2 was not tested)
20 [8fff1677] (00/13) No match (V2 was not tested)

Track Peak [ CRC32 ] [W/O NULL] [ LOG ]
– 99,7 [28AC57B0] [140FAE03] CRC32
01 95,6 [1C70FE60] [CD6CECC0]
02 91,3 [F9396DDE] [49CCF944]
03 89,3 [BE114AC2] [9CC05703]
04 91,2 [F8F17FAD] [52E5AB21]
05 83,3 [D5722617] [38556624]
06 89,1 [6A61F2C6] [1BB899D1]
07 97,3 [457B7E1A] [F9DFCB7B]
08 87,4 [1EBB7262] [84D57E19]
09 97,8 [6DA84FFE] [DD25E9A5]
10 93,4 [1697EAE4] [7E008B4E]
11 99,7 [AA37085C] [5D34DD01]
12 85,3 [37C32830] [F282521C]
13 94,5 [14ABABC0] [67BB626B]
14 88,3 [FDA9B9A8] [FD5617BF]
15 90,3 [BB53F2D0] [85B2BF3A]
16 99,0 [AB9386D3] [1851AF8D]
17 88,3 [5FBF09B9] [D2E41414]
18 88,2 [B01C062F] [3DE418C4]
19 78,5 [3A9B60AC] [D089A21B]
20 90,2 [344B91D9] [BB40EA91]

Track List CD3:

01. Wham! - Wake Me Up Before You Go-Go [03:54]
02. Roxette - The Look [03:58]
03. Bronski Beat - Smalltown Boy [03:59]
04. Talking Heads - Burning Down The House [04:03]
05. Men Without Hats - The Safety Dance [02:46]
06. Visage - Fade To Grey [03:52]
07. Corey Heart - Sunglasses At Night [05:17]
08. Camouflage - Love Is A Shield [04:04]
09. Culture Club - Do You Really Want To Hurt Me? [04:25]
10. Talk Talk - Such A Shame [04:27]
11. Kajagoogoo With Limahl - Too Shy [03:41]
12. The Flying Pickets - Only You [03:26]
13. Bros - When Will I Be Famous? [05:03]
14. Gazebo - I Like Chopin [04:09]
15. Valerie Dore - The Night [03:39]
16. Bananarama - Venus [03:38]
17. Sydney Youngblood - If Only I Could [03:32]
18. Electric Light Orchestra - Hold On Tight [03:09]
19. Bruce Hornsby & The Range - The Way It Is [04:07]
20. Robert Palmer - Johnny & Mary [04:01]

Exact Audio Copy V1.0 beta 3 from 29. August 2011

EAC extraction logfile from 23. April 2015, 18:03

Various Artists / Die Hit-Giganten - Best Of 80s CD3

Used drive : PLEXTOR DVDR PX-860A Adapter: 4 ID: 0

Read mode : Secure
Utilize accurate stream : Yes
Defeat audio cache : Yes
Make use of C2 pointers : No

Read offset correction : 96
Overread into Lead-In and Lead-Out : No
Fill up missing offset samples with silence : Yes
Delete leading and trailing silent blocks : No
Null samples used in CRC calculations : Yes
Used interface : Installed external ASPI interface

Used output format : User Defined Encoder
Selected bitrate : 128 kBit/s
Quality : High
Add ID3 tag : Yes
Command line compressor : G:\Program Files (x86)\Exact Audio Copy\Flac\flac.exe
Additional command line options : -V -8 -T "Date=%year%" -T "Genre=%genre%" %source%


TOC of the extracted CD

Track | Start | Length | Start sector | End sector
––––––––––––––––––––––––––––-
1 | 0:00.00 | 3:53.57 | 0 | 17531
2 | 3:53.57 | 3:57.24 | 17532 | 35330
3 | 7:51.06 | 3:58.20 | 35331 | 53200
4 | 11:49.26 | 4:02.35 | 53201 | 71385
5 | 15:51.61 | 2:45.67 | 71386 | 83827
6 | 18:37.53 | 3:51.43 | 83828 | 101195
7 | 22:29.21 | 5:16.58 | 101196 | 124953
8 | 27:46.04 | 4:03.08 | 124954 | 143186
9 | 31:49.12 | 4:24.21 | 143187 | 163007
10 | 36:13.33 | 4:26.60 | 163008 | 183017
11 | 40:40.18 | 3:40.73 | 183018 | 199590
12 | 44:21.16 | 3:25.18 | 199591 | 214983
13 | 47:46.34 | 5:02.27 | 214984 | 237660
14 | 52:48.61 | 4:08.20 | 237661 | 256280
15 | 56:57.06 | 3:38.06 | 256281 | 272636
16 | 60:35.12 | 3:37.20 | 272637 | 288931
17 | 64:12.32 | 3:31.33 | 288932 | 304789
18 | 67:43.65 | 3:08.31 | 304790 | 318920
19 | 70:52.21 | 4:06.21 | 318921 | 337391
20 | 74:58.42 | 4:00.14 | 337392 | 355405


Range status and errors

Selected range

Filename D:\MUSIC\Various Artists - Die Hit-Giganten - Best Of 80s CD3.wav

Peak level 99.4 %
Extraction speed 8.4 X
Range quality 100.0 %
Test CRC 0911BB21
Copy CRC 0911BB21
Copy OK

No errors occurred


AccurateRip summary

Track 1 accurately ripped (confidence 3) [AAF65C1E] (AR v2)
Track 2 accurately ripped (confidence 3) [BACF44E3] (AR v2)
Track 3 accurately ripped (confidence 3) [0D5F67FF] (AR v2)
Track 4 accurately ripped (confidence 3) [DFC4EE11] (AR v2)
Track 5 accurately ripped (confidence 3) [DE360F45] (AR v2)
Track 6 accurately ripped (confidence 3) [D1472BA3] (AR v2)
Track 7 accurately ripped (confidence 3) [DC70ABCF] (AR v2)
Track 8 accurately ripped (confidence 3) [3C9EB522] (AR v2)
Track 9 accurately ripped (confidence 3) [B9854F6D] (AR v2)
Track 10 accurately ripped (confidence 3) [D5C6679E] (AR v2)
Track 11 accurately ripped (confidence 3) [D3631BFD] (AR v2)
Track 12 accurately ripped (confidence 3) [7BEA0AC3] (AR v2)
Track 13 accurately ripped (confidence 3) [B251A7A6] (AR v2)
Track 14 accurately ripped (confidence 3) [9C454F33] (AR v2)
Track 15 accurately ripped (confidence 3) [0F6D3625] (AR v2)
Track 16 accurately ripped (confidence 3) [4FB1626B] (AR v2)
Track 17 accurately ripped (confidence 3) [90CF1937] (AR v2)
Track 18 accurately ripped (confidence 3) [7F6E1833] (AR v2)
Track 19 accurately ripped (confidence 3) [8590B391] (AR v2)
Track 20 accurately ripped (confidence 3) [716446CB] (AR v2)

All tracks accurately ripped

End of status report

==== Log checksum 71C29CD7B0EEAF3A768E03B8AC52661D217C1B4E6D62BD8F67CFEEAF52BDAD07 ====

foobar2000 1.2.6 / Dynamic Range Meter 1.1.1
log date: 2015-04-26 02:19:53

––––––––––––––––––––––––––––––––––––––––
Analyzed: Bronski Beat / Die Hit-Giganten - Best Of 80s CD3 (1)
Bros / Die Hit-Giganten - Best Of 80s CD3 (2)
Bruce Hornsby & The Range / Die Hit-Giganten - Best Of 80s CD3 (3)
––––––––––––––––––––––––––––––––––––––––

DR Peak RMS Duration Track
––––––––––––––––––––––––––––––––––––––––
DR8 -0.18 dB -10.37 dB 3:58 03-Smalltown Boy
DR8 -1.08 dB -10.38 dB 5:02 13-When Will I Be Famous?
DR8 -1.49 dB -10.76 dB 4:06 19-The Way It Is
––––––––––––––––––––––––––––––––––––––––

Number of tracks: 3
Official DR value: DR8

Samplerate: 44100 Hz
Channels: 2
Bits per sample: 16
Bitrate: 956 kbps
Codec: FLAC
================================================================================

––––––––––––––––––––––––––––––––––––––––
Statistics for: 08-Love Is A Shield
Number of samples: 10721004
Duration: 4:03
––––––––––––––––––––––––––––––––––––––––

Left Right

Peak Value: -0.60 dB –- -0.60 dB
Avg RMS: -9.80 dB –- -9.86 dB
DR channel: 7.97 dB –- 8.01 dB
––––––––––––––––––––––––––––––––––––––––

Official DR Value: DR8

Samplerate: 44100 Hz
Channels: 2
Bits per sample: 16
Bitrate: 956 kbps
Codec: FLAC
================================================================================
––––––––––––––––––––––––––––––––––––––––
Analyzed: Corey Heart / Die Hit-Giganten - Best Of 80s CD3 (1)
Culture Club / Die Hit-Giganten - Best Of 80s CD3 (2)
Electric Light Orchestra / Die Hit-Giganten - Best Of 80s CD3 (3)
––––––––––––––––––––––––––––––––––––––––

DR Peak RMS Duration Track
––––––––––––––––––––––––––––––––––––––––
DR8 -1.18 dB -10.05 dB 5:17 07-Sunglasses At Night
DR7 -0.15 dB -9.89 dB 4:24 09-Do You Really Want To Hurt Me?
DR8 -0.65 dB -9.89 dB 3:08 18-Hold On Tight
––––––––––––––––––––––––––––––––––––––––

Number of tracks: 3
Official DR value: DR8

Samplerate: 44100 Hz
Channels: 2
Bits per sample: 16
Bitrate: 956 kbps
Codec: FLAC
================================================================================

––––––––––––––––––––––––––––––––––––––––
Statistics for: 14-I Like Chopin
Number of samples: 10948560
Duration: 4:08
––––––––––––––––––––––––––––––––––––––––

Left Right

Peak Value: -1.75 dB –- -1.75 dB
Avg RMS: -10.93 dB –- -10.56 dB
DR channel: 6.64 dB –- 6.26 dB
––––––––––––––––––––––––––––––––––––––––

Official DR Value: DR6

Samplerate: 44100 Hz
Channels: 2
Bits per sample: 16
Bitrate: 956 kbps
Codec: FLAC
================================================================================
––––––––––––––––––––––––––––––––––––––––
Statistics for: 11-Too Shy
Number of samples: 9744924
Duration: 3:41
––––––––––––––––––––––––––––––––––––––––

Left Right

Peak Value: -0.59 dB –- -0.56 dB
Avg RMS: -10.14 dB –- -9.98 dB
DR channel: 7.77 dB –- 7.50 dB
––––––––––––––––––––––––––––––––––––––––

Official DR Value: DR8

Samplerate: 44100 Hz
Channels: 2
Bits per sample: 16
Bitrate: 956 kbps
Codec: FLAC
================================================================================
––––––––––––––––––––––––––––––––––––––––
Analyzed: Men Without Hats / Die Hit-Giganten - Best Of 80s CD3 (1)
Robert Palmer / Die Hit-Giganten - Best Of 80s CD3 (2)
––––––––––––––––––––––––––––––––––––––––

DR Peak RMS Duration Track
––––––––––––––––––––––––––––––––––––––––
DR10 -0.05 dB -10.40 dB 2:46 05-The Safety Dance
DR9 -0.48 dB -11.89 dB 4:00 20-Johnny & Mary
––––––––––––––––––––––––––––––––––––––––

Number of tracks: 2
Official DR value: DR9

Samplerate: 44100 Hz
Channels: 2
Bits per sample: 16
Bitrate: 956 kbps
Codec: FLAC
================================================================================

––––––––––––––––––––––––––––––––––––––––
Analyzed: Roxette / Die Hit-Giganten - Best Of 80s CD3 (1)
Sydney Youngblood / Die Hit-Giganten - Best Of 80s CD3 (2)
––––––––––––––––––––––––––––––––––––––––

DR Peak RMS Duration Track
––––––––––––––––––––––––––––––––––––––––
DR8 -1.29 dB -10.67 dB 3:57 02-The Look
DR9 -0.30 dB -10.96 dB 3:31 17-If Only I Could
––––––––––––––––––––––––––––––––––––––––

Number of tracks: 2
Official DR value: DR9

Samplerate: 44100 Hz
Channels: 2
Bits per sample: 16
Bitrate: 956 kbps
Codec: FLAC
================================================================================

––––––––––––––––––––––––––––––––––––––––
Statistics for: 10-Such A Shame
Number of samples: 11765880
Duration: 4:27
––––––––––––––––––––––––––––––––––––––––

Left Right

Peak Value: -0.08 dB –- -0.08 dB
Avg RMS: -12.17 dB –- -12.22 dB
DR channel: 9.77 dB –- 9.91 dB
––––––––––––––––––––––––––––––––––––––––

Official DR Value: DR10

Samplerate: 44100 Hz
Channels: 2
Bits per sample: 16
Bitrate: 956 kbps
Codec: FLAC
================================================================================
––––––––––––––––––––––––––––––––––––––––
Analyzed: Talking Heads / Die Hit-Giganten - Best Of 80s CD3 (1)
The Flying Pickets / Die Hit-Giganten - Best Of 80s CD3 (2)
Valerie Dore / Die Hit-Giganten - Best Of 80s CD3 (3)
––––––––––––––––––––––––––––––––––––––––

DR Peak RMS Duration Track
––––––––––––––––––––––––––––––––––––––––
DR10 -0.08 dB -11.34 dB 4:02 04-Burning Down The House
DR10 -0.08 dB -12.32 dB 3:25 12-Only You
DR9 -0.78 dB -10.58 dB 3:38 15-The Night
––––––––––––––––––––––––––––––––––––––––

Number of tracks: 3
Official DR value: DR9

Samplerate: 44100 Hz
Channels: 2
Bits per sample: 16
Bitrate: 956 kbps
Codec: FLAC
================================================================================

––––––––––––––––––––––––––––––––––––––––
Statistics for: 06-Fade To Grey
Number of samples: 10212384
Duration: 3:52
––––––––––––––––––––––––––––––––––––––––

Left Right

Peak Value: -0.08 dB –- -0.08 dB
Avg RMS: -11.66 dB –- -11.55 dB
DR channel: 9.55 dB –- 9.19 dB
––––––––––––––––––––––––––––––––––––––––

Official DR Value: DR9

Samplerate: 44100 Hz
Channels: 2
Bits per sample: 16
Bitrate: 956 kbps
Codec: FLAC
================================================================================
––––––––––––––––––––––––––––––––––––––––
Statistics for: 01-Wake Me Up Before You Go-Go
Number of samples: 10308816
Duration: 3:54
––––––––––––––––––––––––––––––––––––––––

Left Right

Peak Value: -1.50 dB –- -1.58 dB
Avg RMS: -9.31 dB –- -9.48 dB
DR channel: 6.42 dB –- 6.58 dB
––––––––––––––––––––––––––––––––––––––––

Official DR Value: DR7

Samplerate: 44100 Hz
Channels: 2
Bits per sample: 16
Bitrate: 956 kbps
Codec: FLAC
================================================================================
foobar2000 1.2.6 / Dynamic Range Meter 1.1.1
log date: 2015-04-26 02:19:50

––––––––––––––––––––––––––––––––––––––––
Statistics for: 16-Venus
Number of samples: 9581460
Duration: 3:37
––––––––––––––––––––––––––––––––––––––––

Left Right

Peak Value: -1.10 dB –- -1.09 dB
Avg RMS: -10.86 dB –- -11.30 dB
DR channel: 8.56 dB –- 8.95 dB
––––––––––––––––––––––––––––––––––––––––

Official DR Value: DR9

Samplerate: 44100 Hz
Channels: 2
Bits per sample: 16
Bitrate: 956 kbps
Codec: FLAC
================================================================================

[CUETools log; Date: 26.04.2015 2:05:07; Version: 2.1.5]
[CTDB TOCID: j633oS3M_Ej165cXvcXyHovOTsQ-] found.
Track | CTDB Status
1 | (28/28) Accurately ripped
2 | (28/28) Accurately ripped
3 | (28/28) Accurately ripped
4 | (28/28) Accurately ripped
5 | (28/28) Accurately ripped
6 | (28/28) Accurately ripped
7 | (28/28) Accurately ripped
8 | (28/28) Accurately ripped
9 | (28/28) Accurately ripped
10 | (28/28) Accurately ripped
11 | (28/28) Accurately ripped
12 | (28/28) Accurately ripped
13 | (28/28) Accurately ripped
14 | (28/28) Accurately ripped
15 | (28/28) Accurately ripped
16 | (28/28) Accurately ripped
17 | (28/28) Accurately ripped
18 | (28/28) Accurately ripped
19 | (28/28) Accurately ripped
20 | (28/28) Accurately ripped
[AccurateRip ID: 00396c24-034afd77-1a128214] found.
Track [ CRC | V2 ] Status
01 [d26f5a0f|aaf65c1e] (00+03/14) Accurately ripped
02 [d197f03e|bacf44e3] (00+03/14) Accurately ripped
03 [652fa4a7|0d5f67ff] (00+03/14) Accurately ripped
04 [fd927be6|dfc4ee11] (00+03/14) Accurately ripped
05 [32c19a3d|de360f45] (00+03/14) Accurately ripped
06 [83889e92|d1472ba3] (00+03/14) Accurately ripped
07 [786ae424|dc70abcf] (00+03/14) Accurately ripped
08 [86e752c0|3c9eb522] (00+03/14) Accurately ripped
09 [2e260417|b9854f6d] (00+03/14) Accurately ripped
10 [8218bdcb|d5c6679e] (00+03/14) Accurately ripped
11 [72fcaf86|d3631bfd] (00+03/14) Accurately ripped
12 [cbc4be01|7bea0ac3] (00+03/14) Accurately ripped
13 [2fad24e9|b251a7a6] (00+03/14) Accurately ripped
14 [64531278|9c454f33] (00+03/14) Accurately ripped
15 [ee1c70c2|0f6d3625] (00+03/14) Accurately ripped
16 [2a71087c|4fb1626b] (00+03/14) Accurately ripped
17 [e35862f7|90cf1937] (00+03/14) Accurately ripped
18 [f2ee9cdb|7f6e1833] (00+03/14) Accurately ripped
19 [2cece6e8|8590b391] (00+03/14) Accurately ripped
20 [37e83938|716446cb] (00+03/14) Accurately ripped
Offsetted by -12:
01 [0616f3a3] (00/14) No match (V2 was not tested)
02 [a1c6c9ca] (00/14) No match (V2 was not tested)
03 [9338b313] (00/14) No match (V2 was not tested)
04 [689606be] (00/14) No match (V2 was not tested)
05 [d08f0c01] (00/14) No match (V2 was not tested)
06 [ebe62ad2] (00/14) No match (V2 was not tested)
07 [2b2737a4] (00/14) No match (V2 was not tested)
08 [86602224] (00/14) No match (V2 was not tested)
09 [7526b693] (00/14) No match (V2 was not tested)
10 [05361c8b] (00/14) No match (V2 was not tested)
11 [3864bcee] (00/14) No match (V2 was not tested)
12 [b79be45d] (00/14) No match (V2 was not tested)
13 [ef8e0381] (00/14) No match (V2 was not tested)
14 [07bc9524] (00/14) No match (V2 was not tested)
15 [061ee392] (00/14) No match (V2 was not tested)
16 [ea3dc70c] (00/14) No match (V2 was not tested)
17 [35871e0f] (00/14) No match (V2 was not tested)
18 [2e48431f] (00/14) No match (V2 was not tested)
19 [638cb004] (00/14) No match (V2 was not tested)
20 [f611c35c] (00/14) No match (V2 was not tested)

Track Peak [ CRC32 ] [W/O NULL] [ LOG ]
– 99,4 [0911BB21] [BA869FD0] CRC32
01 84,1 [07190FD5] [51D48276]
02 86,2 [6820421D] [318B8458]
03 97,9 [4C0AA88C] [F3AE5FD1]
04 99,0 [941FB45C] [97DCBDFE]
05 99,4 [5F652731] [45FBB8BC]
06 99,0 [7CA78569] [ADE803DC]
07 87,2 [2CC1F83D] [C1EA5F66]
08 93,3 [D210310F] [C4D345C9]
09 98,2 [7105955C] [81DD4E49]
10 99,0 [E288B5C1] [E06623D0]
11 93,7 [22258E65] [A2AA809E]
12 99,0 [CFA182D9] [5824A247]
13 88,3 [2D294319] [34ECE69A]
14 81,7 [E716EA24] [C0C4690B]
15 91,3 [13B5BEC2] [E03C783F]

VA - Die Hit Giganten - Best Of 80's (2011) [3CD Box Set]

All thanks go to rd

Visit my blog!

Download: