Subcategories

V.A. - Dream Dance Vol. 2: The Best Of Dream House & Trance (1996)

Posted By: gribovar
V.A. - Dream Dance Vol. 2: The Best Of Dream House & Trance (1996)

V.A. - Dream Dance Vol. 2: The Best Of Dream House & Trance (1996)
EAC Rip | FLAC (image+.cue+log) - 1,02 GB | MP3 CBR 320 kbps (LAME 3.93) - 367 MB | Covers - 140 MB
Genre: Dream House, Trance | RAR 3% Rec. | Label: Sony Music Media (SMM 485429 2)

Columbia Germany's Dream Dance series compiles up-to-date club music, providing around 40 tracks in each two-disc package. Although a fair percentage of the tracks included were bona fide dancefloor hits, there's a great deal of nondescript fluff surrounding them, making the sets ideal only for the most patient fan of trance and progressive house. Dream Dance, Vol. 2 includes Carl Cox's "Sensual Sophis-ti-cat," Jaydee's "Music Is So Special," Doctor Twilight's "Theme From Mission: Impossible," Trance A 190's "Harmonica," Dance 2 Trance's "Hello San Francisco," Jam & Spoon's "Follow Me," Visions of Shiva's "How Much Can You Take," and Scooter's "Cosmos."
CD 1 Tracklist:
01. Doctor Twilight - Theme From Mission: Impossible (Dream House Mix)
02. Robert Miles - Fable (Dream Version)
03. B.B. Jones - Seven Days And One Week (Cosmic Edit)
04. Zhi-Vago - Dreamer
05. Ayla - Ayla
06. Agent Vyper - Twin Peaks Theme (Club Vocal Mix)
07. Imperio - Atlantis (DJ Dado Mix)
08. DJ Dado - Metropolis (The Legend Of Babel) (Club Mix)
09. Caucasuss - My Dream (My Wish)
10. Nitribit - Memories (Radio Chant Mix)
11. Winx - Hipnotizin' ('96 Edit)
12. Carl Cox - Sensual Sophis-ti-cat (Radio Edit)
13. Jaydee - Music Is So Special (Radio Mix)
14. Trance A 190 - Harmonica
15. Nylon Moon - Sky Plus (Radio Mix)
16. Unit - Who Do You Love (Adventure Dream Mix)
17. Liquid Sky - House Trance Nation

Total time: 01:17:35

CD 2 Tracklist:
01. Sven Vath - Ballet-Fusion
02. Paragliders - Oasis
03. Cosmic Baby - Heaven's Tears (Jam El Mar Remix)
04. Dance 2 Trance - Hello San Francisco
05. Visions Of Shiva, The - How Much Can You Take? (Emotional)
06. Jam & Spoon - Follow Me!
07. Exit "EEE" - Epidemic
08. Taucher - Miracle (Phase 2)
09. Morgenroth - E Ela (Radio Energized)
10. Primary - 2001 (Sueno De La Luna Mix)
11. Luxor - The Big Bang (Original Mix CD / Video Edit)
12. Scooter - Cosmos
13. Humate - Love Stimulation (Paul Van Dyk's Lovemix)
14. WestBam - Let Yourself Go
15. Jens - Loops & Tings (Remix)
16. AWeX - Wicked Plasticmen (Single Cut)
17. Tom Wax & Jan Jacarta - Music Is The Only Drug (The Union Move Hymn)

Total time: 01:18:24

Exact Audio Copy V0.99 prebeta 5 from 4. May 2009

Отчёт EAC об извлечении, выполненном 7. сентября 2011, 17:13

Various / DreamDance Vol. 2 \ CD 1

Дисковод: HL-DT-STDVDRAM GSA-H10A Adapter: 0 ID: 1

Режим чтения : Достоверность
Использование точного потока : Да
Отключение кэша аудио : Да
Использование указателей C2 : Нет

Коррекция смещения при чтении : 667
Способность читать области Lead-in и Lead-out : Нет
Заполнение пропущенных сэмплов тишиной : Да
Удаление блоков с тишиной в начале и конце : Нет
При вычислениях CRC использовались нулевые сэмплы : Да
Интерфейс : Установленный внешний ASPI-интерфейс

Выходной формат : Пользовательский кодировщик
Выбранный битрейт : 768 kBit/s
Качество : Высокий
Добавление ID3-тэга : Нет
Утилита сжатия : C:\Program Files\Exact Audio Copy\FLAC\FLAC.EXE
Дополнительные параметры : -6 -V -T "ARTIST=%a" -T "TITLE=%t" -T "ALBUM=%g" -T "DATE=%y" -T "TRACKNUMBER=%n" -T "GENRE=%m" -T "COMMENT=%e" %s -o %d


TOC извлечённого CD

Трек | Старт | Длительность | Начальный сектор | Конечный сектор
––––––––––––––––––––––––––––––––––-
1 | 0:00.00 | 6:02.50 | 0 | 27199
2 | 6:02.50 | 3:52.62 | 27200 | 44661
3 | 9:55.37 | 4:29.63 | 44662 | 64899
4 | 14:25.25 | 4:02.12 | 64900 | 83061
5 | 18:27.37 | 3:56.00 | 83062 | 100761
6 | 22:23.37 | 6:05.25 | 100762 | 128161
7 | 28:28.62 | 6:10.00 | 128162 | 155911
8 | 34:38.62 | 5:01.63 | 155912 | 178549
9 | 39:40.50 | 3:28.25 | 178550 | 194174
10 | 43:09.00 | 3:55.50 | 194175 | 211849
11 | 47:04.50 | 3:41.12 | 211850 | 228436
12 | 50:45.62 | 3:47.38 | 228437 | 245499
13 | 54:33.25 | 3:21.25 | 245500 | 260599
14 | 57:54.50 | 3:50.37 | 260600 | 277886
15 | 61:45.12 | 3:11.13 | 277887 | 292224
16 | 64:56.25 | 5:28.25 | 292225 | 316849
17 | 70:24.50 | 7:10.57 | 316850 | 349156


Характеристики диапазона извлечения и сообщения об ошибках

Выбранный диапазон

Имя файла D:\Раздачи\Dream_Dance_Vol_6_60_1997_2011_\Dream Dance 02\CD1\Various - DreamDance Vol. 2 CD 1.wav

Пиковый уровень 98.4 %
Качество диапазона 100.0 %
CRC теста 1AD50A42
CRC копии 1AD50A42
Копирование… OK

Ошибок не произошло


AccurateRip: сводка

Трек 1 точное извлечение (доверие 11) [F219CADD]
Трек 2 точное извлечение (доверие 11) [2D37D6CD]
Трек 3 точное извлечение (доверие 11) [4F4CE345]
Трек 4 точное извлечение (доверие 11) [023C05AD]
Трек 5 точное извлечение (доверие 11) [B7A1C04B]
Трек 6 точное извлечение (доверие 11) [1F859B13]
Трек 7 точное извлечение (доверие 11) [60DBD0E3]
Трек 8 точное извлечение (доверие 11) [013B8059]
Трек 9 точное извлечение (доверие 11) [258161EF]
Трек 10 точное извлечение (доверие 10) [E89F689E]
Трек 11 точное извлечение (доверие 10) [86E2C54C]
Трек 12 точное извлечение (доверие 10) [CC50D66D]
Трек 13 точное извлечение (доверие 11) [1EDB48BD]
Трек 14 точное извлечение (доверие 11) [9598CC91]
Трек 15 точное извлечение (доверие 11) [B2BB9E9D]
Трек 16 точное извлечение (доверие 10) [AA7A65DB]
Трек 17 точное извлечение (доверие 9) [71DEC205]

Все треки извлечены точно

Конец отчёта

[CUETools log; Date: 28.10.2017 21:07:49; Version: 2.1.4]
[CTDB TOCID: 1cpFVJxMMJZ_YTun3MI5p9ZVu1k-] found.
Track | CTDB Status
1 | (66/69) Accurately ripped
2 | (67/69) Accurately ripped
3 | (68/69) Accurately ripped
4 | (68/69) Accurately ripped
5 | (67/69) Accurately ripped
6 | (68/69) Accurately ripped
7 | (66/69) Accurately ripped
8 | (68/69) Accurately ripped
9 | (67/69) Accurately ripped
10 | (67/69) Accurately ripped
11 | (67/69) Accurately ripped
12 | (68/69) Accurately ripped
13 | (68/69) Accurately ripped
14 | (68/69) Accurately ripped
15 | (68/69) Accurately ripped
16 | (68/69) Accurately ripped
17 | (63/69) Accurately ripped
[AccurateRip ID: 00303753-025c0f5a-05122f11] found.
Track [ CRC | V2 ] Status
01 [f219cadd|140987a7] (12+12/36) Accurately ripped
02 [2d37d6cd|59646ebd] (12+12/36) Accurately ripped
03 [4f4ce345|a4aa1b4a] (12+12/36) Accurately ripped
04 [023c05ad|7e65968d] (12+12/36) Accurately ripped
05 [b7a1c04b|ef8749a5] (12+11/35) Accurately ripped
06 [1f859b13|ee0d886f] (12+12/37) Accurately ripped
07 [60dbd0e3|835d43fd] (12+12/34) Accurately ripped
08 [013b8059|d6e910d8] (12+12/36) Accurately ripped
09 [258161ef|c54344fc] (12+12/35) Accurately ripped
10 [e89f689e|01f25c1f] (11+12/35) Accurately ripped
11 [86e2c54c|5832ac33] (11+12/34) Accurately ripped
12 [cc50d66d|4846a32e] (11+12/34) Accurately ripped
13 [1edb48bd|6cd68035] (12+12/35) Accurately ripped
14 [9598cc91|cabcd977] (12+12/35) Accurately ripped
15 [b2bb9e9d|eb846271] (12+12/36) Accurately ripped
16 [aa7a65db|de1492e4] (11+12/35) Accurately ripped
17 [71dec205|35efb899] (10+11/32) Accurately ripped
Offsetted by -270:
01 [75d629cf] (02/36) Accurately ripped
02 [26615563] (02/36) Accurately ripped
03 [db4a75fb] (02/36) Accurately ripped
04 [900ac499] (02/36) Accurately ripped
05 [6d92b815] (02/35) Accurately ripped
06 [d5e8b78b] (03/37) Accurately ripped
07 [1e619aed] (02/34) Accurately ripped
08 [c760c389] (03/36) Accurately ripped
09 [fcef8175] (02/35) Accurately ripped
10 [8bf1987e] (03/35) Accurately ripped
11 [1d3498d0] (02/34) Accurately ripped
12 [22cb9ba7] (02/34) Accurately ripped
13 [5f2b0ba9] (02/35) Accurately ripped
14 [ef3a4c0f] (02/35) Accurately ripped
15 [7261d891] (02/36) Accurately ripped
16 [0da1d33f] (02/35) Accurately ripped
17 [7d3f634d] (02/32) Accurately ripped

Track Peak [ CRC32 ] [W/O NULL] [ LOG ]
– 98,4 [1AD50A42] [560D6ADB] CRC32
01 97,7 [29E609B1] [0CB86869]
02 82,3 [87A03607] [749CE112]
03 98,0 [E21821C6] [F890D8DB]
04 71,6 [EE0E78CE] [FC607204]
05 98,2 [BD115A7D] [66CF7032]
06 98,0 [658CF7CC] [5F5CBFBD]
07 97,7 [A4366A97] [69E2A563]
08 98,0 [55B9741C] [793F18C2]
09 98,3 [2225236D] [95C80E9F]
10 79,0 [17AB531C] [98AC3F76]
11 84,5 [2841B3E8] [A823FCE5]
12 98,4 [883B5ECE] [E44DEB1C]
13 98,0 [BCC0CB7B] [BA0C01EA]
14 69,9 [0EDF1577] [C1AEFF66]
15 98,0 [D1B99447] [A70F827A]
16 70,7 [A71335E7] [1E513C0F]
17 98,3 [5FFAC9E7] [CA3065F7]

Exact Audio Copy V0.99 prebeta 5 from 4. May 2009

Отчёт EAC об извлечении, выполненном 7. сентября 2011, 18:01

Various / DreamDance Vol. 2 \ CD 2

Дисковод: HL-DT-STDVDRAM GSA-H10A Adapter: 0 ID: 1

Режим чтения : Достоверность
Использование точного потока : Да
Отключение кэша аудио : Да
Использование указателей C2 : Нет

Коррекция смещения при чтении : 667
Способность читать области Lead-in и Lead-out : Нет
Заполнение пропущенных сэмплов тишиной : Да
Удаление блоков с тишиной в начале и конце : Нет
При вычислениях CRC использовались нулевые сэмплы : Да
Интерфейс : Установленный внешний ASPI-интерфейс

Выходной формат : Пользовательский кодировщик
Выбранный битрейт : 768 kBit/s
Качество : Высокий
Добавление ID3-тэга : Нет
Утилита сжатия : C:\Program Files\Exact Audio Copy\FLAC\FLAC.EXE
Дополнительные параметры : -6 -V -T "ARTIST=%a" -T "TITLE=%t" -T "ALBUM=%g" -T "DATE=%y" -T "TRACKNUMBER=%n" -T "GENRE=%m" -T "COMMENT=%e" %s -o %d


TOC извлечённого CD

Трек | Старт | Длительность | Начальный сектор | Конечный сектор
––––––––––––––––––––––––––––––––––-
1 | 0:00.00 | 3:38.12 | 0 | 16361
2 | 3:38.12 | 3:58.00 | 16362 | 34211
3 | 7:36.12 | 3:55.38 | 34212 | 51874
4 | 11:31.50 | 3:29.37 | 51875 | 67586
5 | 15:01.12 | 6:48.13 | 67587 | 98199
6 | 21:49.25 | 5:58.62 | 98200 | 125111
7 | 27:48.12 | 4:22.50 | 125112 | 144811
8 | 32:10.62 | 7:06.13 | 144812 | 176774
9 | 39:17.00 | 3:51.00 | 176775 | 194099
10 | 43:08.00 | 4:55.62 | 194100 | 216286
11 | 48:03.62 | 3:29.50 | 216287 | 232011
12 | 51:33.37 | 4:11.13 | 232012 | 250849
13 | 55:44.50 | 5:39.00 | 250850 | 276274
14 | 61:23.50 | 5:28.00 | 276275 | 300874
15 | 66:51.50 | 4:08.62 | 300875 | 319536
16 | 71:00.37 | 3:38.38 | 319537 | 335924
17 | 74:39.00 | 3:44.67 | 335925 | 352791


Характеристики диапазона извлечения и сообщения об ошибках

Выбранный диапазон

Имя файла D:\Раздачи\Dream_Dance_Vol_6_60_1997_2011_\Dream Dance 02\CD2\Various - DreamDance Vol. 2 CD 2.wav

Пиковый уровень 98.8 %
Качество диапазона 100.0 %
CRC теста F6DA7E18
CRC копии F6DA7E18
Копирование… OK

Ошибок не произошло


AccurateRip: сводка

Трек 1 точное извлечение (доверие 12) [AC04032A]
Трек 2 точное извлечение (доверие 12) [7ADA69C9]
Трек 3 точное извлечение (доверие 12) [CE4C4142]
Трек 4 точное извлечение (доверие 11) [FAD6E3A3]
Трек 5 точное извлечение (доверие 11) [D510AB56]
Трек 6 точное извлечение (доверие 11) [4E0E76B3]
Трек 7 точное извлечение (доверие 10) [1688C10B]
Трек 8 точное извлечение (доверие 11) [7CC919A8]
Трек 9 точное извлечение (доверие 12) [F339B587]
Трек 10 точное извлечение (доверие 12) [1651857E]
Трек 11 точное извлечение (доверие 13) [AB3CA667]
Трек 12 точное извлечение (доверие 13) [844153F5]
Трек 13 точное извлечение (доверие 12) [1BAC9959]
Трек 14 точное извлечение (доверие 11) [CED58490]
Трек 15 точное извлечение (доверие 12) [1246C06B]
Трек 16 точное извлечение (доверие 12) [A09FE6D8]
Трек 17 точное извлечение (доверие 10) [848C1F6C]

Все треки извлечены точно

Конец отчёта

[CUETools log; Date: 28.10.2017 21:08:33; Version: 2.1.4]
[CTDB TOCID: Ut4hvqjge1nf9E9jo1QQq7V1yC8-] found.
Track | CTDB Status
1 | (69/70) Accurately ripped
2 | (69/70) Accurately ripped
3 | (67/70) Accurately ripped
4 | (68/70) Accurately ripped
5 | (69/70) Accurately ripped
6 | (68/70) Accurately ripped
7 | (69/70) Accurately ripped
8 | (68/70) Accurately ripped
9 | (67/70) Accurately ripped
10 | (69/70) Accurately ripped
11 | (69/70) Accurately ripped
12 | (69/70) Accurately ripped
13 | (68/70) Accurately ripped
14 | (68/70) Accurately ripped
15 | (69/70) Accurately ripped
16 | (69/70) Accurately ripped
17 | (66/70) Accurately ripped
[AccurateRip ID: 0030baf4-026eca2e-f0125f11] found.
Track [ CRC | V2 ] Status
01 [ac04032a|cef75693] (13+23/36) Accurately ripped
02 [7ada69c9|b7167882] (13+23/36) Accurately ripped
03 [ce4c4142|d2c3c6dd] (13+22/35) Accurately ripped
04 [fad6e3a3|d53bd4d2] (12+22/34) Accurately ripped
05 [d510ab56|25f55972] (12+23/35) Accurately ripped
06 [4e0e76b3|c2e67fb2] (12+23/35) Accurately ripped
07 [1688c10b|87075e21] (11+23/34) Accurately ripped
08 [7cc919a8|6d2d293d] (12+22/34) Accurately ripped
09 [f339b587|a0fda1fc] (13+21/34) Accurately ripped
10 [1651857e|5aa48dae] (13+23/36) Accurately ripped
11 [ab3ca667|c769dab0] (14+23/37) Accurately ripped
12 [844153f5|7a16656e] (14+23/37) Accurately ripped
13 [1bac9959|559697fd] (13+22/35) Accurately ripped
14 [ced58490|9fbb90bc] (12+21/33) Accurately ripped
15 [1246c06b|834a61d4] (13+21/34) Accurately ripped
16 [a09fe6d8|3ddc19df] (13+21/34) Accurately ripped
17 [848c1f6c|d1ec0aa7] (11+21/32) Accurately ripped

Track Peak [ CRC32 ] [W/O NULL] [ LOG ]
– 98,8 [F6DA7E18] [E84B5F98] CRC32
01 98,8 [FE9A52C8] [936D6708]
02 78,2 [6D3B8172] [3C2EFE15]
03 98,0 [907A347E] [AB9DC1CC]
04 98,6 [8AE374FE] [13FA734D]
05 98,3 [59072E2B] [21CCBC33]
06 97,6 [D8234CE4] [3B93A3DE]
07 98,0 [86DB82EE] [DB951DB6]
08 98,0 [A14838F5] [4404EC0F]
09 77,5 [0B219930] [449486EF]
10 88,0 [1273B947] [F3BDFAF0]
11 98,0 [CB20AF99] [9AC3B4DD]
12 98,0 [6CBE0902] [2C326B68]
13 97,7 [E4E0E4BA] [9CB9707F]
14 98,0 [B08886CB] [A3264EF6]
15 80,1 [D8DBCCED] [4F3FBE6C]
16 79,0 [571FFA4E] [A785210A]
17 98,5 [1BB92B04] [E71B76D0]

Thanks to nemotschka

See also:
V.A. - Dream Dance Vol. 1: The Best Of Trance (1996)