Subcategories

V.A. - Erotic Dreams - 20 Erotic Dream Themes (1997)

Posted By: gribovar
V.A. - Erotic Dreams - 20 Erotic Dream Themes (1997)

V.A. - Erotic Dreams - 20 Erotic Dream Themes (1997)
EAC Rip | FLAC (tracks+.cue+log) - 342 MB | MP3 CBR 320 kbps (LAME 3.93) - 173 MB | Covers - 49 MB
Genre: New Age, Downtempo, Chillout, Ambient | RAR 3% Rec. | Label: Arcade (9902328)

Angelo Badalamenti, Jerry Goldsmith, Phil Collins, Kate Bush, The Doors and many more.
Tracklist:
01. R. Kelly - I Believe I Can Fly
02. Dudley/Horn/Jeczalik - Moments In Love
03. De Feijter/Smidt - Unknown Desire
04. Badalamenti - Laura Palmer's Theme
05. De Feijter/Smidt - The Love In Me
06. Warren - Unbreak My Heart
07. Sunscream - Love U More
08. De Feijter/Smidt - We Are In Heaven
09. Goldsmisth - Basic Instinct
10. De Feijter/Smidt - Is It Like Me…
11. Phil Collins - In The Air Tonight
12. De Feijter/Smidt - Passion Dreams
13. Kate Bush - Running Up The Hill
14. De Feijter/Smidt - Makin' Love In Heaven
15. The Doors - Riders On The Storm
16. Sakamoto - Forbidden Colours
17. De Feijter/Smidt/Hoeks - Touch Me Now
18. Silvestri - Theme From The Bodyguard
19. Curly/Gregorian/Fairstein - Sadeness
20. TCM - Two Become One

Total time: 01:13:34

Exact Audio Copy V1.0 beta 4 from 7. December 2014

EAC extraction logfile from 9. March 2015, 0:54

20 Erotic Dreams Themes / Erotic Dreams

Used drive : ASUS DRW-24B3ST Adapter: 1 ID: 2

Read mode : Secure
Utilize accurate stream : Yes
Defeat audio cache : Yes
Make use of C2 pointers : No

Read offset correction : 6
Overread into Lead-In and Lead-Out : No
Fill up missing offset samples with silence : Yes
Delete leading and trailing silent blocks : No
Null samples used in CRC calculations : Yes
Used interface : Native Win32 interface for Win NT & 2000
Gap handling : Appended to previous track

Used output format : User Defined Encoder
Selected bitrate : 896 kBit/s
Quality : High
Add ID3 tag : No
Command line compressor : C:\Program Files (x86)\Exact Audio Copy\Flac\flac.exe
Additional command line options : -8 -V -T "ARTIST=%artist%" -T "TITLE=%title%" -T "ALBUM=%albumtitle%" -T "DATE=%year%" -T "TRACKNUMBER=%tracknr%" -T "GENRE=%genre%" -T "COMMENT=ripped by Oleandris" %source%


TOC of the extracted CD

Track | Start | Length | Start sector | End sector
––––––––––––––––––––––––––––-
1 | 0:00.00 | 5:07.69 | 0 | 23093
2 | 5:07.69 | 2:04.63 | 23094 | 32456
3 | 7:12.57 | 4:11.40 | 32457 | 51321
4 | 11:24.22 | 2:15.65 | 51322 | 61511
5 | 13:40.12 | 5:10.55 | 61512 | 84816
6 | 18:50.67 | 5:47.15 | 84817 | 110856
7 | 24:38.07 | 2:49.53 | 110857 | 123584
8 | 27:27.60 | 4:16.37 | 123585 | 142821
9 | 31:44.22 | 3:38.68 | 142822 | 159239
10 | 35:23.15 | 2:56.42 | 159240 | 172481
11 | 38:19.57 | 3:46.38 | 172482 | 189469
12 | 42:06.20 | 3:59.55 | 189470 | 207449
13 | 46:06.00 | 4:40.10 | 207450 | 228459
14 | 50:46.10 | 3:36.55 | 228460 | 244714
15 | 54:22.65 | 3:07.09 | 244715 | 258748
16 | 57:29.74 | 3:06.56 | 258749 | 272754
17 | 60:36.55 | 4:49.10 | 272755 | 294439
18 | 65:25.65 | 2:06.57 | 294440 | 303946
19 | 67:32.47 | 2:18.63 | 303947 | 314359
20 | 69:51.35 | 3:42.63 | 314360 | 331072


Track 1

Filename F:\ЗАГРУЗКИ\ Erotic Dreams. 20 Erotic Dreams Themes (1997)\01. R. Kelly - I Believe I Can Fly.wav

Pre-gap length 0:00:02.00

Peak level 80.2 %
Extraction speed 5.8 X
Track quality 100.0 %
Test CRC BAD42A47
Copy CRC BAD42A47
Accurately ripped (confidence 1) [10FD4D55] (AR v2)
Copy OK

Track 2

Filename F:\ЗАГРУЗКИ\ Erotic Dreams. 20 Erotic Dreams Themes (1997)\02. Dudley,Horn,Jeczalik - Moments In Love.wav

Peak level 92.1 %
Extraction speed 4.1 X
Track quality 99.9 %
Test CRC 2122F312
Copy CRC 2122F312
Accurately ripped (confidence 1) [99DCEEEA] (AR v2)
Copy OK

Track 3

Filename F:\ЗАГРУЗКИ\ Erotic Dreams. 20 Erotic Dreams Themes (1997)\03. De Feijter,Smidt - Unknown Desire.wav

Peak level 87.9 %
Extraction speed 6.6 X
Track quality 100.0 %
Test CRC 5653E98C
Copy CRC 5653E98C
Accurately ripped (confidence 1) [6FBE671E] (AR v2)
Copy OK

Track 4

Filename F:\ЗАГРУЗКИ\ Erotic Dreams. 20 Erotic Dreams Themes (1997)\04. Badalamenti - Laura Palmer's Theme.wav

Peak level 86.1 %
Extraction speed 6.2 X
Track quality 100.0 %
Test CRC 22BDA281
Copy CRC 22BDA281
Accurately ripped (confidence 1) [18343102] (AR v2)
Copy OK

Track 5

Filename F:\ЗАГРУЗКИ\ Erotic Dreams. 20 Erotic Dreams Themes (1997)\05. De Feijter,Smidt - The Love In Me.wav

Peak level 83.7 %
Extraction speed 6.5 X
Track quality 99.9 %
Test CRC CBC94C86
Copy CRC CBC94C86
Accurately ripped (confidence 1) [60703A36] (AR v2)
Copy OK

Track 6

Filename F:\ЗАГРУЗКИ\ Erotic Dreams. 20 Erotic Dreams Themes (1997)\06. Warren - Unbreak My Heart.wav

Peak level 90.7 %
Extraction speed 8.0 X
Track quality 100.0 %
Test CRC 3A168C9D
Copy CRC 3A168C9D
Accurately ripped (confidence 1) [E0279D7F] (AR v2)
Copy OK

Track 7

Filename F:\ЗАГРУЗКИ\ Erotic Dreams. 20 Erotic Dreams Themes (1997)\07. Sunscream - Love U More.wav

Peak level 70.2 %
Extraction speed 7.7 X
Track quality 100.0 %
Test CRC CE0BD7CF
Copy CRC CE0BD7CF
Accurately ripped (confidence 1) [7F4FB661] (AR v2)
Copy OK

Track 8

Filename F:\ЗАГРУЗКИ\ Erotic Dreams. 20 Erotic Dreams Themes (1997)\08. De Feijter,Smidt - We Are In Heaven.wav

Peak level 90.0 %
Extraction speed 8.6 X
Track quality 100.0 %
Test CRC CDB4FC55
Copy CRC CDB4FC55
Accurately ripped (confidence 1) [C8BA5ACD] (AR v2)
Copy OK

Track 9

Filename F:\ЗАГРУЗКИ\ Erotic Dreams. 20 Erotic Dreams Themes (1997)\09. Goldsmisth - Basic Instinct.wav

Peak level 72.9 %
Extraction speed 8.7 X
Track quality 100.0 %
Test CRC BC1835D0
Copy CRC BC1835D0
Accurately ripped (confidence 1) [B84C28EA] (AR v2)
Copy OK

Track 10

Filename F:\ЗАГРУЗКИ\ Erotic Dreams. 20 Erotic Dreams Themes (1997)\10. De Feijter,Smidt - Is It Like Me….wav

Peak level 99.9 %
Extraction speed 8.6 X
Track quality 100.0 %
Test CRC 5862AB4D
Copy CRC 5862AB4D
Accurately ripped (confidence 1) [49CD1929] (AR v2)
Copy OK

Track 11

Filename F:\ЗАГРУЗКИ\ Erotic Dreams. 20 Erotic Dreams Themes (1997)\11. Phil Collins - In The Air Tonight.wav

Peak level 84.5 %
Extraction speed 9.2 X
Track quality 100.0 %
Test CRC A700E253
Copy CRC A700E253
Accurately ripped (confidence 1) [B20C73F7] (AR v2)
Copy OK

Track 12

Filename F:\ЗАГРУЗКИ\ Erotic Dreams. 20 Erotic Dreams Themes (1997)\12. De Feijter,Smidt - Passion Dreams.wav

Peak level 46.3 %
Extraction speed 9.6 X
Track quality 100.0 %
Test CRC 4916BD5D
Copy CRC 4916BD5D
Accurately ripped (confidence 1) [03B11657] (AR v2)
Copy OK

Track 13

Filename F:\ЗАГРУЗКИ\ Erotic Dreams. 20 Erotic Dreams Themes (1997)\13. Kate Bush - Running Up The Hill.wav

Peak level 92.3 %
Extraction speed 10.1 X
Track quality 100.0 %
Test CRC DB0A351F
Copy CRC DB0A351F
Accurately ripped (confidence 1) [B04A0345] (AR v2)
Copy OK

Track 14

Filename F:\ЗАГРУЗКИ\ Erotic Dreams. 20 Erotic Dreams Themes (1997)\14. De Feijter,Smidt - Makin' Love In Heaven.wav

Peak level 56.7 %
Extraction speed 9.9 X
Track quality 100.0 %
Test CRC C5630E8B
Copy CRC C5630E8B
Accurately ripped (confidence 1) [587517C2] (AR v2)
Copy OK

Track 15

Filename F:\ЗАГРУЗКИ\ Erotic Dreams. 20 Erotic Dreams Themes (1997)\15. The Doors - Riders On The Storm.wav

Peak level 55.5 %
Extraction speed 10.1 X
Track quality 100.0 %
Test CRC 21899E1A
Copy CRC 21899E1A
Accurately ripped (confidence 1) [077ADBDD] (AR v2)
Copy OK

Track 16

Filename F:\ЗАГРУЗКИ\ Erotic Dreams. 20 Erotic Dreams Themes (1997)\16. Sakamoto - Forbidden Colours.wav

Pre-gap length 0:00:01.45

Peak level 86.9 %
Extraction speed 10.3 X
Track quality 100.0 %
Test CRC 34CDE01B
Copy CRC 34CDE01B
Accurately ripped (confidence 1) [A25F1315] (AR v2)
Copy OK

Track 17

Filename F:\ЗАГРУЗКИ\ Erotic Dreams. 20 Erotic Dreams Themes (1997)\17. De Feijter,Smidt,Hoeks - Touch Me Now.wav

Pre-gap length 0:00:01.45

Peak level 83.5 %
Extraction speed 9.6 X
Track quality 99.9 %
Test CRC BA01149E
Copy CRC BA01149E
Accurately ripped (confidence 1) [14B3F71A] (AR v2)
Copy OK

Track 18

Filename F:\ЗАГРУЗКИ\ Erotic Dreams. 20 Erotic Dreams Themes (1997)\18. Silvestri - Theme From The Bodyguard.wav

Peak level 45.9 %
Extraction speed 9.8 X
Track quality 100.0 %
Test CRC 1D112663
Copy CRC 1D112663
Accurately ripped (confidence 1) [8918CC81] (AR v2)
Copy OK

Track 19

Filename F:\ЗАГРУЗКИ\ Erotic Dreams. 20 Erotic Dreams Themes (1997)\19. Curly,Gregorian,Fairstein - Sadeness.wav

Peak level 72.4 %
Extraction speed 10.3 X
Track quality 100.0 %
Test CRC 446F7B62
Copy CRC 446F7B62
Accurately ripped (confidence 1) [7331D31A] (AR v2)
Copy OK

Track 20

Filename F:\ЗАГРУЗКИ\ Erotic Dreams. 20 Erotic Dreams Themes (1997)\20. TCM - Two Become One.wav

Peak level 70.8 %
Extraction speed 11.2 X
Track quality 100.0 %
Test CRC 2492DB83
Copy CRC 2492DB83
Accurately ripped (confidence 1) [8DFAD37E] (AR v2)
Copy OK


All tracks accurately ripped

No errors occurred

End of status report

–– CUETools DB Plugin V2.1.4

[CTDB TOCID: WqaXVvWS1VpHdKRyYBVwVc.LA3c-] found
Submit result: already submitted
Track | CTDB Status
1 | (1/1) Accurately ripped
2 | (1/1) Accurately ripped
3 | (1/1) Accurately ripped
4 | (1/1) Accurately ripped
5 | (1/1) Accurately ripped
6 | (1/1) Accurately ripped
7 | (1/1) Accurately ripped
8 | (1/1) Accurately ripped
9 | (1/1) Accurately ripped
10 | (1/1) Accurately ripped
11 | (1/1) Accurately ripped
12 | (1/1) Accurately ripped
13 | (1/1) Accurately ripped
14 | (1/1) Accurately ripped
15 | (1/1) Accurately ripped
16 | (1/1) Accurately ripped
17 | (1/1) Accurately ripped
18 | (1/1) Accurately ripped
19 | (1/1) Accurately ripped
20 | (1/1) Accurately ripped


==== Log checksum C0A203BE5A2AD5F1BDA126B1D24159751F50A75C19F882BCAD31ECBD653F8125 ====

[CUETools log; Date: 21.09.2017 20:02:57; Version: 2.1.4]
[CTDB TOCID: WqaXVvWS1VpHdKRyYBVwVc.LA3c-] found.
Track | CTDB Status
1 | (1/1) Accurately ripped
2 | (1/1) Accurately ripped
3 | (1/1) Accurately ripped
4 | (1/1) Accurately ripped
5 | (1/1) Accurately ripped
6 | (1/1) Accurately ripped
7 | (1/1) Accurately ripped
8 | (1/1) Accurately ripped
9 | (1/1) Accurately ripped
10 | (1/1) Accurately ripped
11 | (1/1) Accurately ripped
12 | (1/1) Accurately ripped
13 | (1/1) Accurately ripped
14 | (1/1) Accurately ripped
15 | (1/1) Accurately ripped
16 | (1/1) Accurately ripped
17 | (1/1) Accurately ripped
18 | (1/1) Accurately ripped
19 | (1/1) Accurately ripped
20 | (1/1) Accurately ripped
[AccurateRip ID: 00370c37-03232a31-1c113e14] found.
Track [ CRC | V2 ] Status
01 [2910882f|10fd4d55] (0+2/2) Accurately ripped
02 [65c1e2dd|99dceeea] (0+2/2) Accurately ripped
03 [53e6660a|6fbe671e] (0+2/2) Accurately ripped
04 [e62a9248|18343102] (0+2/2) Accurately ripped
05 [17829819|60703a36] (0+2/2) Accurately ripped
06 [bbd8a15d|e0279d7f] (0+2/2) Accurately ripped
07 [d2b6451a|7f4fb661] (0+2/2) Accurately ripped
08 [6119416d|c8ba5acd] (0+2/2) Accurately ripped
09 [11e7391b|b84c28ea] (0+2/2) Accurately ripped
10 [af8165c4|49cd1929] (0+2/2) Accurately ripped
11 [3d487386|b20c73f7] (0+2/2) Accurately ripped
12 [36b77763|03b11657] (0+2/2) Accurately ripped
13 [017ac07a|b04a0345] (0+2/2) Accurately ripped
14 [80e4b550|587517c2] (0+2/2) Accurately ripped
15 [87e39694|077adbdd] (0+2/2) Accurately ripped
16 [931139ed|a25f1315] (0+2/2) Accurately ripped
17 [755768cb|14b3f71a] (0+2/2) Accurately ripped
18 [10f7eb3e|8918cc81] (0+2/2) Accurately ripped
19 [87b20b75|7331d31a] (0+2/2) Accurately ripped
20 [bc9c102b|8dfad37e] (0+2/2) Accurately ripped

Track Peak [ CRC32 ] [W/O NULL] [ LOG ]
– 99,9 [1D5D52D4] [22E3137A]
01 80,2 [BAD42A47] [ECC7C0A0] CRC32
02 92,1 [2122F312] [390242E3] CRC32
03 87,9 [5653E98C] [BA3BDEE4] CRC32
04 86,1 [22BDA281] [3EEEDB2A] CRC32
05 83,7 [CBC94C86] [EE122371] CRC32
06 90,7 [3A168C9D] [5894A4E1] CRC32
07 70,2 [CE0BD7CF] [96A5D5A2] CRC32
08 90,0 [CDB4FC55] [38542547] CRC32
09 72,9 [BC1835D0] [057A6308] CRC32
10 99,9 [5862AB4D] [F31B085F] CRC32
11 84,5 [A700E253] [EF5490A7] CRC32
12 46,3 [4916BD5D] [2389C76F] CRC32
13 92,3 [DB0A351F] [49AB2253] CRC32
14 56,7 [C5630E8B] [6659C536] CRC32
15 55,5 [21899E1A] [29190F6E] CRC32
16 86,9 [34CDE01B] [4BA5CED0] CRC32
17 83,5 [BA01149E] [289980BC] CRC32
18 45,9 [1D112663] [2F28B134] CRC32
19 72,4 [446F7B62] [119D5D15] CRC32
20 70,8 [2492DB83] [C435B2C7] CRC32

Thanks to oleandris