Tags
Language
Tags

V.A. - Erotic Lounge 2 (2004) (Repost)

Posted By: gribovar
V.A. - Erotic Lounge 2 (2004) (Repost)

V.A. - Erotic Lounge 2 (2004)
EAC Rip | FLAC (image+.cue+log) - 910 MB | Covers - 65 MB
Genre: Chillout, Lounge, Downtempo | RAR 3% Rec. | Label: Sony BMG (88697136602), 2007

Erotic Lounge - there is no better music to sex! A good collection of music - like a carefully cut diamond, find it among the slag heaps at times as difficult as to give the latter form. If we continue the analogy, the Sony BMG music produces such "diamonds" is not worse than the precious masterpieces by Cartier or Tiffany & Co. Therefore, past collections Erotic Lounge series to go hard, they cover charmingly attractive and content even more striking. The first collection was released in 2003, and each subsequent out once per year, revealing new facets as erotic titles.
CD 1 Tracklist (Soft And Lazy):
01. Boozoo Bajou - Second To None
02. Bob Harz - What We Are
03. Malia Feat. Eric Truffaz - Yellow Daffodils
04. Morcheeba - Slow Down
05. De-Phazz Feat. Pat Appleton - Anchorless
06. J. P. Juice - Fukai
07. Zero Noel - Mes Yeux Fermes
08. Afterlife - Breather (Eric Kupper Mix)
09. The Dining Rooms - Dreamy Smiles
10. Ive Mendes - Nao Vou Fugir
11. Roger Sanchez - Another Chance (Afterlife Mix)
12. Naomi - White
13. Alex Gopher - Quiet Storm
14. Vargo - Get Back To Serenity (Beach Mix)
15. Blank & Jones - Beyond Time (Ambient Edit)

Total time: 01:10:26

CD 2 Tracklist (Quick And Dirty):
01. Tosca - Fuck Dub
02. Truby Trio Feat. Marcus Begg - Lover Uncovered
03. Emo - First Time Experiences
04. Les Gammas - Outra Vida
05. Randy Crawford - Give Me The Night (Chill Night Mix)
06. The Maxwell Implosion - Tic Tac (Jet Sound Remix)
07. Vienna Dc - Dope Control
08. Smith & Mighty - Maybe It's Me
09. Solasoap - Look Around
10. Trio Electrico - Echo Parcours
11. Nicola Conte - Fica Mal Com Deus
12. S-Tone Inc. - In The Mood For Love
13. Megablast - Love Is Always There
14. Mo'horizons - Gonna Be (Ben Human Remix)
15. Shazz Feat. Alec C. - Fallin' In Love

Total time: 01:13:52

Exact Audio Copy V0.99 prebeta 4 from 23. January 2008

EAC extraction logfile from 30. December 2008, 14:41

Various / Erotic Lounge 2 - CD1

Used drive : PIONEER DVD-RW DVR-112D Adapter: 1 ID: 0

Read mode : Secure
Utilize accurate stream : Yes
Defeat audio cache : Yes
Make use of C2 pointers : No

Read offset correction : 48
Overread into Lead-In and Lead-Out : No
Fill up missing offset samples with silence : Yes
Delete leading and trailing silent blocks : No
Null samples used in CRC calculations : Yes
Used interface : Installed external ASPI interface

Used output format : User Defined Encoder
Selected bitrate : 192 kBit/s
Quality : Low
Add ID3 tag : Yes
Command line compressor : C:\Program Files\E A C Audio\Flac\flac.exe
Additional command line options : -V -8 -T "artist=%a" -T "title=%t" -T "album=%g" -T "date=%y" -T "tracknumber=%n" -T "genre=%m" %s


TOC of the extracted CD

Track | Start | Length | Start sector | End sector
––––––––––––––––––––––––––––-
1 | 0:00.00 | 5:06.00 | 0 | 22949
2 | 5:06.00 | 5:42.72 | 22950 | 48671
3 | 10:48.72 | 3:43.53 | 48672 | 65449
4 | 14:32.50 | 4:12.29 | 65450 | 84378
5 | 18:45.04 | 5:18.61 | 84379 | 108289
6 | 24:03.65 | 3:13.59 | 108290 | 122823
7 | 27:17.49 | 3:53.18 | 122824 | 140316
8 | 31:10.67 | 5:17.66 | 140317 | 164157
9 | 36:28.58 | 2:47.43 | 164158 | 176725
10 | 39:16.26 | 5:13.27 | 176726 | 200227
11 | 44:29.53 | 5:32.73 | 200228 | 225200
12 | 50:02.51 | 5:09.54 | 225201 | 248429
13 | 55:12.30 | 4:14.68 | 248430 | 267547
14 | 59:27.23 | 6:06.09 | 267548 | 295006
15 | 65:33.32 | 4:52.09 | 295007 | 316915


Range status and errors

Selected range

Filename G:\Various - Erotic Lounge 2\Various - Erotic Lounge 2 - CD1.wav

Peak level 98.6 %
Range quality 99.9 %
Test CRC 5234536C
Copy CRC 5234536C
Copy OK

No errors occurred


AccurateRip summary

Track 1 accurately ripped (confidence 3) [D4A34184]
Track 2 accurately ripped (confidence 3) [3CC10E01]
Track 3 accurately ripped (confidence 3) [C968128C]
Track 4 accurately ripped (confidence 3) [B3F04D4E]
Track 5 accurately ripped (confidence 3) [5D325538]
Track 6 accurately ripped (confidence 3) [377BDF39]
Track 7 accurately ripped (confidence 3) [170C18AF]
Track 8 accurately ripped (confidence 3) [73F7B967]
Track 9 accurately ripped (confidence 3) [CA6FA31A]
Track 10 accurately ripped (confidence 3) [59DDB330]
Track 11 accurately ripped (confidence 3) [F42F15DE]
Track 12 accurately ripped (confidence 3) [E65D3CD9]
Track 13 accurately ripped (confidence 3) [0A221D42]
Track 14 accurately ripped (confidence 3) [0F22A553]
Track 15 accurately ripped (confidence 3) [7A415294]

All tracks accurately ripped

End of status report

[CUETools log; Date: 13.09.2017 18:36:23; Version: 2.1.4]
[CTDB TOCID: _hdaC5qxHG9_mdeUC2JTBRLaYbI-] found.
Track | CTDB Status
1 | (24/24) Accurately ripped
2 | (24/24) Accurately ripped
3 | (24/24) Accurately ripped
4 | (24/24) Accurately ripped
5 | (24/24) Accurately ripped
6 | (24/24) Accurately ripped
7 | (24/24) Accurately ripped
8 | (24/24) Accurately ripped
9 | (24/24) Accurately ripped
10 | (24/24) Accurately ripped
11 | (24/24) Accurately ripped
12 | (24/24) Accurately ripped
13 | (24/24) Accurately ripped
14 | (24/24) Accurately ripped
15 | (23/24) Accurately ripped
[AccurateRip ID: 0025f338-01ad3419-d410810f] found.
Track [ CRC | V2 ] Status
01 [d4a34184|3c08fe75] (16+15/31) Accurately ripped
02 [3cc10e01|eb4bb222] (17+15/32) Accurately ripped
03 [c968128c|c642d132] (16+14/30) Accurately ripped
04 [b3f04d4e|e67e0eda] (16+15/31) Accurately ripped
05 [5d325538|c2ee81f7] (16+15/31) Accurately ripped
06 [377bdf39|f62802c1] (16+15/31) Accurately ripped
07 [170c18af|0500bdf1] (16+15/31) Accurately ripped
08 [73f7b967|f51f8ed1] (16+14/30) Accurately ripped
09 [ca6fa31a|fc8b02c4] (16+15/31) Accurately ripped
10 [59ddb330|1effeddb] (16+14/30) Accurately ripped
11 [f42f15de|0a056db2] (16+15/31) Accurately ripped
12 [e65d3cd9|79d1a8fb] (16+15/31) Accurately ripped
13 [0a221d42|71bb5dbc] (16+15/31) Accurately ripped
14 [0f22a553|06863b80] (16+14/30) Accurately ripped
15 [7a415294|53832ae1] (16+15/31) Accurately ripped

Track Peak [ CRC32 ] [W/O NULL] [ LOG ]
– 98,6 [5234536C] [D1DCEB7B] CRC32
01 95,2 [334C94B4] [6A56A465]
02 93,3 [1D97BB29] [92702EC9]
03 91,0 [31CEE4A8] [7B86AF7D]
04 98,5 [88048A43] [F0C747A2]
05 98,2 [C947A51F] [1837F5F9]
06 98,3 [7D2078F5] [E24C39F8]
07 98,2 [0849AA91] [617CAFF9]
08 98,4 [C63AC251] [0EFDCFF6]
09 98,2 [EFDE48D7] [7D3A3773]
10 98,3 [FFF8C985] [1FE2550B]
11 93,9 [F5EEAB60] [6D5D22AB]
12 98,4 [E7247B1C] [FE1AA2D9]
13 98,6 [36FA64E2] [EB02CE7E]
14 91,5 [1E08F558] [BF390ABD]
15 98,4 [5C5FA7FB] [751AD683]

Exact Audio Copy V0.99 prebeta 4 from 23. January 2008

EAC extraction logfile from 30. December 2008, 15:36

Various / Erotic Lounge 2 - CD2

Used drive : PIONEER DVD-RW DVR-112D Adapter: 1 ID: 0

Read mode : Secure
Utilize accurate stream : Yes
Defeat audio cache : Yes
Make use of C2 pointers : No

Read offset correction : 48
Overread into Lead-In and Lead-Out : No
Fill up missing offset samples with silence : Yes
Delete leading and trailing silent blocks : No
Null samples used in CRC calculations : Yes
Used interface : Installed external ASPI interface

Used output format : User Defined Encoder
Selected bitrate : 192 kBit/s
Quality : Low
Add ID3 tag : Yes
Command line compressor : C:\Program Files\E A C Audio\Flac\flac.exe
Additional command line options : -V -8 -T "artist=%a" -T "title=%t" -T "album=%g" -T "date=%y" -T "tracknumber=%n" -T "genre=%m" %s


TOC of the extracted CD

Track | Start | Length | Start sector | End sector
––––––––––––––––––––––––––––-
1 | 0:00.00 | 3:26.22 | 0 | 15471
2 | 3:26.22 | 5:49.35 | 15472 | 41681
3 | 9:15.57 | 4:10.47 | 41682 | 60478
4 | 13:26.29 | 5:38.18 | 60479 | 85846
5 | 19:04.47 | 3:39.09 | 85847 | 102280
6 | 22:43.56 | 6:05.61 | 102281 | 129716
7 | 28:49.42 | 4:18.23 | 129717 | 149089
8 | 33:07.65 | 5:43.72 | 149090 | 174886
9 | 38:51.62 | 4:54.48 | 174887 | 196984
10 | 43:46.35 | 6:05.22 | 196985 | 224381
11 | 49:51.57 | 3:43.09 | 224382 | 241115
12 | 53:34.66 | 4:08.73 | 241116 | 259788
13 | 57:43.64 | 5:02.11 | 259789 | 282449
14 | 62:46.00 | 5:54.48 | 282450 | 309047
15 | 68:40.48 | 5:11.04 | 309048 | 332376


Range status and errors

Selected range

Filename G:\Various - Erotic Lounge 2\Various - Erotic Lounge 2 - CD2.wav

Peak level 99.9 %
Range quality 100.0 %
Test CRC BEF579BD
Copy CRC BEF579BD
Copy OK

No errors occurred


AccurateRip summary

Track 1 accurately ripped (confidence 3) [DB750C31]
Track 2 accurately ripped (confidence 3) [ABC99DA1]
Track 3 accurately ripped (confidence 3) [8A29BC3A]
Track 4 accurately ripped (confidence 3) [BE638EC8]
Track 5 accurately ripped (confidence 3) [86FCE7DA]
Track 6 accurately ripped (confidence 3) [FC38C11E]
Track 7 accurately ripped (confidence 3) [CCEF44DA]
Track 8 accurately ripped (confidence 3) [32CA7481]
Track 9 accurately ripped (confidence 3) [BAC9ABD0]
Track 10 accurately ripped (confidence 3) [268FD568]
Track 11 accurately ripped (confidence 3) [71157FC6]
Track 12 accurately ripped (confidence 3) [61B251A5]
Track 13 accurately ripped (confidence 3) [D9835B80]
Track 14 accurately ripped (confidence 3) [96F9FCF2]
Track 15 accurately ripped (confidence 3) [5C5470A1]

All tracks accurately ripped

End of status report

[CUETools log; Date: 13.09.2017 18:37:05; Version: 2.1.4]
[CTDB TOCID: RL3UzUP1Gh1Ho3bSDPlXdrXKgeY-] found.
Track | CTDB Status
1 | (24/24) Accurately ripped
2 | (24/24) Accurately ripped
3 | (24/24) Accurately ripped
4 | (24/24) Accurately ripped
5 | (24/24) Accurately ripped
6 | (24/24) Accurately ripped
7 | (24/24) Accurately ripped
8 | (24/24) Accurately ripped
9 | (24/24) Accurately ripped
10 | (24/24) Accurately ripped
11 | (24/24) Accurately ripped
12 | (24/24) Accurately ripped
13 | (24/24) Accurately ripped
14 | (23/24) Accurately ripped
15 | (24/24) Accurately ripped
[AccurateRip ID: 0027c222-01c5adcf-e2114f0f] found.
Track [ CRC | V2 ] Status
01 [db750c31|d89d71ad] (17+15/32) Accurately ripped
02 [abc99da1|a6db2cd2] (17+15/32) Accurately ripped
03 [8a29bc3a|092709dc] (17+15/32) Accurately ripped
04 [be638ec8|9266bd1b] (18+15/33) Accurately ripped
05 [86fce7da|13e912bc] (17+15/32) Accurately ripped
06 [fc38c11e|3a7f0669] (17+15/32) Accurately ripped
07 [ccef44da|2b2fde56] (17+15/32) Accurately ripped
08 [32ca7481|bbf78b25] (17+14/31) Accurately ripped
09 [bac9abd0|d59864a2] (17+15/32) Accurately ripped
10 [268fd568|6679aff9] (17+15/32) Accurately ripped
11 [71157fc6|3457c783] (17+14/31) Accurately ripped
12 [61b251a5|75caed00] (17+15/32) Accurately ripped
13 [d9835b80|ada3b2ff] (17+15/32) Accurately ripped
14 [96f9fcf2|17cf519c] (17+14/31) Accurately ripped
15 [5c5470a1|801f1b67] (17+15/32) Accurately ripped

Track Peak [ CRC32 ] [W/O NULL] [ LOG ]
– 99,9 [BEF579BD] [4CB9604E] CRC32
01 93,0 [9CF2B75C] [3BB0A706]
02 95,4 [1DC1A034] [3C85A1BD]
03 98,6 [69680B94] [AFFDD106]
04 99,9 [00BCDB48] [29F930B4]
05 98,6 [A74595A4] [E865208F]
06 87,8 [F51621D2] [4DE005BD]
07 87,5 [61D84828] [2FB1DACE]
08 87,6 [074AC4C5] [0BEB4A40]
09 87,9 [F1273FE1] [D371CB9A]
10 91,9 [92DC7296] [0B9B7A7C]
11 98,4 [03EB38FF] [D90DAC78]
12 98,3 [5179DDB2] [BF3E76E3]
13 87,7 [EE769343] [FF210E55]
14 93,9 [7622AA75] [0AFA4FE2]
15 98,4 [BFF862E4] [06D3F380]

Thanks to the original releaser