Tags
Language
Tags

V.A. - Erotic Lounge 3 (Sensual Passion) (2004) (Repost)

Posted By: gribovar
V.A. - Erotic Lounge 3 (Sensual Passion) (2004) (Repost)

V.A. - Erotic Lounge 3 (Sensual Passion) (2004)
EAC Rip | FLAC (image+.cue+log) - 939 MB | Covers - 99 MB
Genre: Chillout, Lounge, Downtempo | RAR 3% Rec. | Label: Sony Music Media (SMM 518880 2)

Erotic Lounge - there is no better music to sex! A good collection of music - like a carefully cut diamond, find it among the slag heaps at times as difficult as to give the latter form. If we continue the analogy, the Sony BMG music produces such "diamonds" is not worse than the precious masterpieces by Cartier or Tiffany & Co. Therefore, past collections Erotic Lounge series to go hard, they cover charmingly attractive and content even more striking. The first collection was released in 2003, and each subsequent out once per year, revealing new facets as erotic titles.
CD 1 Tracklist (Soft And Lazy):
01. Sweet Coffee - No Ordinary Love
02. Jazzamor - Ain't No Sunshine
03. Dublex Inc. feat. Alice Russel - Don't Make Me Want You
04. Hooverphonic - Mad About You (Llorca's Radio Shot)
05. Beanfield feat. Ernesto - Kiss
06. Stephane Pompougnac feat. Juliette Oz - Fast & Loud
07. Sofa Surfers - Can I Get A Witness (Thievery Corporation Mix)
08. Pauline London - Love Can Sing
09. Jazzanova - Soon (P Smoovah Mix)
10. Fous De La Mer feat. Sol - Never Stop Loving
11. Etro Anime - Let It Go
12. Zero 7 - Passing By
13. Moodorama - I Think It's…
14. Aya - 45 Parade Place
15. Zero Noel - Toi Et Moi

Total time: 01:07:12

CD 2 Tracklist (Quick And Dirty):
01. Hacienda - Be With Me
02. Korsakow & Noel - Sweet Poison Of Your Love
03. Micatone - Sit Beside Me (Club Mix)
04. Carmen McRae - How Long Has This Been Going On (MJ Cole Remix)
05. DJ Friction - Could Heaven Ever Be Like This (Dublex Inc. Remix)
06. Planet Funk - Under The Rain
07. Ian Pooley & Rosanna & Zelia - Me Leve
08. Shakedown - At Night (Afterlife Remix)
09. Miguel Migs - The Night (RK's Vocal Mix)
10. Mousse T. feat. Roachford - Pop Muzak (Ian Pooley Radio Edit)
11. Kosheen - Hide U (John Creamer & Stephane K. Remix)
12. Sencity - Enlight My Day (Deep Remix)
13. So Phat! - A Love Bizarre
14. Rodney Hunter - Electric Lady (Elektrische Bidde Mix)
15. Schiller mit Heppner - Dream Of You (Fernseh Fassung)

Total time: 01:18:59

Exact Audio Copy V0.99 prebeta 4 from 23. January 2008

EAC extraction logfile from 30. December 2008, 17:45

Various / Erotic Lounge 3 (Sensual Passion) - CD1

Used drive : PIONEER DVD-RW DVR-112D Adapter: 1 ID: 0

Read mode : Secure
Utilize accurate stream : Yes
Defeat audio cache : Yes
Make use of C2 pointers : No

Read offset correction : 48
Overread into Lead-In and Lead-Out : No
Fill up missing offset samples with silence : Yes
Delete leading and trailing silent blocks : No
Null samples used in CRC calculations : Yes
Used interface : Installed external ASPI interface

Used output format : User Defined Encoder
Selected bitrate : 192 kBit/s
Quality : Low
Add ID3 tag : Yes
Command line compressor : C:\Program Files\E A C Audio\Flac\flac.exe
Additional command line options : -V -8 -T "artist=%a" -T "title=%t" -T "album=%g" -T "date=%y" -T "tracknumber=%n" -T "genre=%m" %s


TOC of the extracted CD

Track | Start | Length | Start sector | End sector
––––––––––––––––––––––––––––-
1 | 0:00.00 | 5:27.59 | 0 | 24583
2 | 5:27.59 | 4:01.37 | 24584 | 42695
3 | 9:29.21 | 4:21.13 | 42696 | 62283
4 | 13:50.34 | 4:25.11 | 62284 | 82169
5 | 18:15.45 | 5:11.26 | 82170 | 105520
6 | 23:26.71 | 3:58.25 | 105521 | 123395
7 | 27:25.21 | 4:22.48 | 123396 | 143093
8 | 31:47.69 | 3:43.25 | 143094 | 159843
9 | 35:31.19 | 4:29.25 | 159844 | 180043
10 | 40:00.44 | 4:59.50 | 180044 | 202518
11 | 45:00.19 | 5:17.25 | 202519 | 226318
12 | 50:17.44 | 3:19.50 | 226319 | 241293
13 | 53:37.19 | 4:52.00 | 241294 | 263193
14 | 58:29.19 | 3:58.59 | 263194 | 281102
15 | 62:28.03 | 4:44.30 | 281103 | 302432


Range status and errors

Selected range

Filename G:\Various - Erotic Lounge 3 (Sensual Passion)\Various - Erotic Lounge 3 (Sensual Passion) - CD1.wav

Peak level 98.8 %
Range quality 100.0 %
Test CRC 97692458
Copy CRC 97692458
Copy OK

No errors occurred


AccurateRip summary

Track 1 accurately ripped (confidence 4) [60F61E11]
Track 2 accurately ripped (confidence 4) [A12814A4]
Track 3 accurately ripped (confidence 4) [16822401]
Track 4 accurately ripped (confidence 4) [5E4D55BE]
Track 5 accurately ripped (confidence 4) [A8D804AF]
Track 6 accurately ripped (confidence 4) [1365FDA6]
Track 7 accurately ripped (confidence 4) [63243D62]
Track 8 accurately ripped (confidence 4) [864042E4]
Track 9 accurately ripped (confidence 4) [02568BA3]
Track 10 accurately ripped (confidence 4) [7B2E091C]
Track 11 accurately ripped (confidence 4) [DBFA541A]
Track 12 accurately ripped (confidence 4) [B2984815]
Track 13 accurately ripped (confidence 4) [872ADD37]
Track 14 accurately ripped (confidence 4) [8751B631]
Track 15 accurately ripped (confidence 4) [BDC75908]

All tracks accurately ripped

End of status report

[CUETools log; Date: 15.09.2017 15:58:57; Version: 2.1.4]
[CTDB TOCID: SWIx0uRpyWUIeyEqTAGaGYDKF7U-] found.
Track | CTDB Status
1 | (28/28) Accurately ripped
2 | (28/28) Accurately ripped
3 | (28/28) Accurately ripped
4 | (27/28) Accurately ripped
5 | (27/28) Accurately ripped
6 | (28/28) Accurately ripped
7 | (27/28) Accurately ripped
8 | (27/28) Accurately ripped
9 | (28/28) Accurately ripped
10 | (27/28) Accurately ripped
11 | (28/28) Accurately ripped
12 | (28/28) Accurately ripped
13 | (28/28) Accurately ripped
14 | (28/28) Accurately ripped
15 | (27/28) Accurately ripped
[AccurateRip ID: 00253d2f-01a4342d-be0fc00f] found.
Track [ CRC | V2 ] Status
01 [60f61e11|e59a6b91] (18+19/37) Accurately ripped
02 [a12814a4|9ee121ae] (18+20/38) Accurately ripped
03 [16822401|be382376] (18+20/38) Accurately ripped
04 [5e4d55be|951b41d7] (18+20/38) Accurately ripped
05 [a8d804af|64bcfd39] (18+20/38) Accurately ripped
06 [1365fda6|8c8cc3f9] (18+20/38) Accurately ripped
07 [63243d62|a6208891] (18+20/38) Accurately ripped
08 [864042e4|24643dca] (17+20/37) Accurately ripped
09 [02568ba3|65e7ba8a] (18+20/38) Accurately ripped
10 [7b2e091c|3032e586] (18+20/38) Accurately ripped
11 [dbfa541a|68a48fe8] (18+20/38) Accurately ripped
12 [b2984815|2f30b262] (17+20/37) Accurately ripped
13 [872add37|4bf84277] (18+20/38) Accurately ripped
14 [8751b631|438f157a] (18+20/38) Accurately ripped
15 [bdc75908|363b9ae6] (17+20/37) Accurately ripped
Offsetted by 6:
01 [3f4274e5] (00/37) No match (V2 was not tested)
02 [e2a0deb0] (00/38) No match (V2 was not tested)
03 [22aa8531] (00/38) No match (V2 was not tested)
04 [94e73fe0] (00/38) No match (V2 was not tested)
05 [109592df] (00/38) No match (V2 was not tested)
06 [ded0fb6c] (00/38) No match (V2 was not tested)
07 [04e3ce1a] (00/38) No match (V2 was not tested)
08 [c2d2b472] (00/37) No match (V2 was not tested)
09 [71db31c7] (00/38) No match (V2 was not tested)
10 [f2492752] (00/38) No match (V2 was not tested)
11 [3d016ed2] (00/38) No match (V2 was not tested)
12 [dc0b39f5] (00/37) No match (V2 was not tested)
13 [f6179c81] (00/38) No match (V2 was not tested)
14 [057cb915] (00/38) No match (V2 was not tested)
15 [18eea48a] (00/37) No match (V2 was not tested)

Track Peak [ CRC32 ] [W/O NULL] [ LOG ]
– 98,8 [97692458] [6E852A64] CRC32
01 98,4 [2856226C] [4BD762B6]
02 98,5 [F7CFAEB0] [AEF9FC7C]
03 98,5 [30E3BD59] [45ACE09B]
04 98,3 [42B4CF02] [FB0F558B]
05 98,5 [5563405C] [4DA1B8A9]
06 98,5 [0D7D09C1] [6B7050B0]
07 90,8 [58EA4792] [A740D6D5]
08 98,3 [B3815C36] [9029763A]
09 98,8 [FF8F0AFF] [8EFAC9A5]
10 98,4 [49A2F2D1] [28890FF9]
11 98,2 [39B404E4] [2825E4EE]
12 98,0 [75EC4B09] [D9B0526F]
13 98,6 [D0CA7079] [AFAE9916]
14 98,0 [F119EA64] [79C81B5B]
15 98,5 [C8A8E503] [2B2AFF19]

Exact Audio Copy V0.99 prebeta 4 from 23. January 2008

EAC extraction logfile from 30. December 2008, 18:17

Various / Erotic Lounge 3 (Sensual Passion) - CD2

Used drive : PIONEER DVD-RW DVR-112D Adapter: 1 ID: 0

Read mode : Secure
Utilize accurate stream : Yes
Defeat audio cache : Yes
Make use of C2 pointers : No

Read offset correction : 48
Overread into Lead-In and Lead-Out : No
Fill up missing offset samples with silence : Yes
Delete leading and trailing silent blocks : No
Null samples used in CRC calculations : Yes
Used interface : Installed external ASPI interface

Used output format : User Defined Encoder
Selected bitrate : 192 kBit/s
Quality : Low
Add ID3 tag : Yes
Command line compressor : C:\Program Files\E A C Audio\Flac\flac.exe
Additional command line options : -V -8 -T "artist=%a" -T "title=%t" -T "album=%g" -T "date=%y" -T "tracknumber=%n" -T "genre=%m" %s


TOC of the extracted CD

Track | Start | Length | Start sector | End sector
––––––––––––––––––––––––––––-
1 | 0:00.00 | 4:19.20 | 0 | 19444
2 | 4:19.20 | 4:52.51 | 19445 | 41395
3 | 9:11.71 | 5:49.55 | 41396 | 67625
4 | 15:01.51 | 4:56.30 | 67626 | 89855
5 | 19:58.06 | 6:34.00 | 89856 | 119405
6 | 26:32.06 | 6:25.05 | 119406 | 148285
7 | 32:57.11 | 6:11.25 | 148286 | 176135
8 | 39:08.36 | 5:33.10 | 176136 | 201120
9 | 44:41.46 | 6:28.55 | 201121 | 230275
10 | 51:10.26 | 3:43.25 | 230276 | 247025
11 | 54:53.51 | 3:34.02 | 247026 | 263077
12 | 58:27.53 | 4:44.05 | 263078 | 284382
13 | 63:11.58 | 5:12.25 | 284383 | 307807
14 | 68:24.08 | 6:34.20 | 307808 | 337377
15 | 74:58.28 | 4:01.03 | 337378 | 355455


Range status and errors

Selected range

Filename G:\Various - Erotic Lounge 3 (Sensual Passion)\Various - Erotic Lounge 3 (Sensual Passion) - CD2.wav

Peak level 98.8 %
Range quality 100.0 %
Test CRC 3B4C0082
Copy CRC 3B4C0082
Copy OK

No errors occurred


AccurateRip summary

Track 1 accurately ripped (confidence 4) [C5DA868B]
Track 2 accurately ripped (confidence 4) [CC635601]
Track 3 accurately ripped (confidence 4) [DA4F6B5B]
Track 4 accurately ripped (confidence 4) [FD1E214B]
Track 5 accurately ripped (confidence 4) [A3C46C9E]
Track 6 accurately ripped (confidence 4) [BF95E2AF]
Track 7 accurately ripped (confidence 4) [1455A323]
Track 8 accurately ripped (confidence 4) [B4128A89]
Track 9 accurately ripped (confidence 4) [67E4F711]
Track 10 accurately ripped (confidence 4) [26A259E6]
Track 11 accurately ripped (confidence 4) [277EE5A3]
Track 12 accurately ripped (confidence 4) [64A11D33]
Track 13 accurately ripped (confidence 4) [E14D5B72]
Track 14 accurately ripped (confidence 4) [D9363A35]
Track 15 accurately ripped (confidence 4) [BB363778]

All tracks accurately ripped

End of status report

[CUETools log; Date: 15.09.2017 15:59:21; Version: 2.1.4]
[CTDB TOCID: eiU0Ifr4a.1RGdV55lcnAAj1aKI-] found.
Track | CTDB Status
1 | (25/25) Accurately ripped
2 | (25/25) Accurately ripped
3 | (25/25) Accurately ripped
4 | (25/25) Accurately ripped
5 | (23/25) Accurately ripped
6 | (25/25) Accurately ripped
7 | (25/25) Accurately ripped
8 | (25/25) Accurately ripped
9 | (25/25) Accurately ripped
10 | (25/25) Accurately ripped
11 | (25/25) Accurately ripped
12 | (25/25) Accurately ripped
13 | (25/25) Accurately ripped
14 | (24/25) Accurately ripped, or (1/25) differs in 2 samples @02:08:05
15 | (25/25) Accurately ripped
[AccurateRip ID: 002c13e5-01f44d05-cb12830f] found.
Track [ CRC | V2 ] Status
01 [c5da868b|6bfb0faf] (16+20/36) Accurately ripped
02 [cc635601|a17c35d4] (16+21/37) Accurately ripped
03 [da4f6b5b|645be997] (16+21/37) Accurately ripped
04 [fd1e214b|6149bc6e] (16+21/37) Accurately ripped
05 [a3c46c9e|e6b8a50d] (16+20/36) Accurately ripped
06 [bf95e2af|1dc0a039] (16+21/37) Accurately ripped
07 [1455a323|98ca931a] (16+21/37) Accurately ripped
08 [b4128a89|e9c47ecd] (16+21/37) Accurately ripped
09 [67e4f711|8e9a7e57] (16+21/37) Accurately ripped
10 [26a259e6|da486049] (16+21/37) Accurately ripped
11 [277ee5a3|c34e1efd] (16+21/37) Accurately ripped
12 [64a11d33|af80b0ea] (16+21/37) Accurately ripped
13 [e14d5b72|6beaab90] (16+21/37) Accurately ripped
14 [d9363a35|dd3d4d0c] (16+19/35) Accurately ripped
15 [bb363778|af202b22] (15+20/35) Accurately ripped
Offsetted by 6:
01 [fdb809bb] (00/36) No match (V2 was not tested)
02 [931c7ef5] (00/37) No match (V2 was not tested)
03 [61a33c27] (00/37) No match (V2 was not tested)
04 [12fc3c57] (00/37) No match (V2 was not tested)
05 [85ebfae0] (00/36) No match (V2 was not tested)
06 [a25eca31] (00/37) No match (V2 was not tested)
07 [eeb55e2b] (00/37) No match (V2 was not tested)
08 [034566c1] (00/37) No match (V2 was not tested)
09 [423c397d] (00/37) No match (V2 was not tested)
10 [cf8a7bf4] (00/37) No match (V2 was not tested)
11 [fc720a2f] (00/37) No match (V2 was not tested)
12 [a0fa7015] (00/37) No match (V2 was not tested)
13 [a18cf6de] (00/37) No match (V2 was not tested)
14 [958860d7] (00/35) No match (V2 was not tested)
15 [a6a863b2] (00/35) No match (V2 was not tested)

Track Peak [ CRC32 ] [W/O NULL] [ LOG ]
– 98,8 [3B4C0082] [6BA76E85] CRC32
01 98,3 [20A1C161] [54D6AF51]
02 82,7 [82C15FEE] [8468D7C3]
03 98,3 [DEFFD112] [D9A4F837]
04 98,4 [D189D9A3] [B4D96B58]
05 98,3 [A3CC015C] [E191BF47]
06 87,8 [E3E505A3] [896611B8]
07 98,0 [D0F6A33D] [9CB3782C]
08 98,1 [1D3F0F2E] [66B5990E]
09 98,8 [5C01649D] [FA198637]
10 69,5 [73107A3E] [BBDDD13E]
11 78,1 [E6D7B6D7] [85E14D3B]
12 87,7 [A51894BF] [4C216902]
13 87,7 [A0F94A38] [9A92237F]
14 98,8 [5D3C471F] [A46A6F63]
15 73,6 [39DE9789] [3FC3428E]


Thanks to the original releaser

See also:
V.A. - Erotic Lounge 2 (2004)