Tags
Language
Tags

V.A. - Erotic Lounge 4 (Bare Jewels) (2005) (Repost)

Posted By: gribovar
V.A. - Erotic Lounge 4 (Bare Jewels) (2005) (Repost)

V.A. - Erotic Lounge 4 (Bare Jewels) (2005)
EAC Rip | FLAC (image+.cue+log) - 993 MB | Covers - 83 MB
Genre: Chillout, Lounge, Downtempo | RAR 3% Rec. | Label: Sony BMG (82876717692)

Erotic Lounge - there is no better music to sex! A good collection of music - like a carefully cut diamond, find it among the slag heaps at times as difficult as to give the latter form. If we continue the analogy, the Sony BMG music produces such "diamonds" is not worse than the precious masterpieces by Cartier or Tiffany & Co. Therefore, past collections Erotic Lounge series to go hard, they cover charmingly attractive and content even more striking. The first collection was released in 2003, and each subsequent out once per year, revealing new facets as erotic titles.
CD 1 Tracklist (Soft And Lazy):
01. Sade - Lovers Rock
02. Blank & Jones - I Love You
03. Solar Moon Feat. Jen - Inside Out
04. Pluto Project - Erophone
05. Soul 'N' Soda - What Kind Of Woman
06. Mo' Horizons - Dance Naked Unter Palmtrees
07. Bent - I Love My Man
08. The Funky Lowlives - You Have To Come With Me
09. Tanka - Sink
10. Trio Eletrico - Wandance Paris
11. Tosca - Forte
12. Brauns - Around Us
13. Bebel Gilberto - O Caminho
14. DJ Krush Feat. Zap Mama - Danger Of Love
15. Boozoo Bajou Feat. Joe Dunkie & U-Brown - Take It Slow
16. Sven Vath Feat. Miss Kittin - Je T'aime… Moi Non Plus

Total time: 01:15:22

CD 2 Tracklist (Quick And Dirty):
01. Blank & Jones - Closer To Me
02. Vargo - Beauty
03. The Strike Boys - Playtime Theme
04. Ian Pooley Feat. Marcos Valle - Sentimento
05. Jazzamor - Sometimes
06. Moca - Funky Plusch
07. Minus 8 Feat. Sharon Harris - Pussycat
08. Eddy Meets Yannah - Can't Hide Love
09. Koop - Relaxin' At Club F****N (Dorfmeister Vs. Madrid De Los Austrias)
10. Lenny Mac Dowell Feat. Jazzamor - Je Te Veux
11. International Pony - Superyou
12. Trubi Trio Feat. Markus Begg - Unversal Love
13. Faithless Feat. Estelle - Why Go?
14. Infusion - Love And Imitation
15. Chris Le Blanc Feat. Miss Luna - Into My Dream
16. 2Raumwohnung - Sasha (Sex Secret)

Total time: 01:15:27

Exact Audio Copy V0.99 prebeta 4 from 23. January 2008

EAC extraction logfile from 25. November 2008, 20:20

Various / Erotic Lounge 4 (Bare Jewels) - CD1

Used drive : PIONEER DVD-RW DVR-112D Adapter: 3 ID: 0

Read mode : Secure
Utilize accurate stream : Yes
Defeat audio cache : Yes
Make use of C2 pointers : No

Read offset correction : 48
Overread into Lead-In and Lead-Out : No
Fill up missing offset samples with silence : Yes
Delete leading and trailing silent blocks : No
Null samples used in CRC calculations : Yes
Used interface : Installed external ASPI interface

Used output format : User Defined Encoder
Selected bitrate : 192 kBit/s
Quality : Low
Add ID3 tag : Yes
Command line compressor : C:\Program Files\E A C Audio\Flac\flac.exe
Additional command line options : -V -8 -T "artist=%a" -T "title=%t" -T "album=%g" -T "date=%y" -T "tracknumber=%n" -T "genre=%m" %s


TOC of the extracted CD

Track | Start | Length | Start sector | End sector
––––––––––––––––––––––––––––-
1 | 0:00.00 | 4:11.69 | 0 | 18893
2 | 4:11.69 | 4:30.48 | 18894 | 39191
3 | 8:42.42 | 5:05.26 | 39192 | 62092
4 | 13:47.68 | 4:39.41 | 62093 | 83058
5 | 18:27.34 | 4:22.30 | 83059 | 102738
6 | 22:49.64 | 3:35.15 | 102739 | 118878
7 | 26:25.04 | 5:47.25 | 118879 | 144928
8 | 32:12.29 | 4:53.41 | 144929 | 166944
9 | 37:05.70 | 5:11.06 | 166945 | 190275
10 | 42:17.01 | 4:55.57 | 190276 | 212457
11 | 47:12.58 | 3:52.61 | 212458 | 229918
12 | 51:05.44 | 5:44.03 | 229919 | 255721
13 | 56:49.47 | 3:03.28 | 255722 | 269474
14 | 59:53.00 | 5:37.24 | 269475 | 294773
15 | 65:30.24 | 5:32.40 | 294774 | 319713
16 | 71:02.64 | 4:18.50 | 319714 | 339113


Range status and errors

Selected range

Filename G:\Various - Erotic Lounge 4 (Bare Jewels)\Various - Erotic Lounge 4 (Bare Jewels) - CD1.wav

Peak level 99.9 %
Range quality 100.0 %
Test CRC 876E5DD9
Copy CRC 876E5DD9
Copy OK

No errors occurred


AccurateRip summary

Track 1 accurately ripped (confidence 3) [EBCE9987]
Track 2 accurately ripped (confidence 3) [D45A8F92]
Track 3 accurately ripped (confidence 3) [95E1F5CD]
Track 4 accurately ripped (confidence 3) [39AC4DDC]
Track 5 accurately ripped (confidence 3) [241BD90E]
Track 6 accurately ripped (confidence 3) [8E80AB2D]
Track 7 accurately ripped (confidence 3) [DF809FE3]
Track 8 accurately ripped (confidence 3) [6BE266C1]
Track 9 accurately ripped (confidence 3) [D2AF4F76]
Track 10 accurately ripped (confidence 3) [F37B8047]
Track 11 accurately ripped (confidence 3) [C2A38587]
Track 12 accurately ripped (confidence 3) [6CF9FA6A]
Track 13 accurately ripped (confidence 3) [A98E1F57]
Track 14 accurately ripped (confidence 3) [ED81695D]
Track 15 accurately ripped (confidence 3) [E091D780]
Track 16 accurately ripped (confidence 3) [A8EFA68C]

All tracks accurately ripped

End of status report

[CUETools log; Date: 16.09.2017 12:01:17; Version: 2.1.4]
[CTDB TOCID: eWfUtN8d_8Ke2oE2mNlCoqDGk9k-] found.
Track | CTDB Status
1 | (24/24) Accurately ripped
2 | (24/24) Accurately ripped
3 | (24/24) Accurately ripped
4 | (24/24) Accurately ripped
5 | (24/24) Accurately ripped
6 | (24/24) Accurately ripped
7 | (24/24) Accurately ripped
8 | (24/24) Accurately ripped
9 | (24/24) Accurately ripped
10 | (24/24) Accurately ripped
11 | (24/24) Accurately ripped
12 | (24/24) Accurately ripped
13 | (24/24) Accurately ripped
14 | (24/24) Accurately ripped
15 | (24/24) Accurately ripped
16 | (23/24) Accurately ripped
[AccurateRip ID: 002b75b6-020bcb5e-e811a910] found.
Track [ CRC | V2 ] Status
01 [ebce9987|d98d37e8] (10+15/25) Accurately ripped
02 [d45a8f92|3d5fe4d7] (10+15/25) Accurately ripped
03 [95e1f5cd|53f4bc79] (10+15/25) Accurately ripped
04 [39ac4ddc|4a94e039] (10+15/25) Accurately ripped
05 [241bd90e|e6698c41] (10+15/25) Accurately ripped
06 [8e80ab2d|0c8fde91] (10+15/25) Accurately ripped
07 [df809fe3|e961113f] (10+15/25) Accurately ripped
08 [6be266c1|c7b410b9] (10+15/25) Accurately ripped
09 [d2af4f76|b45961f5] (10+15/25) Accurately ripped
10 [f37b8047|8c77e992] (10+15/25) Accurately ripped
11 [c2a38587|b9d461c1] (10+15/25) Accurately ripped
12 [6cf9fa6a|96675070] (10+15/25) Accurately ripped
13 [a98e1f57|2015e2a8] (10+15/25) Accurately ripped
14 [ed81695d|8391fe35] (10+15/25) Accurately ripped
15 [e091d780|786a3ce6] (10+15/25) Accurately ripped
16 [a8efa68c|1869c773] (10+15/25) Accurately ripped
Offsetted by 6:
01 [49ec912d] (00/25) No match (V2 was not tested)
02 [2bd7ad14] (00/25) No match (V2 was not tested)
03 [06aa960f] (00/25) No match (V2 was not tested)
04 [cfa33f12] (00/25) No match (V2 was not tested)
05 [688986e4] (00/25) No match (V2 was not tested)
06 [b7614200] (00/25) No match (V2 was not tested)
07 [7ff4d744] (00/25) No match (V2 was not tested)
08 [ec931432] (00/25) No match (V2 was not tested)
09 [8e429943] (00/25) No match (V2 was not tested)
10 [d110dbe5] (00/25) No match (V2 was not tested)
11 [ccf2e8c7] (00/25) No match (V2 was not tested)
12 [efa8e23b] (00/25) No match (V2 was not tested)
13 [fcc2d240] (00/25) No match (V2 was not tested)
14 [9d743091] (00/25) No match (V2 was not tested)
15 [85689d89] (00/25) No match (V2 was not tested)
16 [018a3b11] (00/25) No match (V2 was not tested)

Track Peak [ CRC32 ] [W/O NULL] [ LOG ]
– 99,9 [876E5DD9] [1437B80F] CRC32
01 99,9 [A8D55407] [B4E4B272]
02 99,0 [63D081C9] [E97D5F0E]
03 99,0 [EAE1F2B5] [647111BD]
04 99,0 [33CC8628] [A6BEBE67]
05 98,9 [8202B944] [1ABF4D1F]
06 99,0 [D9F1F239] [44E06B9C]
07 98,4 [63C1CC2E] [DB4C6AA3]
08 99,0 [5F281EB6] [370E52AA]
09 79,2 [A7871D59] [13191BA7]
10 88,2 [E08FC284] [4A00B87E]
11 92,4 [3C5D0D27] [9F78389F]
12 99,0 [3E218848] [02494986]
13 99,0 [D2351241] [46DBEFEB]
14 99,0 [99A3B934] [CF2A8B8B]
15 99,0 [7429B99B] [20177B47]
16 97,1 [885600FB] [3AA166D5]

Exact Audio Copy V0.99 prebeta 4 from 23. January 2008

EAC extraction logfile from 25. November 2008, 21:07

Various / Erotic Lounge 4 (Bare Jewels) - CD2

Used drive : PIONEER DVD-RW DVR-112D Adapter: 3 ID: 0

Read mode : Secure
Utilize accurate stream : Yes
Defeat audio cache : Yes
Make use of C2 pointers : No

Read offset correction : 48
Overread into Lead-In and Lead-Out : No
Fill up missing offset samples with silence : Yes
Delete leading and trailing silent blocks : No
Null samples used in CRC calculations : Yes
Used interface : Installed external ASPI interface

Used output format : User Defined Encoder
Selected bitrate : 192 kBit/s
Quality : Low
Add ID3 tag : Yes
Command line compressor : C:\Program Files\E A C Audio\Flac\flac.exe
Additional command line options : -V -8 -T "artist=%a" -T "title=%t" -T "album=%g" -T "date=%y" -T "tracknumber=%n" -T "genre=%m" %s


TOC of the extracted CD

Track | Start | Length | Start sector | End sector
––––––––––––––––––––––––––––-
1 | 0:00.00 | 6:25.50 | 0 | 28924
2 | 6:25.50 | 4:37.51 | 28925 | 49750
3 | 11:03.26 | 4:23.35 | 49751 | 69510
4 | 15:26.61 | 3:31.39 | 69511 | 85374
5 | 18:58.25 | 3:56.68 | 85375 | 103142
6 | 22:55.18 | 3:59.35 | 103143 | 121102
7 | 26:54.53 | 3:45.19 | 121103 | 137996
8 | 30:39.72 | 5:38.24 | 137997 | 163370
9 | 36:18.21 | 5:56.01 | 163371 | 190071
10 | 42:14.22 | 3:05.20 | 190072 | 203966
11 | 45:19.42 | 5:34.00 | 203967 | 229016
12 | 50:53.42 | 5:51.33 | 229017 | 255374
13 | 56:45.00 | 3:23.60 | 255375 | 270659
14 | 60:08.60 | 7:35.58 | 270660 | 304842
15 | 67:44.43 | 4:10.50 | 304843 | 323642
16 | 71:55.18 | 3:32.19 | 323643 | 339561


Range status and errors

Selected range

Filename G:\Various - Erotic Lounge 4 (Bare Jewels)\Various - Erotic Lounge 4 (Bare Jewels) - CD2.wav

Peak level 99.0 %
Range quality 100.0 %
Test CRC 8411F5FB
Copy CRC 8411F5FB
Copy OK

No errors occurred


AccurateRip summary

Track 1 accurately ripped (confidence 3) [2A5C15E4]
Track 2 accurately ripped (confidence 3) [01643C91]
Track 3 accurately ripped (confidence 3) [8DB91FC8]
Track 4 accurately ripped (confidence 3) [BA55202D]
Track 5 accurately ripped (confidence 3) [7E202818]
Track 6 accurately ripped (confidence 3) [6BEE64DB]
Track 7 accurately ripped (confidence 3) [5CDF81D3]
Track 8 accurately ripped (confidence 3) [304BFB02]
Track 9 accurately ripped (confidence 3) [F6141EA4]
Track 10 accurately ripped (confidence 3) [68581112]
Track 11 accurately ripped (confidence 3) [E8F6C3A9]
Track 12 accurately ripped (confidence 3) [DAEBD0BC]
Track 13 accurately ripped (confidence 3) [F36AA48D]
Track 14 accurately ripped (confidence 3) [77A81DE2]
Track 15 accurately ripped (confidence 3) [84F003CB]
Track 16 accurately ripped (confidence 3) [6A5EEB3E]

All tracks accurately ripped

End of status report

[CUETools log; Date: 16.09.2017 12:01:44; Version: 2.1.4]
[CTDB TOCID: WScn8kWDMpSC1NKRRA_bRiZ3gzI-] found.
Track | CTDB Status
1 | (22/22) Accurately ripped
2 | (22/22) Accurately ripped
3 | (22/22) Accurately ripped
4 | (22/22) Accurately ripped
5 | (22/22) Accurately ripped
6 | (22/22) Accurately ripped
7 | (22/22) Accurately ripped
8 | (22/22) Accurately ripped
9 | (22/22) Accurately ripped
10 | (22/22) Accurately ripped
11 | (22/22) Accurately ripped
12 | (22/22) Accurately ripped
13 | (22/22) Accurately ripped
14 | (22/22) Accurately ripped
15 | (22/22) Accurately ripped
16 | (22/22) Accurately ripped
[AccurateRip ID: 002be39b-020e1800-d711af10] found.
Track [ CRC | V2 ] Status
01 [2a5c15e4|b6e6b455] (10+15/25) Accurately ripped
02 [01643c91|bc9ca4bd] (10+15/25) Accurately ripped
03 [8db91fc8|0fb8f4ce] (10+15/25) Accurately ripped
04 [ba55202d|baea8003] (10+15/25) Accurately ripped
05 [7e202818|5f4d8b9a] (10+15/25) Accurately ripped
06 [6bee64db|697154c3] (09+15/24) Accurately ripped
07 [5cdf81d3|ce63d44a] (10+15/25) Accurately ripped
08 [304bfb02|4c818112] (10+15/25) Accurately ripped
09 [f6141ea4|b4852531] (10+15/25) Accurately ripped
10 [68581112|305c56b5] (10+15/25) Accurately ripped
11 [e8f6c3a9|aa893c1d] (10+15/25) Accurately ripped
12 [daebd0bc|7279b562] (10+15/25) Accurately ripped
13 [f36aa48d|c5354ea8] (10+15/25) Accurately ripped
14 [77a81de2|52221ac5] (10+15/25) Accurately ripped
15 [84f003cb|ce582836] (10+15/25) Accurately ripped
16 [6a5eeb3e|a9df1c65] (10+15/25) Accurately ripped
Offsetted by 6:
01 [f9ab23e4] (00/25) No match (V2 was not tested)
02 [b984d1ab] (00/25) No match (V2 was not tested)
03 [73766b4e] (00/25) No match (V2 was not tested)
04 [eef71cd3] (00/25) No match (V2 was not tested)
05 [eaa9eaea] (00/25) No match (V2 was not tested)
06 [7f6aabeb] (00/24) No match (V2 was not tested)
07 [c393756d] (00/25) No match (V2 was not tested)
08 [7ed8cc2b] (00/25) No match (V2 was not tested)
09 [ab880bf1] (00/25) No match (V2 was not tested)
10 [65980398] (00/25) No match (V2 was not tested)
11 [762a7033] (00/25) No match (V2 was not tested)
12 [04d186da] (00/25) No match (V2 was not tested)
13 [3fa7f0a5] (00/25) No match (V2 was not tested)
14 [5d89a5b6] (00/25) No match (V2 was not tested)
15 [e94c3a47] (00/25) No match (V2 was not tested)
16 [3d9b2e62] (00/25) No match (V2 was not tested)

Track Peak [ CRC32 ] [W/O NULL] [ LOG ]
– 99,0 [8411F5FB] [B6F342C6] CRC32
01 96,6 [F9BF5AF7] [E041172C]
02 98,9 [7ECA75AD] [21C593F9]
03 99,0 [604A38A6] [EC8968AD]
04 99,0 [ED438DFE] [8D4432C2]
05 97,2 [C945AB4B] [19D15806]
06 99,0 [4FEC9C77] [29F22B73]
07 96,5 [13745B08] [F9A54255]
08 99,0 [E5E21608] [A3F07BC5]
09 99,0 [56F73230] [42D40DCA]
10 95,7 [BD36ED2F] [A810A43B]
11 98,9 [BD5AE547] [447652B6]
12 93,5 [F038B1F6] [F4D24563]
13 93,1 [C1448849] [683B3A3B]
14 99,0 [784632A9] [FAF2F254]
15 95,0 [0920DF9F] [F6C98FC3]
16 96,2 [475E6F69] [E1D734B8]

Thanks to the original releaser

See also:
V.A. - Erotic Lounge 2 (2004)
V.A. - Erotic Lounge 3 (Sensual Passion) (2004)