Subcategories

V.A. - Erotic Lounge 7 (Finest Pleasure) (2008) (Repost)

Posted By: gribovar
V.A. - Erotic Lounge 7 (Finest Pleasure) (2008) (Repost)

V.A. - Erotic Lounge 7 (Finest Pleasure) (2008)
EAC Rip | FLAC (image+.cue+log) - 1 GB | Covers - 94 MB
Genre: Chillout, Lounge, Downtempo | RAR 3% Rec. | Label: Sony BMG (88697171862)

Erotic Lounge - there is no better music to sex! A good collection of music - like a carefully cut diamond, find it among the slag heaps at times as difficult as to give the latter form. If we continue the analogy, the Sony BMG music produces such "diamonds" is not worse than the precious masterpieces by Cartier or Tiffany & Co. Therefore, past collections Erotic Lounge series to go hard, they cover charmingly attractive and content even more striking. The first collection was released in 2003, and each subsequent out once per year, revealing new facets as erotic titles.
CD 1 Tracklist (Soft And Lazy):
01. Blank & Jones - Desire
02. Trinah - Take My Hand
03. Naoki Kenji with Asheni - Tonight
04. Honeyroot - Nobody Loves You (The Way I Do)
05. The Shiffers - Love Is
06. Clelia Felix - Endless Dream
07. De Phazz - Dancing With My Hands
08. Morcheeba feat. Thomas Dybdahl - Sleep On It Tonight
09. Seeders - Crazy For You
10. Goldfinga - La vie en rose
11. Pat Appleton - Mellow
12. Bloomfield - Je t'aime
13. Lemongrass - Dinner With You
14. Aromabar - Sparkling Beauty
15. Redlounge Orchestra - L'arrivee
16. Bliss - Mercy
17. Maxwell - Reunion

Total time: 01:18:09

CD 2 Tracklist (Quick And Dirty):
01. Bossasonic - Wicked Game
02. Kruder & Dorfmeister - Black Baby
03. Jazzamor - Love Track
04. Alien Cafe - Paris Depression
05. Jasmon - Lotus Love
06. Waldeck - Love Dub
07. Thievery Corporation - Focus On Sight
08. Lazy Hammock - Island Lover
09. Tape Five - Love On A Rainy Day
10. Rodrigo Sanchez feat. Nidia Ortiz - Te Deseo Asi
11. Rodney Hunter feat. Earl Zinger - Physical
12. Unit Blue - Estamos Esperando
13. Flamingo Star - Since I Met You
14. Lucky Loop - Midnight In Montparnasse
15. Maestra and Cabal - Escuchame mi amor
16. Ralf Gum feat. Diamondancer - All This Love For You
17. Kylie Minogue - Falling

Total time: 01:18:52

Exact Audio Copy V0.99 prebeta 4 from 23. January 2008

EAC extraction logfile from 26. November 2008, 10:12

Various / Erotic Lounge 7 (Finest Pleasure) - CD1

Used drive : PIONEER DVD-RW DVR-112D Adapter: 3 ID: 0

Read mode : Secure
Utilize accurate stream : Yes
Defeat audio cache : Yes
Make use of C2 pointers : No

Read offset correction : 48
Overread into Lead-In and Lead-Out : No
Fill up missing offset samples with silence : Yes
Delete leading and trailing silent blocks : No
Null samples used in CRC calculations : Yes
Used interface : Installed external ASPI interface

Used output format : User Defined Encoder
Selected bitrate : 192 kBit/s
Quality : Low
Add ID3 tag : Yes
Command line compressor : C:\Program Files\E A C Audio\Flac\flac.exe
Additional command line options : -V -8 -T "artist=%a" -T "title=%t" -T "album=%g" -T "date=%y" -T "tracknumber=%n" -T "genre=%m" %s


TOC of the extracted CD

Track | Start | Length | Start sector | End sector
––––––––––––––––––––––––––––-
1 | 0:00.00 | 4:27.21 | 0 | 20045
2 | 4:27.21 | 4:52.17 | 20046 | 41962
3 | 9:19.38 | 3:51.39 | 41963 | 59326
4 | 13:11.02 | 5:54.52 | 59327 | 85928
5 | 19:05.54 | 4:24.70 | 85929 | 105798
6 | 23:30.49 | 3:53.39 | 105799 | 123312
7 | 27:24.13 | 3:25.65 | 123313 | 138752
8 | 30:50.03 | 5:26.70 | 138753 | 163272
9 | 36:16.73 | 5:55.07 | 163273 | 189904
10 | 42:12.05 | 3:25.20 | 189905 | 205299
11 | 45:37.25 | 4:54.03 | 205300 | 227352
12 | 50:31.28 | 4:57.30 | 227353 | 249657
13 | 55:28.58 | 3:52.70 | 249658 | 267127
14 | 59:21.53 | 5:51.34 | 267128 | 293486
15 | 65:13.12 | 4:04.38 | 293487 | 311824
16 | 69:17.50 | 3:58.44 | 311825 | 329718
17 | 73:16.19 | 4:52.34 | 329719 | 351652


Range status and errors

Selected range

Filename G:\Various - Erotic Lounge 7 (Finest Pleasure)\Various - Erotic Lounge 7 (Finest Pleasure) - CD1.wav

Peak level 99.1 %
Range quality 100.0 %
Test CRC 14525CA7
Copy CRC 14525CA7
Copy OK

No errors occurred


AccurateRip summary

Track 1 not present in database
Track 2 not present in database
Track 3 not present in database
Track 4 not present in database
Track 5 not present in database
Track 6 not present in database
Track 7 not present in database
Track 8 not present in database
Track 9 not present in database
Track 10 not present in database
Track 11 not present in database
Track 12 not present in database
Track 13 not present in database
Track 14 not present in database
Track 15 not present in database
Track 16 not present in database
Track 17 not present in database

None of the tracks are present in the AccurateRip database

End of status report

[CUETools log; Date: 18.09.2017 21:00:50; Version: 2.1.4]
[CTDB TOCID: cZMXMp__EGqNH6kS1bVo8LTd73o-] found.
Track | CTDB Status
1 | (29/29) Accurately ripped
2 | (29/29) Accurately ripped
3 | (29/29) Accurately ripped
4 | (29/29) Accurately ripped
5 | (29/29) Accurately ripped
6 | (29/29) Accurately ripped
7 | (29/29) Accurately ripped
8 | (29/29) Accurately ripped
9 | (28/29) Accurately ripped
10 | (28/29) Accurately ripped
11 | (29/29) Accurately ripped
12 | (29/29) Accurately ripped
13 | (29/29) Accurately ripped
14 | (29/29) Accurately ripped
15 | (28/29) Accurately ripped
16 | (28/29) Accurately ripped
17 | (29/29) Accurately ripped
[AccurateRip ID: 0030490f-0263ff27-fd125011] found.
Track [ CRC | V2 ] Status
01 [be2289ff|e21f092a] (08+15/23) Accurately ripped
02 [d5d970a7|82743d17] (08+15/23) Accurately ripped
03 [dc2b189d|95a5cb5c] (08+15/23) Accurately ripped
04 [f0d51f21|ccb07275] (08+15/23) Accurately ripped
05 [fc7e2cf8|8817bb98] (08+15/23) Accurately ripped
06 [55a1232c|6bf37dd6] (08+15/23) Accurately ripped
07 [0b1b2ebd|207785e5] (08+15/23) Accurately ripped
08 [cc95df5a|7f4d3e37] (08+15/23) Accurately ripped
09 [b944a9ea|d701a6c4] (08+15/23) Accurately ripped
10 [2efeaec0|0ed8dcf6] (08+15/23) Accurately ripped
11 [6e8050db|ef879450] (08+15/23) Accurately ripped
12 [f9880096|e8bf8a1e] (08+15/23) Accurately ripped
13 [f8c4a460|9ee32e8a] (08+15/23) Accurately ripped
14 [e1106ebe|99321553] (07+15/22) Accurately ripped
15 [d960366d|5ecf03c8] (08+14/22) Accurately ripped
16 [722b65de|c59c10bc] (08+14/22) Accurately ripped
17 [c52e4d56|c0141b0e] (08+15/23) Accurately ripped

Track Peak [ CRC32 ] [W/O NULL] [ LOG ]
– 99,1 [14525CA7] [87185071] CRC32
01 99,0 [99A086D5] [BBCFC757]
02 99,0 [B7F0FA12] [D4C6D16A]
03 99,0 [E883ED5E] [A46CF2E8]
04 99,0 [D8B7DECB] [57B45783]
05 99,0 [918246F2] [CC1D8B5E]
06 99,0 [C753732E] [FE5ED489]
07 99,0 [B792ED7F] [F210D6AC]
08 99,1 [F0FB2C4E] [585BBDE6]
09 99,0 [F6486CE0] [67C3BCBA]
10 99,0 [94F9F2CE] [E60800A9]
11 99,0 [B1011156] [DC82E6B4]
12 99,0 [8F0CB19F] [9FD1D48E]
13 99,0 [C3D9F6B9] [45AA3F7C]
14 99,0 [63DC42E0] [EF4F1854]
15 99,0 [5B7B9A86] [6E53D492]
16 99,0 [6C73112D] [ECB8801F]
17 97,9 [6AA044BF] [C00EC137]

Exact Audio Copy V0.99 prebeta 4 from 23. January 2008

EAC extraction logfile from 26. November 2008, 10:50

Various / Erotic Lounge 7 (Finest Pleasure) - CD2

Used drive : PIONEER DVD-RW DVR-112D Adapter: 3 ID: 0

Read mode : Secure
Utilize accurate stream : Yes
Defeat audio cache : Yes
Make use of C2 pointers : No

Read offset correction : 48
Overread into Lead-In and Lead-Out : No
Fill up missing offset samples with silence : Yes
Delete leading and trailing silent blocks : No
Null samples used in CRC calculations : Yes
Used interface : Installed external ASPI interface

Used output format : User Defined Encoder
Selected bitrate : 192 kBit/s
Quality : Low
Add ID3 tag : Yes
Command line compressor : C:\Program Files\E A C Audio\Flac\flac.exe
Additional command line options : -V -8 -T "artist=%a" -T "title=%t" -T "album=%g" -T "date=%y" -T "tracknumber=%n" -T "genre=%m" %s


TOC of the extracted CD

Track | Start | Length | Start sector | End sector
––––––––––––––––––––––––––––-
1 | 0:00.00 | 3:07.08 | 0 | 14032
2 | 3:07.08 | 6:15.50 | 14033 | 42207
3 | 9:22.58 | 3:20.51 | 42208 | 57258
4 | 12:43.34 | 3:28.50 | 57259 | 72908
5 | 16:12.09 | 2:55.39 | 72909 | 86072
6 | 19:07.48 | 4:32.70 | 86073 | 106542
7 | 23:40.43 | 3:42.05 | 106543 | 123197
8 | 27:22.48 | 3:52.74 | 123198 | 140671
9 | 31:15.47 | 4:44.61 | 140672 | 162032
10 | 36:00.33 | 5:54.23 | 162033 | 188605
11 | 41:54.56 | 5:22.49 | 188606 | 212804
12 | 47:17.30 | 5:47.13 | 212805 | 238842
13 | 53:04.43 | 4:14.22 | 238843 | 257914
14 | 57:18.65 | 5:23.54 | 257915 | 282193
15 | 62:42.44 | 5:18.25 | 282194 | 306068
16 | 68:00.69 | 4:07.07 | 306069 | 324600
17 | 72:08.01 | 6:44.22 | 324601 | 354922


Range status and errors

Selected range

Filename G:\Various - Erotic Lounge 7 (Finest Pleasure)\Various - Erotic Lounge 7 (Finest Pleasure) - CD2.wav

Peak level 99.0 %
Range quality 100.0 %
Test CRC 1065719A
Copy CRC 1065719A
Copy OK

No errors occurred


AccurateRip summary

Track 1 not present in database
Track 2 not present in database
Track 3 not present in database
Track 4 not present in database
Track 5 not present in database
Track 6 not present in database
Track 7 not present in database
Track 8 not present in database
Track 9 not present in database
Track 10 not present in database
Track 11 not present in database
Track 12 not present in database
Track 13 not present in database
Track 14 not present in database
Track 15 not present in database
Track 16 not present in database
Track 17 not present in database

None of the tracks are present in the AccurateRip database

End of status report

[CUETools log; Date: 18.09.2017 21:02:15; Version: 2.1.4]
[CTDB TOCID: T3ok3WDMss7Q2Zdgdi4t9kkID4o-] found.
Track | CTDB Status
1 | (27/28) Accurately ripped
2 | (28/28) Accurately ripped
3 | (27/28) Accurately ripped
4 | (28/28) Accurately ripped
5 | (28/28) Accurately ripped
6 | (28/28) Accurately ripped
7 | (28/28) Accurately ripped
8 | (28/28) Accurately ripped
9 | (28/28) Accurately ripped
10 | (28/28) Accurately ripped
11 | (28/28) Accurately ripped
12 | (28/28) Accurately ripped
13 | (27/28) Accurately ripped
14 | (28/28) Accurately ripped
15 | (28/28) Accurately ripped
16 | (28/28) Accurately ripped
17 | (28/28) Accurately ripped
[AccurateRip ID: 002d5504-0247da75-00127c11] found.
Track [ CRC | V2 ] Status
01 [fbaf3605|1bc89cac] (08+15/23) Accurately ripped
02 [05cf3c7a|cee8e672] (08+15/23) Accurately ripped
03 [87e4de1b|4f17cb83] (08+15/23) Accurately ripped
04 [bdb18139|a68098bf] (08+15/23) Accurately ripped
05 [d98db4d9|293fde3b] (08+15/23) Accurately ripped
06 [153d0191|38983014] (08+15/23) Accurately ripped
07 [01d3499f|0d16a37a] (08+15/23) Accurately ripped
08 [2206f727|3337477b] (08+15/23) Accurately ripped
09 [5f8223b1|fdb8b5d5] (08+15/23) Accurately ripped
10 [af937a56|80c77d68] (08+15/23) Accurately ripped
11 [31744da3|485faa8e] (08+15/23) Accurately ripped
12 [f6d1def9|ef889929] (08+15/23) Accurately ripped
13 [d0214270|734423ff] (07+14/21) Accurately ripped
14 [377668fc|605f6c40] (08+14/24) Accurately ripped
15 [7b50cd82|3eda36a0] (08+14/24) Accurately ripped
16 [425763b7|e9472b7e] (07+14/23) Accurately ripped
17 [f3e0d0bd|9abfa30c] (08+14/24) Accurately ripped
Offsetted by 6:
01 [dc5884f1] (00/23) No match
02 [d18134f8] (00/23) No match
03 [e4eae18a] (00/23) No match
04 [fffdadc9] (00/23) No match
05 [cb1ea936] (00/23) No match
06 [fa84a7be] (00/23) No match
07 [82fb38bb] (00/23) No match
08 [2651a826] (00/23) No match
09 [7bd5a2ad] (00/23) No match
10 [fd3f30d9] (00/23) No match
11 [7eae243e] (00/23) No match
12 [65e5d608] (00/23) No match
13 [85999110] (00/21) No match
14 [4bbbedc2] (00/24) No match (V2 was not tested)
15 [20c7e9a1] (00/24) No match (V2 was not tested)
16 [176fbddc] (00/23) No match (V2 was not tested)
17 [c9f936b6] (00/24) No match (V2 was not tested)

Track Peak [ CRC32 ] [W/O NULL] [ LOG ]
– 99,0 [1065719A] [F544067F] CRC32
01 99,0 [0AC85E1E] [D0E74156]
02 99,0 [B44FFF30] [220C2F85]
03 94,7 [C154A7CE] [098FED74]
04 99,0 [2714BB42] [7AC9D99C]
05 99,0 [682574DA] [97DA19FC]
06 99,0 [B98E5D42] [80D31EBD]
07 99,0 [B3E69145] [EE038C79]
08 99,0 [1C956A65] [D4AF4C77]
09 99,0 [030027F2] [48A226BF]
10 99,0 [DA0A227A] [0A970755]
11 99,0 [2D1BC68F] [3FCC2757]
12 99,0 [6713710C] [F90A0D8B]
13 99,0 [0D35C225] [691EA08C]
14 99,0 [3A19D18E] [8B48B322]
15 99,0 [567E560E] [7318C1CF]
16 99,0 [702D4FFB] [2B771F9C]
17 99,0 [D4440D08] [8C0C9133]

Thanks to the original releaser

See also:
V.A. - Erotic Lounge 2 (2004)
V.A. - Erotic Lounge 3 (Sensual Passion) (2004)
V.A. - Erotic Lounge 4 (Bare Jewels) (2005)
V.A. - Erotic Lounge 5 (Secret Affairs) (2006)
V.A. - Erotic Lounge 6 (Seductive Pearls) (2007)