Tags
Language
Tags

V.A. - Hits of the 70's [4CD Box Set] (1993)

Posted By: gribovar
V.A. - Hits of the 70's [4CD Box Set] (1993)

V.A. - Hits of the 70's [4CD Box Set] (1993)
EAC Rip | FLAC (tracks+.cue+log) - 1,41 GB | MP3 CBR 320 kbps (LAME 3.93) - 545 MB | Covers - 47 MB
Genre: Pop, R&B, Soul, Pop Rock | RAR 3% Rec. | Label: Legend (WZ 90168)

Rubettes, Paper Lace, Mungo Jerry, Billy Ocean, Otis Redding, Patti Labelle & The Bluebells, Ike & Tina Turner, Kenny Rogers, Tom Jones and many others.

V.A. - Hits of the 70's [4CD Box Set] (1993)

V.A. - Hits of the 70's Vol. 1 (1993)
EAC Rip | FLAC (tracks+.cue+log) - 324 MB | MP3 CBR 320 kbps (LAME 3.93) - 129 MB | Covers (8 MB) included
Genre: Pop, R&B, Soul, Pop Rock | RAR 3% Rec. | Label: Legend (WZ 91 000)

Tracklist:
01. Rubettes - Sugar Baby Love
02. The Fortunes - Freedom Come, Freedom Go
03. Paper Lace - The Night Chicago Died
04. Glitter Band - Goodbye My Love
05. The Regents - Beach Baby
06. Mungo Jerry - In The Summertime
07. Gallery - Nice To Be With You
08. Badfinger - Come And Get It
09. The New Seekers - Beg Steal Of Borrow
10. Chicory Tip - Son Of My Father
11. Marmalade - Reflections Of My Love
12. Jeff Christie - Yellow River
13. Barry Blue - Dancing On A Saturday Night
14. Edison Lighthouse - Love Grows (Where My Rosemary Goes)
15. Mac & Katie Kissoon - Chirpy Chirpy Cheep Cheep
16. Daniel Boone - Beautiful Sunday

Total time: 51:12

Exact Audio Copy V1.3 from 2. September 2016

EAC extraction logfile from 9. April 2020, 16:46

Various Artists / Hit's of the 70's Vol.1 (WZ 91 000)

Used drive : HL-DT-STDVDRAM GE20NU11 Adapter: 1 ID: 0

Read mode : Secure
Utilize accurate stream : Yes
Defeat audio cache : Yes
Make use of C2 pointers : No

Read offset correction : 667
Overread into Lead-In and Lead-Out : No
Fill up missing offset samples with silence : Yes
Delete leading and trailing silent blocks : No
Null samples used in CRC calculations : Yes
Used interface : Native Win32 interface for Win NT & 2000
Gap handling : Appended to previous track

Used output format : User Defined Encoder
Selected bitrate : 896 kBit/s
Quality : High
Add ID3 tag : No
Command line compressor : C:\Program Files\Exact Audio Copy\Flac\flac.exe
Additional command line options : -V -8 -T "Date=%year%" -T "Genre=%genre%" %source%


TOC of the extracted CD

Track | Start | Length | Start sector | End sector
––––––––––––––––––––––––––––-
1 | 0:00.00 | 3:28.50 | 0 | 15649
2 | 3:28.50 | 3:19.17 | 15650 | 30591
3 | 6:47.67 | 3:19.20 | 30592 | 45536
4 | 10:07.12 | 4:03.68 | 45537 | 63829
5 | 14:11.05 | 4:20.42 | 63830 | 83371
6 | 18:31.47 | 3:36.68 | 83372 | 99639
7 | 22:08.40 | 2:49.70 | 99640 | 112384
8 | 24:58.35 | 2:12.67 | 112385 | 122351
9 | 27:11.27 | 2:49.03 | 122352 | 135029
10 | 30:00.30 | 3:00.00 | 135030 | 148529
11 | 33:00.30 | 4:15.00 | 148530 | 167654
12 | 37:15.30 | 2:34.10 | 167655 | 179214
13 | 39:49.40 | 3:03.67 | 179215 | 193006
14 | 42:53.32 | 2:33.25 | 193007 | 204506
15 | 45:26.57 | 2:47.65 | 204507 | 217096
16 | 48:14.47 | 2:57.58 | 217097 | 230429


Track 1

Filename Z:\OdW\Hit's of the 70's (WZ 90168)\Vol.1 (WZ 91 000)\01. Rubettes – Sugar Baby Love.wav

Pre-gap length 0:00:02.00

Peak level 92.6 %
Extraction speed 3.9 X
Track quality 100.0 %
Test CRC 9232D03F
Copy CRC 9232D03F
Accurately ripped (confidence 12) [9E9133FA] (AR v2)
Copy OK

Track 2

Filename Z:\OdW\Hit's of the 70's (WZ 90168)\Vol.1 (WZ 91 000)\02. The Fortunes – Freedom Come, Freedom Go.wav

Pre-gap length 0:00:03.43

Peak level 98.8 %
Extraction speed 4.4 X
Track quality 100.0 %
Test CRC D2F072CC
Copy CRC D2F072CC
Accurately ripped (confidence 12) [21376A1E] (AR v2)
Copy OK

Track 3

Filename Z:\OdW\Hit's of the 70's (WZ 90168)\Vol.1 (WZ 91 000)\03. Paper Lace – The Night Chicago Died.wav

Pre-gap length 0:00:04.42

Peak level 93.8 %
Extraction speed 4.7 X
Track quality 100.0 %
Test CRC 75CD2FA1
Copy CRC 75CD2FA1
Accurately ripped (confidence 12) [A2862727] (AR v2)
Copy OK

Track 4

Filename Z:\OdW\Hit's of the 70's (WZ 90168)\Vol.1 (WZ 91 000)\04. Glitter Band – Goodbye My Love.wav

Pre-gap length 0:00:03.60

Peak level 98.8 %
Extraction speed 4.9 X
Track quality 100.0 %
Test CRC 340921C3
Copy CRC 340921C3
Accurately ripped (confidence 12) [1403EC05] (AR v2)
Copy OK

Track 5

Filename Z:\OdW\Hit's of the 70's (WZ 90168)\Vol.1 (WZ 91 000)\05. The Regents – Beach Baby.wav

Pre-gap length 0:00:03.65

Peak level 98.8 %
Extraction speed 5.3 X
Track quality 100.0 %
Test CRC 3D74DC02
Copy CRC 3D74DC02
Accurately ripped (confidence 12) [705D4472] (AR v2)
Copy OK

Track 6

Filename Z:\OdW\Hit's of the 70's (WZ 90168)\Vol.1 (WZ 91 000)\06. Mungo Jerry – In The Summertime.wav

Pre-gap length 0:00:02.47

Peak level 74.1 %
Extraction speed 5.6 X
Track quality 100.0 %
Test CRC A2337811
Copy CRC A2337811
Accurately ripped (confidence 13) [C5DE875C] (AR v2)
Copy OK

Track 7

Filename Z:\OdW\Hit's of the 70's (WZ 90168)\Vol.1 (WZ 91 000)\07. Gallery – Nice To Be With You.wav

Pre-gap length 0:00:04.35

Peak level 83.2 %
Extraction speed 5.3 X
Track quality 100.0 %
Test CRC D9481EFE
Copy CRC D9481EFE
Accurately ripped (confidence 13) [7022518D] (AR v2)
Copy OK

Track 8

Filename Z:\OdW\Hit's of the 70's (WZ 90168)\Vol.1 (WZ 91 000)\08. Badfinger – Come And Get It.wav

Pre-gap length 0:00:03.35

Peak level 86.5 %
Extraction speed 5.5 X
Track quality 100.0 %
Test CRC 618B7727
Copy CRC 618B7727
Accurately ripped (confidence 13) [C18CE671] (AR v2)
Copy OK

Track 9

Filename Z:\OdW\Hit's of the 70's (WZ 90168)\Vol.1 (WZ 91 000)\09. The New Seekers – Beg Steal Of Borrow.wav

Pre-gap length 0:00:03.70

Peak level 90.8 %
Extraction speed 5.8 X
Track quality 100.0 %
Test CRC C0A49780
Copy CRC C0A49780
Accurately ripped (confidence 13) [DC128D3A] (AR v2)
Copy OK

Track 10

Filename Z:\OdW\Hit's of the 70's (WZ 90168)\Vol.1 (WZ 91 000)\10. Chicory Tip – Son Of My Father.wav

Pre-gap length 0:00:04.55

Peak level 97.0 %
Extraction speed 6.0 X
Track quality 100.0 %
Test CRC 40E78D36
Copy CRC 40E78D36
Accurately ripped (confidence 13) [F5FC37E6] (AR v2)
Copy OK

Track 11

Filename Z:\OdW\Hit's of the 70's (WZ 90168)\Vol.1 (WZ 91 000)\11. Marmalade – Reflections Of My Love.wav

Pre-gap length 0:00:04.30

Peak level 98.8 %
Extraction speed 6.3 X
Track quality 100.0 %
Test CRC 23871F23
Copy CRC 23871F23
Accurately ripped (confidence 13) [7281EBAC] (AR v2)
Copy OK

Track 12

Filename Z:\OdW\Hit's of the 70's (WZ 90168)\Vol.1 (WZ 91 000)\12. Jeff Christie – Yellw River.wav

Pre-gap length 0:00:02.58

Peak level 98.8 %
Extraction speed 6.2 X
Track quality 100.0 %
Test CRC 5D5561F7
Copy CRC 5D5561F7
Accurately ripped (confidence 13) [C3D7C9C0] (AR v2)
Copy OK

Track 13

Filename Z:\OdW\Hit's of the 70's (WZ 90168)\Vol.1 (WZ 91 000)\13. Barry Blue – Dancing On A Saturday Night.wav

Pre-gap length 0:00:02.25

Peak level 98.8 %
Extraction speed 5.2 X
Track quality 99.9 %
Test CRC 4A8F2C9A
Copy CRC 4A8F2C9A
Accurately ripped (confidence 13) [D1BEAD98] (AR v2)
Copy OK

Track 14

Filename Z:\OdW\Hit's of the 70's (WZ 90168)\Vol.1 (WZ 91 000)\14. Edison Lighthouse – Love Grows (Where My Rosemary Goes).wav

Pre-gap length 0:00:02.47

Peak level 87.0 %
Extraction speed 5.0 X
Track quality 99.9 %
Test CRC 7A4227BB
Copy CRC 7A4227BB
Accurately ripped (confidence 13) [17A6E9B9] (AR v2)
Copy OK

Track 15

Filename Z:\OdW\Hit's of the 70's (WZ 90168)\Vol.1 (WZ 91 000)\15. Mac & Katie Kissoon – Chirpy Chirpy Cheep Cheep.wav

Pre-gap length 0:00:01.17

Peak level 97.3 %
Extraction speed 6.5 X
Track quality 100.0 %
Test CRC E345F70D
Copy CRC E345F70D
Accurately ripped (confidence 13) [BAACFD65] (AR v2)
Copy OK

Track 16

Filename Z:\OdW\Hit's of the 70's (WZ 90168)\Vol.1 (WZ 91 000)\16. Daniel Boone – Beautiful Sunday.wav

Pre-gap length 0:00:05.17

Peak level 98.8 %
Extraction speed 7.0 X
Track quality 100.0 %
Test CRC BDE937D4
Copy CRC BDE937D4
Accurately ripped (confidence 12) [2B444C8E] (AR v2)
Copy OK


All tracks accurately ripped

No errors occurred

End of status report

–– CUETools DB Plugin V2.1.6

[CTDB TOCID: 9U_yUbJ5zSGdrZqtZFl4rJwWNlc-] found
Submit result: 9U_yUbJ5zSGdrZqtZFl4rJwWNlc- has been confirmed
Track | CTDB Status
1 | (40/40) Accurately ripped
2 | (40/40) Accurately ripped
3 | (39/40) Accurately ripped
4 | (39/40) Accurately ripped
5 | (40/40) Accurately ripped
6 | (39/40) Accurately ripped
7 | (40/40) Accurately ripped
8 | (40/40) Accurately ripped
9 | (40/40) Accurately ripped
10 | (40/40) Accurately ripped
11 | (40/40) Accurately ripped
12 | (40/40) Accurately ripped
13 | (40/40) Accurately ripped
14 | (40/40) Accurately ripped
15 | (39/40) Accurately ripped
16 | (39/40) Accurately ripped


==== Log checksum AF31580B88A11AC6C364D8CAAF6F86F01D73293EB4C74BFC1FAF902D83513987 ====

[CUETools log; Date: 26.06.2020 11:54:01; Version: 2.1.4]
[CTDB TOCID: 9U_yUbJ5zSGdrZqtZFl4rJwWNlc-] found.
Track | CTDB Status
1 | (42/42) Accurately ripped
2 | (42/42) Accurately ripped
3 | (41/42) Accurately ripped
4 | (41/42) Accurately ripped
5 | (42/42) Accurately ripped
6 | (41/42) Accurately ripped
7 | (42/42) Accurately ripped
8 | (42/42) Accurately ripped
9 | (42/42) Accurately ripped
10 | (42/42) Accurately ripped
11 | (42/42) Accurately ripped
12 | (42/42) Accurately ripped
13 | (42/42) Accurately ripped
14 | (42/42) Accurately ripped
15 | (41/42) Accurately ripped
16 | (41/42) Accurately ripped
[AccurateRip ID: 001f433d-0172ebcd-cc0c0010] found.
Track [ CRC | V2 ] Status
01 [05fb8716|9e9133fa] (02+13/15) Accurately ripped
02 [a7684332|21376a1e] (02+13/15) Accurately ripped
03 [cf7f6d96|a2862727] (02+13/15) Accurately ripped
04 [24f7ffea|1403ec05] (02+13/15) Accurately ripped
05 [83f5e2ed|705d4472] (02+13/15) Accurately ripped
06 [0a1227be|c5de875c] (02+14/16) Accurately ripped
07 [b17d4303|7022518d] (02+14/16) Accurately ripped
08 [98b0326d|c18ce671] (02+14/16) Accurately ripped
09 [4876a26f|dc128d3a] (02+14/16) Accurately ripped
10 [c3d81ca0|f5fc37e6] (02+14/16) Accurately ripped
11 [a9ee0f59|7281ebac] (02+14/16) Accurately ripped
12 [eee73364|c3d7c9c0] (02+14/16) Accurately ripped
13 [e958e748|d1bead98] (02+14/16) Accurately ripped
14 [155bed81|17a6e9b9] (02+14/16) Accurately ripped
15 [c7162d6d|baacfd65] (02+14/16) Accurately ripped
16 [36bb2d22|2b444c8e] (02+13/15) Accurately ripped

Track Peak [ CRC32 ] [W/O NULL] [ LOG ]
– 98,8 [7D351628] [F0C2A732]
01 92,6 [9232D03F] [DE6A5A71] CRC32
02 98,8 [D2F072CC] [9E363586] CRC32
03 93,8 [75CD2FA1] [55C66874] CRC32
04 98,8 [340921C3] [57A34499] CRC32
05 98,8 [3D74DC02] [3E88257E] CRC32
06 74,1 [A2337811] [8D824A21] CRC32
07 83,2 [D9481EFE] [67FAF1D1] CRC32
08 86,5 [618B7727] [E274A06C] CRC32
09 90,8 [C0A49780] [D5002D2F] CRC32
10 97,0 [40E78D36] [F89B0914] CRC32
11 98,8 [23871F23] [8EB3C5FE] CRC32
12 98,8 [5D5561F7] [53CA363D] CRC32
13 98,8 [4A8F2C9A] [0145CEDE] CRC32
14 87,0 [7A4227BB] [209B39DA] CRC32
15 97,3 [E345F70D] [877763E5] CRC32
16 98,8 [BDE937D4] [56BB75C3] CRC32

V.A. - Hits of the 70's [4CD Box Set] (1993)

V.A. - Hits of the 70's Vol. 2 (1993)
EAC Rip | FLAC (tracks+.cue+log) - 339 MB | MP3 CBR 320 kbps (LAME 3.93) - 128 MB | Covers (7 MB) included
Genre: Pop, R&B, Soul, Pop Rock | RAR 3% Rec. | Label: Legend (WZ 91 001)

Tracklist:
01. George McCrae - Rock Your Baby
02. Billy Ocean - Love Really Hurts Without You
03. Harold Melvin & The Blue Notes - If You Don't Know Me By Now
04. The Drifters - Saturday Night At The Movies
05. Sam & Dave - Hold On, I'm Coming
06. Otis Redding - Sitting On The Dock Of The Bay
07. Brook Benton - The Boll Weevil Song
08. B.J. Thomas - I Just Can't Help Believin'
09. Martha Reeves - Heatwave
10. Ben E. King - Stand By Me
11. Patti Labelle & The Bluebells - Island Of Unbroken Hearts
12. Claudia Barry - Ti Amo
13. Gloria Gaynor - The Eye Of The Tiger
14. The Walker Brothers - The Sun Ain't Gonna Shine Anymore
15. Eddy Floyd - Knock On Wood
16. Ike & Tina Turner - Proud Mary

Total time: 51:04

Exact Audio Copy V1.3 from 2. September 2016

EAC extraction logfile from 9. April 2020, 17:25

Various Artists / Hit's of the 70's Vol.2 (WZ 91 001)

Used drive : HL-DT-STDVDRAM GE20NU11 Adapter: 1 ID: 0

Read mode : Secure
Utilize accurate stream : Yes
Defeat audio cache : Yes
Make use of C2 pointers : No

Read offset correction : 667
Overread into Lead-In and Lead-Out : No
Fill up missing offset samples with silence : Yes
Delete leading and trailing silent blocks : No
Null samples used in CRC calculations : Yes
Used interface : Native Win32 interface for Win NT & 2000
Gap handling : Appended to previous track

Used output format : User Defined Encoder
Selected bitrate : 896 kBit/s
Quality : High
Add ID3 tag : No
Command line compressor : C:\Program Files\Exact Audio Copy\Flac\flac.exe
Additional command line options : -V -8 -T "Date=%year%" -T "Genre=%genre%" %source%


TOC of the extracted CD

Track | Start | Length | Start sector | End sector
––––––––––––––––––––––––––––-
1 | 0:00.00 | 3:22.30 | 0 | 15179
2 | 3:22.30 | 3:17.42 | 15180 | 29996
3 | 6:39.72 | 4:30.28 | 29997 | 50274
4 | 11:10.25 | 2:39.45 | 50275 | 62244
5 | 13:49.70 | 2:42.15 | 62245 | 74409
6 | 16:32.10 | 2:44.42 | 74410 | 86751
7 | 19:16.52 | 2:52.48 | 86752 | 99699
8 | 22:09.25 | 3:04.40 | 99700 | 113539
9 | 25:13.65 | 4:03.55 | 113540 | 131819
10 | 29:17.45 | 2:57.72 | 131820 | 145166
11 | 32:15.42 | 2:37.28 | 145167 | 156969
12 | 34:52.70 | 4:49.40 | 156970 | 178684
13 | 39:42.35 | 3:52.02 | 178685 | 196086
14 | 43:34.37 | 3:06.20 | 196087 | 210056
15 | 46:40.57 | 1:46.43 | 210057 | 218049
16 | 48:27.25 | 2:36.50 | 218050 | 229799


Track 1

Filename Z:\OdW\Hit's of the 70's (WZ 90168)\Vol.2 (WZ 91 001)\01. George McCrae – Rock Your Baby.wav

Pre-gap length 0:00:02.00

Peak level 96.3 %
Extraction speed 3.9 X
Track quality 100.0 %
Test CRC 6867FF27
Copy CRC 6867FF27
Accurately ripped (confidence 2) [79038381] (AR v2)
Copy OK

Track 2

Filename Z:\OdW\Hit's of the 70's (WZ 90168)\Vol.2 (WZ 91 001)\02. Billy Ocean – Love Really Hurts Without You.wav

Pre-gap length 0:00:03.18

Peak level 98.8 %
Extraction speed 3.5 X
Track quality 99.9 %
Test CRC 588C510B
Copy CRC 588C510B
Accurately ripped (confidence 2) [03D7E34D] (AR v2)
Copy OK

Track 3

Filename Z:\OdW\Hit's of the 70's (WZ 90168)\Vol.2 (WZ 91 001)\03. Harold Melvin & The Blue Notes – If You Don't Know Me By Now.wav

Pre-gap length 0:00:02.02

Peak level 98.8 %
Extraction speed 5.0 X
Track quality 100.0 %
Test CRC 33615757
Copy CRC 33615757
Accurately ripped (confidence 2) [9A6D416C] (AR v2)
Copy OK

Track 4

Filename Z:\OdW\Hit's of the 70's (WZ 90168)\Vol.2 (WZ 91 001)\04. The Drifters – Saturday Night At The Movies.wav

Pre-gap length 0:00:03.53

Peak level 86.2 %
Extraction speed 4.6 X
Track quality 100.0 %
Test CRC 5E821203
Copy CRC 5E821203
Accurately ripped (confidence 2) [B72559A9] (AR v2)
Copy OK

Track 5

Filename Z:\OdW\Hit's of the 70's (WZ 90168)\Vol.2 (WZ 91 001)\05. Sam & Dave – Hold On, I'm Coming.wav

Pre-gap length 0:00:04.08

Peak level 98.8 %
Extraction speed 4.9 X
Track quality 100.0 %
Test CRC CAE94206
Copy CRC CAE94206
Accurately ripped (confidence 2) [116A6749] (AR v2)
Copy OK

Track 6

Filename Z:\OdW\Hit's of the 70's (WZ 90168)\Vol.2 (WZ 91 001)\06. Otis Redding – Sitting On The Dock Of The Bay.wav

Pre-gap length 0:00:04.10

Peak level 98.8 %
Extraction speed 5.1 X
Track quality 100.0 %
Test CRC C3AD40EC
Copy CRC C3AD40EC
Accurately ripped (confidence 2) [E82F708F] (AR v2)
Copy OK

Track 7

Filename Z:\OdW\Hit's of the 70's (WZ 90168)\Vol.2 (WZ 91 001)\07. Brook Benton – The Boll Weevil Song.wav

Pre-gap length 0:00:03.40

Peak level 98.8 %
Extraction speed 4.4 X
Track quality 99.9 %
Test CRC 0E9E8AAD
Copy CRC 0E9E8AAD
Accurately ripped (confidence 2) [44E8FBC5] (AR v2)
Copy OK

Track 8

Filename Z:\OdW\Hit's of the 70's (WZ 90168)\Vol.2 (WZ 91 001)\08. B.J. Thomas – I Just Can't Help Believin'.wav

Pre-gap length 0:00:03.43

Peak level 98.8 %
Extraction speed 5.8 X
Track quality 100.0 %
Test CRC 217E7E7C
Copy CRC 217E7E7C
Accurately ripped (confidence 2) [75FF4D76] (AR v2)
Copy OK

Track 9

Filename Z:\OdW\Hit's of the 70's (WZ 90168)\Vol.2 (WZ 91 001)\09. Martha Reeves – Heatwave.wav

Pre-gap length 0:00:02.43

Peak level 98.8 %
Extraction speed 6.6 X
Track quality 100.0 %
Test CRC C4A1986C
Copy CRC C4A1986C
Accurately ripped (confidence 2) [49523373] (AR v2)
Copy OK

Track 10

Filename Z:\OdW\Hit's of the 70's (WZ 90168)\Vol.2 (WZ 91 001)\10. Ben E. King – Stand By Me.wav

Pre-gap length 0:00:04.03

Peak level 83.5 %
Extraction speed 5.1 X
Track quality 99.9 %
Test CRC 963D665D
Copy CRC 963D665D
Accurately ripped (confidence 2) [6C119FEF] (AR v2)
Copy OK

Track 11

Filename Z:\OdW\Hit's of the 70's (WZ 90168)\Vol.2 (WZ 91 001)\11. Patti Labelle & The Bluebells – Island Of Unbroken Hearts.wav

Pre-gap length 0:00:03.51

Peak level 98.8 %
Extraction speed 4.8 X
Track quality 99.9 %
Test CRC 9B2D2152
Copy CRC 9B2D2152
Accurately ripped (confidence 2) [52623E79] (AR v2)
Copy OK

Track 12

Filename Z:\OdW\Hit's of the 70's (WZ 90168)\Vol.2 (WZ 91 001)\12. Claudia Barry – Ti Amo.wav

Pre-gap length 0:00:03.73

Peak level 98.8 %
Extraction speed 7.0 X
Track quality 100.0 %
Test CRC 9BCD923B
Copy CRC 9BCD923B
Accurately ripped (confidence 2) [88EAB61B] (AR v2)
Copy OK

Track 13

Filename Z:\OdW\Hit's of the 70's (WZ 90168)\Vol.2 (WZ 91 001)\13. Gloria Gaynor – The Eye Of The tTger.wav

Pre-gap length 0:00:08.68

Peak level 98.8 %
Extraction speed 6.9 X
Track quality 100.0 %
Test CRC 5E6839E3
Copy CRC 5E6839E3
Accurately ripped (confidence 2) [2D7E4BC3] (AR v2)
Copy OK

Track 14

Filename Z:\OdW\Hit's of the 70's (WZ 90168)\Vol.2 (WZ 91 001)\14. The Walker Brothers – The Sun Ain't Gonna Shine Anymore.wav

Pre-gap length 0:00:03.40

Peak level 93.4 %
Extraction speed 5.7 X
Track quality 99.9 %
Test CRC 6ECCAFFB
Copy CRC 6ECCAFFB
Accurately ripped (confidence 2) [29D2988C] (AR v2)
Copy OK

Track 15

Filename Z:\OdW\Hit's of the 70's (WZ 90168)\Vol.2 (WZ 91 001)\15. Eddy Floyd – Knock On Wood.wav

Pre-gap length 0:00:04.52

Peak level 98.8 %
Extraction speed 4.5 X
Track quality 99.9 %
Test CRC 4CC1DB73
Copy CRC 4CC1DB73
Accurately ripped (confidence 2) [5606F611] (AR v2)
Copy OK

Track 16

Filename Z:\OdW\Hit's of the 70's (WZ 90168)\Vol.2 (WZ 91 001)\16. Ike & Tina Turner – Proud Mary.wav

Pre-gap length 0:00:03.25

Peak level 95.1 %
Extraction speed 7.3 X
Track quality 100.0 %
Test CRC E0C25A71
Copy CRC E0C25A71
Accurately ripped (confidence 2) [F0512427] (AR v2)
Copy OK


All tracks accurately ripped

No errors occurred

End of status report

–– CUETools DB Plugin V2.1.6

[CTDB TOCID: 9TvKG1JpIlBvSUPXxDsOKfeHYi4-] found
Submit result: 9TvKG1JpIlBvSUPXxDsOKfeHYi4- has been confirmed
Track | CTDB Status
1 | (4/4) Accurately ripped
2 | (4/4) Accurately ripped
3 | (4/4) Accurately ripped
4 | (4/4) Accurately ripped
5 | (4/4) Accurately ripped
6 | (4/4) Accurately ripped
7 | (4/4) Accurately ripped
8 | (4/4) Accurately ripped
9 | (4/4) Accurately ripped
10 | (4/4) Accurately ripped
11 | (4/4) Accurately ripped
12 | (4/4) Accurately ripped
13 | (4/4) Accurately ripped
14 | (4/4) Accurately ripped
15 | (4/4) Accurately ripped
16 | (4/4) Accurately ripped


==== Log checksum DAD515313CD6DFD4CF30D20C2AF5B591ACE29CB03A3CD7E4C8F90C4DFCB47596 ====

[CUETools log; Date: 26.06.2020 11:55:06; Version: 2.1.4]
[CTDB TOCID: 9TvKG1JpIlBvSUPXxDsOKfeHYi4-] found.
Track | CTDB Status
1 | (5/5) Accurately ripped
2 | (5/5) Accurately ripped
3 | (5/5) Accurately ripped
4 | (5/5) Accurately ripped
5 | (5/5) Accurately ripped
6 | (5/5) Accurately ripped
7 | (5/5) Accurately ripped
8 | (5/5) Accurately ripped
9 | (5/5) Accurately ripped
10 | (5/5) Accurately ripped
11 | (5/5) Accurately ripped
12 | (5/5) Accurately ripped
13 | (5/5) Accurately ripped
14 | (5/5) Accurately ripped
15 | (5/5) Accurately ripped
16 | (5/5) Accurately ripped
[AccurateRip ID: 001e7f8f-016cf944-da0bf810] found.
Track [ CRC | V2 ] Status
01 [b4410b4a|79038381] (0+3/3) Accurately ripped
02 [b113d7b8|03d7e34d] (0+3/3) Accurately ripped
03 [9040950f|9a6d416c] (0+3/3) Accurately ripped
04 [a90784c5|b72559a9] (0+3/3) Accurately ripped
05 [43243272|116a6749] (0+3/3) Accurately ripped
06 [3dc7a588|e82f708f] (0+3/3) Accurately ripped
07 [d238877e|44e8fbc5] (0+3/3) Accurately ripped
08 [19c251a9|75ff4d76] (0+3/3) Accurately ripped
09 [a146654c|49523373] (0+3/3) Accurately ripped
10 [8acd8e52|6c119fef] (0+3/3) Accurately ripped
11 [110366a2|52623e79] (0+3/3) Accurately ripped
12 [36319f90|88eab61b] (0+3/3) Accurately ripped
13 [45fbe241|2d7e4bc3] (0+3/3) Accurately ripped
14 [550a13b0|29d2988c] (0+3/3) Accurately ripped
15 [3a2963fd|5606f611] (0+3/3) Accurately ripped
16 [51289942|f0512427] (0+3/3) Accurately ripped

Track Peak [ CRC32 ] [W/O NULL] [ LOG ]
– 98,8 [997D79DA] [49581637]
01 96,3 [6867FF27] [5F623E76] CRC32
02 98,8 [588C510B] [282AB4E9] CRC32
03 98,8 [33615757] [5E7ED8ED] CRC32
04 86,2 [5E821203] [94CE07FF] CRC32
05 98,8 [CAE94206] [78C81827] CRC32
06 98,8 [C3AD40EC] [D7003C35] CRC32
07 98,8 [0E9E8AAD] [8002459C] CRC32
08 98,8 [217E7E7C] [E6E40648] CRC32
09 98,8 [C4A1986C] [64592172] CRC32
10 83,5 [963D665D] [95434AB7] CRC32
11 98,8 [9B2D2152] [60C00699] CRC32
12 98,8 [9BCD923B] [7EC96F85] CRC32
13 98,8 [5E6839E3] [82D1FEF6] CRC32
14 93,4 [6ECCAFFB] [4225743E] CRC32
15 98,8 [4CC1DB73] [D288099E] CRC32
16 95,1 [E0C25A71] [270B28ED] CRC32

V.A. - Hits of the 70's [4CD Box Set] (1993)

V.A. - Hits of the 70's Vol. 3 (1993)
EAC Rip | FLAC (tracks+.cue+log) - 384 MB | MP3 CBR 320 kbps (LAME 3.93) - 145 MB | Covers (7 MB) included
Genre: Pop, R&B, Soul, Pop Rock | RAR 3% Rec. | Label: Legend (WZ 91 002)

Tracklist:
01. Lobo - I'd Love You To Want Me
02. Kenny Rogers - Ruby Don't Take Your Love To Town
03. Redbone - The Witch Queen Of New Orleans
04. David Hasselhoff - Night Rocker
05. Billy Ray Cyrus - Achy Breaky Heart (Don't Tell My Heart)
06. Engelbert - Red Sails In The Sunset
07. Don Fardon - Indian Reservation
08. Tom Jones - The Young New Mexican Puppeteer
09. Jimmy Rodgers - Kisses Sweeter Than Wine
10. Tommy James & The Shondells - Crimson And Clover
11. Spencer Davis - Keep On Runnin'
12. Percy Sledge - Behind Closes Door
13. Bobby Womack - Sweet Caroline
14. James Brown - Tennessee Waltz
15. Gary Glitter - Wild Horses
16. The Righteous Brothers - You've Lost That Lovin' Feeling

Total time: 58:26

Exact Audio Copy V1.3 from 2. September 2016

EAC extraction logfile from 9. April 2020, 17:54

Various Artists / Hit's of the 70's Vol.3 (WZ 91 002)

Used drive : HL-DT-STDVDRAM GE20NU11 Adapter: 1 ID: 0

Read mode : Secure
Utilize accurate stream : Yes
Defeat audio cache : Yes
Make use of C2 pointers : No

Read offset correction : 667
Overread into Lead-In and Lead-Out : No
Fill up missing offset samples with silence : Yes
Delete leading and trailing silent blocks : No
Null samples used in CRC calculations : Yes
Used interface : Native Win32 interface for Win NT & 2000
Gap handling : Appended to previous track

Used output format : User Defined Encoder
Selected bitrate : 896 kBit/s
Quality : High
Add ID3 tag : No
Command line compressor : C:\Program Files\Exact Audio Copy\Flac\flac.exe
Additional command line options : -V -8 -T "Date=%year%" -T "Genre=%genre%" %source%


TOC of the extracted CD

Track | Start | Length | Start sector | End sector
––––––––––––––––––––––––––––-
1 | 0:00.00 | 4:16.20 | 0 | 19219
2 | 4:16.20 | 2:57.67 | 19220 | 32561
3 | 7:14.12 | 3:37.15 | 32562 | 48851
4 | 10:51.27 | 3:40.23 | 48852 | 65374
5 | 14:31.50 | 5:05.17 | 65375 | 88266
6 | 19:36.67 | 3:05.20 | 88267 | 102161
7 | 22:42.12 | 3:28.73 | 102162 | 117834
8 | 26:11.10 | 4:35.65 | 117835 | 138524
9 | 30:47.00 | 2:23.25 | 138525 | 149274
10 | 33:10.25 | 4:45.17 | 149275 | 170666
11 | 37:55.42 | 2:54.48 | 170667 | 183764
12 | 40:50.15 | 3:31.05 | 183765 | 199594
13 | 44:21.20 | 3:12.10 | 199595 | 214004
14 | 47:33.30 | 3:29.60 | 214005 | 229739
15 | 51:03.15 | 3:44.47 | 229740 | 246586
16 | 54:47.62 | 3:38.13 | 246587 | 262949


Track 1

Filename Z:\OdW\Hit's of the 70's (WZ 90168)\Vol.3 (WZ 91 002)\01. Lobo – I'd Love You To Want Me.wav

Pre-gap length 0:00:02.00

Peak level 98.8 %
Extraction speed 3.7 X
Track quality 99.9 %
Test CRC EFF0113C
Copy CRC EFF0113C
Accurately ripped (confidence 4) [374FC38B] (AR v2)
Copy OK

Track 2

Filename Z:\OdW\Hit's of the 70's (WZ 90168)\Vol.3 (WZ 91 002)\02. Kenny Rogers – Ruby Don't Take Your Love To Town.wav

Pre-gap length 0:00:06.40

Peak level 98.8 %
Extraction speed 4.4 X
Track quality 100.0 %
Test CRC 79DC9561
Copy CRC 79DC9561
Accurately ripped (confidence 4) [B471DAA1] (AR v2)
Copy OK

Track 3

Filename Z:\OdW\Hit's of the 70's (WZ 90168)\Vol.3 (WZ 91 002)\03. Redbone – The Witch Queen Of New Orleans.wav

Pre-gap length 0:00:06.00

Peak level 98.8 %
Extraction speed 5.0 X
Track quality 100.0 %
Test CRC 440F51FA
Copy CRC 440F51FA
Accurately ripped (confidence 4) [A7674E82] (AR v2)
Copy OK

Track 4

Filename Z:\OdW\Hit's of the 70's (WZ 90168)\Vol.3 (WZ 91 002)\04. David Hasselhoff – Night Rocker.wav

Pre-gap length 0:00:04.47

Peak level 98.8 %
Extraction speed 5.2 X
Track quality 100.0 %
Test CRC 3E462603
Copy CRC 3E462603
Accurately ripped (confidence 4) [D4FE2994] (AR v2)
Copy OK

Track 5

Filename Z:\OdW\Hit's of the 70's (WZ 90168)\Vol.3 (WZ 91 002)\05. Billy Ray Cyrus – Achy Breaky Heart (Don't Tell My Heart).wav

Pre-gap length 0:00:04.50

Peak level 98.8 %
Extraction speed 6.0 X
Track quality 100.0 %
Test CRC 30975049
Copy CRC 30975049
Accurately ripped (confidence 4) [6484571D] (AR v2)
Copy OK

Track 6

Filename Z:\OdW\Hit's of the 70's (WZ 90168)\Vol.3 (WZ 91 002)\06. Engelbert – Red Sails In The Sunset.wav

Pre-gap length 0:00:04.67

Peak level 98.8 %
Extraction speed 4.6 X
Track quality 99.9 %
Test CRC 17434C29
Copy CRC 17434C29
Accurately ripped (confidence 4) [7981EB1D] (AR v2)
Copy OK

Track 7

Filename Z:\OdW\Hit's of the 70's (WZ 90168)\Vol.3 (WZ 91 002)\07. Don Fardon – Indian Reservation.wav

Pre-gap length 0:00:03.40

Peak level 98.8 %
Extraction speed 6.2 X
Track quality 100.0 %
Test CRC 4680A212
Copy CRC 4680A212
Accurately ripped (confidence 4) [5341217C] (AR v2)
Copy OK

Track 8

Filename Z:\OdW\Hit's of the 70's (WZ 90168)\Vol.3 (WZ 91 002)\08. Tom Jones – The Young New Mexican Puppeteer.wav

Pre-gap length 0:00:06.50

Peak level 98.8 %
Extraction speed 5.6 X
Track quality 99.9 %
Test CRC FC93CE7E
Copy CRC FC93CE7E
Accurately ripped (confidence 4) [130835B1] (AR v2)
Copy OK

Track 9

Filename Z:\OdW\Hit's of the 70's (WZ 90168)\Vol.3 (WZ 91 002)\09. Jimmy Rodgers – Kisses Sweeter Than Wine.wav

Pre-gap length 0:00:05.05

Peak level 98.8 %
Extraction speed 5.9 X
Track quality 100.0 %
Test CRC D293A106
Copy CRC D293A106
Accurately ripped (confidence 4) [5C340528] (AR v2)
Copy OK

Track 10

Filename Z:\OdW\Hit's of the 70's (WZ 90168)\Vol.3 (WZ 91 002)\10. Tommy James & The Shondells – Crimson And Clover.wav

Pre-gap length 0:00:05.23

Peak level 98.8 %
Extraction speed 7.0 X
Track quality 100.0 %
Test CRC 18260DFC
Copy CRC 18260DFC
Accurately ripped (confidence 4) [BFB04CF3] (AR v2)
Copy OK

Track 11

Filename Z:\OdW\Hit's of the 70's (WZ 90168)\Vol.3 (WZ 91 002)\11. Spencer Davis – Keep On Runnin'.wav

Pre-gap length 0:00:05.10

Peak level 96.4 %
Extraction speed 5.2 X
Track quality 99.9 %
Test CRC 4516EBC2
Copy CRC 4516EBC2
Accurately ripped (confidence 4) [DA5E4A9A] (AR v2)
Copy OK

Track 12

Filename Z:\OdW\Hit's of the 70's (WZ 90168)\Vol.3 (WZ 91 002)\12. Percy Sledge – Behind Closes Door.wav

Pre-gap length 0:00:04.53

Peak level 98.8 %
Extraction speed 7.0 X
Track quality 100.0 %
Test CRC 17057C15
Copy CRC 17057C15
Accurately ripped (confidence 4) [EE780FC2] (AR v2)
Copy OK

Track 13

Filename Z:\OdW\Hit's of the 70's (WZ 90168)\Vol.3 (WZ 91 002)\13. Bobby Womack – Sweet Caroline.wav

Pre-gap length 0:00:04.00

Peak level 95.5 %
Extraction speed 7.1 X
Track quality 100.0 %
Test CRC 09111005
Copy CRC 09111005
Accurately ripped (confidence 4) [5E8DA717] (AR v2)
Copy OK

Track 14

Filename Z:\OdW\Hit's of the 70's (WZ 90168)\Vol.3 (WZ 91 002)\14. James Brown – Tennessee Waltz.wav

Pre-gap length 0:00:04.73

Peak level 98.8 %
Extraction speed 6.0 X
Track quality 99.9 %
Test CRC 0FACF6BF
Copy CRC 0FACF6BF
Accurately ripped (confidence 4) [440101F2] (AR v2)
Copy OK

Track 15

Filename Z:\OdW\Hit's of the 70's (WZ 90168)\Vol.3 (WZ 91 002)\15. Gary Glitter – Wild Horses.wav

Pre-gap length 0:00:04.35

Peak level 94.9 %
Extraction speed 7.6 X
Track quality 100.0 %
Test CRC A753C1FF
Copy CRC A753C1FF
Accurately ripped (confidence 4) [39008DA1] (AR v2)
Copy OK

Track 16

Filename Z:\OdW\Hit's of the 70's (WZ 90168)\Vol.3 (WZ 91 002)\16. The Righteous Brothers – You've Lost That Lovin' Feeling.wav

Pre-gap length 0:00:03.35

Peak level 98.8 %
Extraction speed 6.7 X
Track quality 99.9 %
Test CRC 2188F53D
Copy CRC 2188F53D
Accurately ripped (confidence 3) [2C0EFBDB] (AR v2)
Copy OK


All tracks accurately ripped

No errors occurred

End of status report

–– CUETools DB Plugin V2.1.6

[CTDB TOCID: UOA7jO24q26Y6O8YHr8ZfYj6vQc-] found
Submit result: UOA7jO24q26Y6O8YHr8ZfYj6vQc- has been confirmed
Track | CTDB Status
1 | (5/5) Accurately ripped
2 | (5/5) Accurately ripped
3 | (5/5) Accurately ripped
4 | (5/5) Accurately ripped
5 | (5/5) Accurately ripped
6 | (5/5) Accurately ripped
7 | (5/5) Accurately ripped
8 | (5/5) Accurately ripped
9 | (5/5) Accurately ripped
10 | (5/5) Accurately ripped
11 | (5/5) Accurately ripped
12 | (5/5) Accurately ripped
13 | (5/5) Accurately ripped
14 | (5/5) Accurately ripped
15 | (5/5) Accurately ripped
16 | (5/5) Accurately ripped


==== Log checksum F384B0B48061E1D0B668B932352E9661D3D6269E23469296B616A0A129F4C682 ====

[CUETools log; Date: 26.06.2020 11:55:49; Version: 2.1.4]
[CTDB TOCID: UOA7jO24q26Y6O8YHr8ZfYj6vQc-] found.
Track | CTDB Status
1 | (6/6) Accurately ripped
2 | (6/6) Accurately ripped
3 | (6/6) Accurately ripped
4 | (6/6) Accurately ripped
5 | (6/6) Accurately ripped
6 | (6/6) Accurately ripped
7 | (6/6) Accurately ripped
8 | (6/6) Accurately ripped
9 | (6/6) Accurately ripped
10 | (6/6) Accurately ripped
11 | (6/6) Accurately ripped
12 | (6/6) Accurately ripped
13 | (6/6) Accurately ripped
14 | (6/6) Accurately ripped
15 | (6/6) Accurately ripped
16 | (6/6) Accurately ripped
[AccurateRip ID: 0022a0c6-019dd289-010db210] found.
Track [ CRC | V2 ] Status
01 [1ee5af01|374fc38b] (0+5/5) Accurately ripped
02 [e7c4e3fb|b471daa1] (0+5/5) Accurately ripped
03 [50498d12|a7674e82] (0+5/5) Accurately ripped
04 [ef7939e5|d4fe2994] (0+5/5) Accurately ripped
05 [1a029a2c|6484571d] (0+5/5) Accurately ripped
06 [95fab421|7981eb1d] (0+5/5) Accurately ripped
07 [0dc064e9|5341217c] (0+5/5) Accurately ripped
08 [0d224eaa|130835b1] (0+5/5) Accurately ripped
09 [2a258d08|5c340528] (0+5/5) Accurately ripped
10 [a53af7fc|bfb04cf3] (0+5/5) Accurately ripped
11 [7ede8688|da5e4a9a] (0+5/5) Accurately ripped
12 [b046d638|ee780fc2] (0+5/5) Accurately ripped
13 [725fa316|5e8da717] (0+5/5) Accurately ripped
14 [a477eb1e|440101f2] (0+5/5) Accurately ripped
15 [4a5a79c4|39008da1] (0+5/5) Accurately ripped
16 [066a17f4|2c0efbdb] (0+4/4) Accurately ripped

Track Peak [ CRC32 ] [W/O NULL] [ LOG ]
– 98,8 [52F67D9F] [2ED71A1E]
01 98,8 [EFF0113C] [C131B69E] CRC32
02 98,8 [79DC9561] [E63CB3D7] CRC32
03 98,8 [440F51FA] [075B2BC7] CRC32
04 98,8 [3E462603] [DD7AE9F1] CRC32
05 98,8 [30975049] [35635A8F] CRC32
06 98,8 [17434C29] [C819F5B9] CRC32
07 98,8 [4680A212] [224E2239] CRC32
08 98,8 [FC93CE7E] [6A0F125F] CRC32
09 98,8 [D293A106] [ABC13E66] CRC32
10 98,8 [18260DFC] [C9BB9DC9] CRC32
11 96,4 [4516EBC2] [08A64D96] CRC32
12 98,8 [17057C15] [725E9C2A] CRC32
13 95,5 [09111005] [DF09A76C] CRC32
14 98,8 [0FACF6BF] [04CFEB29] CRC32
15 94,9 [A753C1FF] [81C605B0] CRC32
16 98,8 [2188F53D] [B2D0712A] CRC32

V.A. - Hits of the 70's [4CD Box Set] (1993)

V.A. - Hits of the 70's Vol. 4 (1993)
EAC Rip | FLAC (tracks+.cue+log) - 369 MB | MP3 CBR 320 kbps (LAME 3.93) - 143 MB | Covers (7 MB) included
Genre: Pop, R&B, Soul, Pop Rock | RAR 3% Rec. | Label: Legend (WZ 91 003)

Tracklist:
01. Rubettes - I Cant Do It
02. Dobie Gray - Drift Away
03. The New Seekers - Never Ending Song Of Love
04. Roger Whittaker - The Last Farewell
05. Mungo Jerry - Lady Rose
06. Jackie Wilson - Reet Petite
07. Silver Convertion - Fly Robin Fly
08. KC&The Sunshine Band - Please Don't Go
09. Anita Ward - Ring My Bell
10. Evelyn Thomas - High Energy
11. John Holt - Let Your Love Flow
12. Timmy Thomas - Why Can't We Live Together
13. Showaddywaddy - When
14. Brotherhood Of Man - Save Your Kisses For Me
15. George Baker Selection - Little Green Bag
16. Gibson Brothers - Cuba

Total time: 57:34

Exact Audio Copy V1.3 from 2. September 2016

EAC extraction logfile from 9. April 2020, 19:05

Various Artists / Hit's of the 70's Vol.4 (WZ 91 003)

Used drive : HL-DT-STDVDRAM GE20NU11 Adapter: 1 ID: 0

Read mode : Secure
Utilize accurate stream : Yes
Defeat audio cache : Yes
Make use of C2 pointers : No

Read offset correction : 667
Overread into Lead-In and Lead-Out : No
Fill up missing offset samples with silence : Yes
Delete leading and trailing silent blocks : No
Null samples used in CRC calculations : Yes
Used interface : Native Win32 interface for Win NT & 2000
Gap handling : Appended to previous track

Used output format : User Defined Encoder
Selected bitrate : 896 kBit/s
Quality : High
Add ID3 tag : No
Command line compressor : C:\Program Files\Exact Audio Copy\Flac\flac.exe
Additional command line options : -V -8 -T "Date=%year%" -T "Genre=%genre%" %source%


TOC of the extracted CD

Track | Start | Length | Start sector | End sector
––––––––––––––––––––––––––––-
1 | 0:00.00 | 3:13.35 | 0 | 14509
2 | 3:13.35 | 3:35.57 | 14510 | 30691
3 | 6:49.17 | 3:08.28 | 30692 | 44819
4 | 9:57.45 | 3:26.02 | 44820 | 60271
5 | 13:23.47 | 3:14.13 | 60272 | 74834
6 | 16:37.60 | 2:45.45 | 74835 | 87254
7 | 19:23.30 | 5:55.00 | 87255 | 113879
8 | 25:18.30 | 3:55.40 | 113880 | 131544
9 | 29:13.70 | 3:35.72 | 131545 | 147741
10 | 32:49.67 | 3:53.45 | 147742 | 165261
11 | 36:43.37 | 3:49.40 | 165262 | 182476
12 | 40:33.02 | 3:56.35 | 182477 | 200211
13 | 44:29.37 | 2:51.20 | 200212 | 213056
14 | 47:20.57 | 3:04.65 | 213057 | 226921
15 | 50:25.47 | 3:18.00 | 226922 | 241771
16 | 53:43.47 | 3:50.53 | 241772 | 259074


Track 1

Filename Z:\OdW\Hit's of the 70's (WZ 90168)\Vol.4 (WZ 91 003)\01. Rubettes – I Cant Do It.wav

Pre-gap length 0:00:02.00

Peak level 96.5 %
Extraction speed 4.0 X
Track quality 100.0 %
Test CRC D053EEEE
Copy CRC D053EEEE
Accurately ripped (confidence 1) [5D938261] (AR v2)
Copy OK

Track 2

Filename Z:\OdW\Hit's of the 70's (WZ 90168)\Vol.4 (WZ 91 003)\02. Dobie Gray – Drift Away.wav

Pre-gap length 0:00:04.03

Peak level 98.8 %
Extraction speed 3.8 X
Track quality 99.9 %
Test CRC 38175555
Copy CRC 38175555
Accurately ripped (confidence 1) [89A91672] (AR v2)
Copy OK

Track 3

Filename Z:\OdW\Hit's of the 70's (WZ 90168)\Vol.4 (WZ 91 003)\03. The New Seekers – Never Ending Song Of Love.wav

Pre-gap length 0:00:03.22

Peak level 86.9 %
Extraction speed 4.9 X
Track quality 100.0 %
Test CRC DD637BBE
Copy CRC DD637BBE
Accurately ripped (confidence 1) [ADECD8B8] (AR v2)
Copy OK

Track 4

Filename Z:\OdW\Hit's of the 70's (WZ 90168)\Vol.4 (WZ 91 003)\04. Roger Whittaker – The Last Farewell.wav

Pre-gap length 0:00:04.38

Peak level 91.6 %
Extraction speed 5.2 X
Track quality 100.0 %
Test CRC B3810B1A
Copy CRC B3810B1A
Accurately ripped (confidence 1) [29A0A88E] (AR v2)
Copy OK

Track 5

Filename Z:\OdW\Hit's of the 70's (WZ 90168)\Vol.4 (WZ 91 003)\05. Mungo Jerry – Lady Rose.wav

Pre-gap length 0:00:04.25

Peak level 90.7 %
Extraction speed 4.3 X
Track quality 99.9 %
Test CRC F76CF4D1
Copy CRC F76CF4D1
Accurately ripped (confidence 1) [B20DE551] (AR v2)
Copy OK

Track 6

Filename Z:\OdW\Hit's of the 70's (WZ 90168)\Vol.4 (WZ 91 003)\06. Jackie Wilson – Reet Petite.wav

Pre-gap length 0:00:06.38

Peak level 75.9 %
Extraction speed 5.3 X
Track quality 100.0 %
Test CRC 1DD0E11F
Copy CRC 1DD0E11F
Accurately ripped (confidence 1) [86B8DF8A] (AR v2)
Copy OK

Track 7

Filename Z:\OdW\Hit's of the 70's (WZ 90168)\Vol.4 (WZ 91 003)\07. Silver Convertion – Fly Robin Fly.wav

Pre-gap length 0:00:03.65

Peak level 91.1 %
Extraction speed 6.5 X
Track quality 100.0 %
Test CRC 17D6DD25
Copy CRC 17D6DD25
Accurately ripped (confidence 1) [484F1489] (AR v2)
Copy OK

Track 8

Filename Z:\OdW\Hit's of the 70's (WZ 90168)\Vol.4 (WZ 91 003)\08. KC&The Sunshine Band – Pleas Don´t Go.wav

Pre-gap length 0:00:04.58

Peak level 98.8 %
Extraction speed 6.6 X
Track quality 100.0 %
Test CRC 983348C4
Copy CRC 983348C4
Accurately ripped (confidence 1) [1C1AB6B4] (AR v2)
Copy OK

Track 9

Filename Z:\OdW\Hit's of the 70's (WZ 90168)\Vol.4 (WZ 91 003)\09. Anita Ward – Ring My Bell.wav

Pre-gap length 0:00:06.33

Peak level 93.0 %
Extraction speed 6.6 X
Track quality 100.0 %
Test CRC 4DA3F3BD
Copy CRC 4DA3F3BD
Accurately ripped (confidence 1) [B855771B] (AR v2)
Copy OK

Track 10

Filename Z:\OdW\Hit's of the 70's (WZ 90168)\Vol.4 (WZ 91 003)\10. Evelyn Thomas – High Energy.wav

Pre-gap length 0:00:03.27

Peak level 98.8 %
Extraction speed 6.8 X
Track quality 100.0 %
Test CRC 62653445
Copy CRC 62653445
Accurately ripped (confidence 1) [E1C9E4C9] (AR v2)
Copy OK

Track 11

Filename Z:\OdW\Hit's of the 70's (WZ 90168)\Vol.4 (WZ 91 003)\11. John Holt – Let Your Love Flow.wav

Pre-gap length 0:00:02.10

Peak level 98.8 %
Extraction speed 7.2 X
Track quality 100.0 %
Test CRC CE32FE8E
Copy CRC CE32FE8E
Accurately ripped (confidence 1) [A08E1450] (AR v2)
Copy OK

Track 12

Filename Z:\OdW\Hit's of the 70's (WZ 90168)\Vol.4 (WZ 91 003)\12. Timmy Thomas – Why Can´t We Live Together.wav

Pre-gap length 0:00:03.67

Peak level 84.4 %
Extraction speed 7.4 X
Track quality 100.0 %
Test CRC 0F760A56
Copy CRC 0F760A56
Accurately ripped (confidence 1) [63F866D5] (AR v2)
Copy OK

Track 13

Filename Z:\OdW\Hit's of the 70's (WZ 90168)\Vol.4 (WZ 91 003)\13. Showaddywaddy – When.wav

Pre-gap length 0:00:04.20

Peak level 98.8 %
Extraction speed 6.9 X
Track quality 100.0 %
Test CRC FBE06F69
Copy CRC FBE06F69
Accurately ripped (confidence 1) [FC16EA39] (AR v2)
Copy OK

Track 14

Filename Z:\OdW\Hit's of the 70's (WZ 90168)\Vol.4 (WZ 91 003)\14. Brotherhood Of Man – Save Your Kisses For Me.wav

Pre-gap length 0:00:03.70

Peak level 89.0 %
Extraction speed 7.1 X
Track quality 100.0 %
Test CRC 82FA6CF4
Copy CRC 82FA6CF4
Accurately ripped (confidence 1) [F706545F] (AR v2)
Copy OK

Track 15

Filename Z:\OdW\Hit's of the 70's (WZ 90168)\Vol.4 (WZ 91 003)\15. Geoge Baker Selection – Little Green Bag.wav

Pre-gap length 0:00:02.72

Peak level 98.8 %
Extraction speed 7.8 X
Track quality 100.0 %
Test CRC 7EF768FA
Copy CRC 7EF768FA
Accurately ripped (confidence 1) [2B2026CA] (AR v2)
Copy OK

Track 16

Filename Z:\OdW\Hit's of the 70's (WZ 90168)\Vol.4 (WZ 91 003)\16. Gibson Brothers – Cuba.wav

Pre-gap length 0:00:03.45

Peak level 98.8 %
Extraction speed 8.0 X
Track quality 100.0 %
Test CRC BBF20C64
Copy CRC BBF20C64
Accurately ripped (confidence 1) [DC63B25D] (AR v2)
Copy OK


All tracks accurately ripped

No errors occurred

End of status report

–– CUETools DB Plugin V2.1.6

[CTDB TOCID: le0xyaXOSteJ663p7LUD1jVt9Hs-] found
Submit result: le0xyaXOSteJ663p7LUD1jVt9Hs- has been confirmed
Track | CTDB Status
1 | (6/6) Accurately ripped
2 | (6/6) Accurately ripped
3 | (6/6) Accurately ripped
4 | (6/6) Accurately ripped
5 | (6/6) Accurately ripped
6 | (6/6) Accurately ripped
7 | (6/6) Accurately ripped
8 | (6/6) Accurately ripped
9 | (6/6) Accurately ripped
10 | (6/6) Accurately ripped
11 | (6/6) Accurately ripped
12 | (6/6) Accurately ripped
13 | (6/6) Accurately ripped
14 | (6/6) Accurately ripped
15 | (6/6) Accurately ripped
16 | (6/6) Accurately ripped


==== Log checksum DF82E9552C031F51C4E69D739CDF1B9D3B59CF115FAB5CB0F4D17BC149993140 ====

[CUETools log; Date: 26.06.2020 11:56:12; Version: 2.1.4]
[CTDB TOCID: le0xyaXOSteJ663p7LUD1jVt9Hs-] found.
Track | CTDB Status
1 | (7/7) Accurately ripped
2 | (7/7) Accurately ripped
3 | (7/7) Accurately ripped
4 | (7/7) Accurately ripped
5 | (7/7) Accurately ripped
6 | (7/7) Accurately ripped
7 | (7/7) Accurately ripped
8 | (7/7) Accurately ripped
9 | (7/7) Accurately ripped
10 | (7/7) Accurately ripped
11 | (7/7) Accurately ripped
12 | (7/7) Accurately ripped
13 | (7/7) Accurately ripped
14 | (7/7) Accurately ripped
15 | (7/7) Accurately ripped
16 | (7/7) Accurately ripped
[AccurateRip ID: 00217b98-0194695a-de0d7e10] found.
Track [ CRC | V2 ] Status
01 [19aba254|5d938261] (0+2/2) Accurately ripped
02 [19bfc065|89a91672] (0+2/2) Accurately ripped
03 [86a92b63|adecd8b8] (0+2/2) Accurately ripped
04 [356a23ef|29a0a88e] (0+2/2) Accurately ripped
05 [8972582d|b20de551] (0+2/2) Accurately ripped
06 [d650488c|86b8df8a] (0+2/2) Accurately ripped
07 [b0127167|484f1489] (0+2/2) Accurately ripped
08 [35f15e0d|1c1ab6b4] (0+2/2) Accurately ripped
09 [11cf344f|b855771b] (0+2/2) Accurately ripped
10 [7a89838b|e1c9e4c9] (0+2/2) Accurately ripped
11 [132f5997|a08e1450] (0+2/2) Accurately ripped
12 [7d995b90|63f866d5] (0+2/2) Accurately ripped
13 [f1432646|fc16ea39] (0+2/2) Accurately ripped
14 [e8a0b1ce|f706545f] (0+2/2) Accurately ripped
15 [ede045c7|2b2026ca] (0+2/2) Accurately ripped
16 [f83ba555|dc63b25d] (0+2/2) Accurately ripped

Track Peak [ CRC32 ] [W/O NULL] [ LOG ]
– 98,8 [0EB64315] [99D180B3]
01 96,5 [D053EEEE] [C4F17745] CRC32
02 98,8 [38175555] [BD2BF255] CRC32
03 86,9 [DD637BBE] [1B1AC24B] CRC32
04 91,6 [B3810B1A] [3D0E545D] CRC32
05 90,7 [F76CF4D1] [28252A1F] CRC32
06 75,9 [1DD0E11F] [BDAA4782] CRC32
07 91,1 [17D6DD25] [8CC86787] CRC32
08 98,8 [983348C4] [66ED471F] CRC32
09 93,0 [4DA3F3BD] [DE450EE5] CRC32
10 98,8 [62653445] [F68D00D6] CRC32
11 98,8 [CE32FE8E] [ECD093A6] CRC32
12 84,4 [0F760A56] [F17E75DB] CRC32
13 98,8 [FBE06F69] [56086269] CRC32
14 89,0 [82FA6CF4] [88C6B8E6] CRC32
15 98,8 [7EF768FA] [3A9A64EA] CRC32
16 98,8 [BBF20C64] [D3DC92AC] CRC32

Thanks to Olaf der Weisse