Subcategories

Billie Holiday, Dinah Washington, Jimmy Scott & others - Jazz For Broken Hearts [Recorded 1950-1967] (2007)

Posted By: gribovar
Billie Holiday, Dinah Washington, Jimmy Scott & others - Jazz For Broken Hearts [Recorded 1950-1967] (2007)

Billie Holiday, Dinah Washington, Jimmy Scott & others - Jazz For Broken Hearts [Recorded 1950-1967] (2007)
EAC Rip | FLAC (image+.cue+log) - 331 MB | MP3 CBR 320 kbps (LAME 3.93) - 155 MB | Covers (4 MB) included
Genre: Vocal Jazz | RAR 3% Rec. | Label: Universal Music (06024 9847969)

The Jazz Club series is an attractive addition to the Verve catalogue. With it's modern design and popular choice of repertoire, the Jazz Club is not only opened for Jazz fans, but for everyone that loves good music.
This 18 track collection features a plethora of sad songs performed by the finest artists from the Verve catalog including Billie Holiday, Ella Fitzgerald, Peggy Lee, Chet Baker, Lionel Hampton, Mel Torme and others.
Tracklist:
01. Billie Holiday - Good Morning Heartache
02. Lorez Alexandria - I'm Through With Love
03. Mel Tormé - Gloomy Sunday
04. Ella Fitzgerald - Reaching For The Moon
05. Jimmy Scott - Everybody's Somebody's Fool
06. Peggy Lee - A Woman Alone With The Blues
07. Chet Baker - Born To Be Blue
08. Dinah Washington - Cry Me A River
09. Johnny Hartman - It Never Entered My Mind
10. Beverly Kenney - A Woman's Intuition
11. Frank D'rone - Everything Happens To Me
12. Anita O 'Day - When Sunny Gets Blue
13. Sarah Vaughan - Trouble Is A Man
14. Shirley Horn - Only The Lonely
15. Billy Eckstine - What Will I Tell My Heart
16. Blossom Dearie - Lonely Town
17. Jimmy Rushing - I Left My Baby
18. Nina Simone - Nobody Knows You When You Are Down And Out

Total time: 01:04:07

Exact Audio Copy V1.0 beta 3 from 29. August 2011

Отчёт EAC об извлечении, выполненном 31. августа 2013, 22:38

Various Artists / Jazz for Broken Hearts

Дисковод: ASUS DRW-22B2ST Adapter: 2 ID: 1

Режим чтения : Достоверность
Использование точного потока : Да
Отключение кэша аудио : Да
Использование указателей C2 : Нет

Коррекция смещения при чтении : 6
Способность читать области Lead-in и Lead-out : Нет
Заполнение пропущенных сэмплов тишиной : Да
Удаление блоков с тишиной в начале и конце : Нет
При вычислениях CRC использовались нулевые сэмплы : Да
Интерфейс : Установленный внешний ASPI-интерфейс

Выходной формат : Внутренние WAV-операции
Формат сэмплов : 44.100 Гц; 16 бит; стерео


TOC извлечённого CD

Трек | Старт | Длительность | Начальный сектор | Конечный сектор
––––––––––––––––––––––––––––––––––-
1 | 0:00.00 | 3:31.29 | 0 | 15853
2 | 3:31.29 | 5:25.54 | 15854 | 40282
3 | 8:57.08 | 5:15.04 | 40283 | 63911
4 | 14:12.12 | 2:18.23 | 63912 | 74284
5 | 16:30.35 | 3:26.06 | 74285 | 89740
6 | 19:56.41 | 3:17.45 | 89741 | 104560
7 | 23:14.11 | 4:05.64 | 104561 | 122999
8 | 27:20.00 | 2:27.16 | 123000 | 134040
9 | 29:47.16 | 3:39.09 | 134041 | 150474
10 | 33:26.25 | 3:32.29 | 150475 | 166403
11 | 36:58.54 | 3:45.45 | 166404 | 183323
12 | 40:44.24 | 3:04.47 | 183324 | 197170
13 | 43:48.71 | 3:43.71 | 197171 | 213966
14 | 47:32.67 | 3:07.26 | 213967 | 228017
15 | 50:40.18 | 2:44.66 | 228018 | 240383
16 | 53:25.09 | 3:35.44 | 240384 | 256552
17 | 57:00.53 | 4:25.60 | 256553 | 276487
18 | 61:26.38 | 2:40.06 | 276488 | 288493


Характеристики диапазона извлечения и сообщения об ошибках

Выбранный диапазон

Имя файла E:\MP3Files\МУЗ РАБОЧИЙ\EAC\MP3\Various Artists - Jazz for Broken Hearts.wav

Пиковый уровень 98.8 %
Скорость извлечения 3.3 X
Качество диапазона 100.0 %
CRC теста 5D0494EC
CRC копии 5D0494EC
Копирование… OK

Ошибок не произошло


AccurateRip: сводка

Трек 1 : извлечено точно (доверие 7) [A5B9AE07] (AR v2)
Трек 2 : извлечено точно (доверие 6) [3ED9B62B] (AR v2)
Трек 3 : извлечено точно (доверие 6) [2B07663F] (AR v2)
Трек 4 : извлечено точно (доверие 6) [0578E9B3] (AR v2)
Трек 5 : извлечено точно (доверие 6) [42F2DB39] (AR v2)
Трек 6 : извлечено точно (доверие 6) [1DDF4D28] (AR v2)
Трек 7 : извлечено точно (доверие 6) [EEC10349] (AR v2)
Трек 8 : извлечено точно (доверие 6) [E1E3BC13] (AR v2)
Трек 9 : извлечено точно (доверие 6) [6DC8BB3D] (AR v2)
Трек 10 : извлечено точно (доверие 6) [9F0FC3BA] (AR v2)
Трек 11 : извлечено точно (доверие 6) [EE0FAE6A] (AR v2)
Трек 12 : извлечено точно (доверие 6) [3A394589] (AR v2)
Трек 13 : извлечено точно (доверие 6) [294735DD] (AR v2)
Трек 14 : извлечено точно (доверие 6) [D010386F] (AR v2)
Трек 15 : извлечено точно (доверие 6) [DCB6CCD3] (AR v2)
Трек 16 : извлечено точно (доверие 6) [F526F01F] (AR v2)
Трек 17 : извлечено точно (доверие 6) [F89E7A8A] (AR v2)
Трек 18 : извлечено точно (доверие 6) [DCFFDD1F] (AR v2)

Все треки извлечены точно

Конец отчёта

==== Контрольная сумма отчёта 48742DF9A7545116DFD096BBE88194F0236BCC46CDF8299E2CCFA5DEC5E53EDC ====

[CUETools log; Date: 15.01.2020 20:20:14; Version: 2.1.4]
[CTDB TOCID: H2s_iL5fY9C35q4njWLwCoh6vSI-] found.
Track | CTDB Status
1 | (41/41) Accurately ripped
2 | (41/41) Accurately ripped
3 | (41/41) Accurately ripped
4 | (41/41) Accurately ripped
5 | (41/41) Accurately ripped
6 | (41/41) Accurately ripped
7 | (41/41) Accurately ripped
8 | (41/41) Accurately ripped
9 | (41/41) Accurately ripped
10 | (41/41) Accurately ripped
11 | (41/41) Accurately ripped
12 | (41/41) Accurately ripped
13 | (41/41) Accurately ripped
14 | (41/41) Accurately ripped
15 | (41/41) Accurately ripped
16 | (41/41) Accurately ripped
17 | (41/41) Accurately ripped
18 | (41/41) Accurately ripped
[AccurateRip ID: 002b70eb-023afca9-020f0612] found.
Track [ CRC | V2 ] Status
01 [3a0c7a51|a5b9ae07] (12+21/33) Accurately ripped
02 [68473d15|3ed9b62b] (10+20/30) Accurately ripped
03 [10cd444c|2b07663f] (12+21/33) Accurately ripped
04 [9c81ee3b|0578e9b3] (12+21/33) Accurately ripped
05 [1b6414b9|42f2db39] (12+21/33) Accurately ripped
06 [d10ba554|1ddf4d28] (12+21/33) Accurately ripped
07 [6cdc73af|eec10349] (12+21/33) Accurately ripped
08 [59918d84|e1e3bc13] (12+21/33) Accurately ripped
09 [3d177707|6dc8bb3d] (12+21/33) Accurately ripped
10 [83bc04b8|9f0fc3ba] (12+21/33) Accurately ripped
11 [30520c2b|ee0fae6a] (12+21/33) Accurately ripped
12 [dcc61ec3|3a394589] (11+21/32) Accurately ripped
13 [e89c5ecc|294735dd] (12+21/33) Accurately ripped
14 [4ac236f1|d010386f] (12+21/33) Accurately ripped
15 [0aaa3e82|dcb6ccd3] (12+21/33) Accurately ripped
16 [4d212df0|f526f01f] (12+21/33) Accurately ripped
17 [7b4f2370|f89e7a8a] (12+21/33) Accurately ripped
18 [adff0ec8|dcffdd1f] (12+21/33) Accurately ripped

Track Peak [ CRC32 ] [W/O NULL] [ LOG ]
– 98,8 [5D0494EC] [89E3558E] CRC32
01 98,8 [60FF7C95] [718467E4]
02 98,8 [498F9CB4] [F047B62A]
03 98,7 [7DED3808] [F888CB53]
04 97,8 [7E5D127D] [C4B348A1]
05 98,8 [945D1FDE] [9E3AC7C7]
06 83,4 [DCF626B5] [41564141]
07 98,8 [EA9AD7B2] [13D9131B]
08 66,3 [EBBE9CAD] [67F97C31]
09 97,9 [02B8651E] [9302428E]
10 94,6 [7F3276A4] [64DEFC89]
11 98,8 [3E0B15DD] [C74E8226]
12 70,9 [530BD264] [BB7EE0C8]
13 98,8 [997BEAA5] [FB28C0F4]
14 65,4 [9C375462] [7240A3F1]
15 98,8 [BE4318D5] [99525198]
16 97,9 [05A17DD0] [3A75B090]
17 92,2 [FE2CB60A] [D8328E7C]
18 97,3 [E61DAB50] [08978D7A]

Thanks to the original releaser