Subcategories

VA - Jazz In Texas 1924-1930 (1997)

Posted By: jclane
VA - Jazz In Texas 1924-1930 (1997)

VA - Jazz In Texas 1924-1930 (1997)
EAC Rip | FLAC Tracks + Cue + Log | Complete Scans included | 304 MB
MP3 CBR @320 kbps (LAME 3.99) | Joint Stereo | 176 MB
Timeless Records | CBC 1-033 | Jazz, Dixieland

Although one thinks of New York, Chicago, and possibly Kansas City and Los Angeles as major jazz centers in the 1920s, jazz was actually everywhere once records started becoming well-distributed. The 24 selections on this excellent CD were recorded in Dallas, Houston, or San Antonio, TX. Featured are a variety of top territory bands: Jimmy Joy's St. Anthony's Hotel Orchestra, Lloyd Finlay, Fatty Martin, Irene Taylor, Randolph McCurtain's College Ramblers, Troy Floyd's Plaza Hotel Orchestra, Leroy's Dallas Band, and Fred Gardner's Texas University Troubadours. Nearly all of the sidemen are quite obscure, but Troy Floyd's band has solos by trumpeter Don Albert and (on the two-part "Dreamland Blues") future Count Basie tenor saxophonist Herschel Evans. Little-known but valuable and enjoyable vintage music.

Track Listing:

01. Milenberg Joys (Jimmy Joy's St. Anthony's Hotel Orchestra) - 2:58
02. Clarinet Marmalade (Blues) (Jimmy Joy's St. Anthony's Hotel Orchestra) - 2:55
03. Mama Will Be Gone (Jimmy Joy's St. Anthony's Hotel Orchestra) - 3:19
04. You'll Want Me Back Some Day (Lloyd Finlay And His Orchestra) - 2:59
05. Mysterious Blues (Castle House Rag) (Lloyd Finlay And His Orchestra) - 3:00
06. Fiddlin' Blues (Fido Blues) (Lloyd Finlay And His Orchestra) - 2:42
07. Mamma (Won't Ou Come & Ma-Ma Me) (Lloyd Finlay And His Orchestra) - 2:59
08. Jes Harp Blues (Lloyd Finlay And His Orchestra) - 2:53
09. Ride'Em Cowboy (Lloyd Finlay And His Orchestra) - 2:54
10. End O' Main (Fatty Martin's Orchestra) - 2:49
11. Jimtown Blues (Fatty Martin's Orchestra) - 2:37
12. I Ain't Thinkin' 'Bout You (Irene Taylor) - 2:54
13. Sweet Girl Mary (Randolph McCurtain's College Ramblers) - 2:52
14. Shadowland Blues Part 1 (Troy Floyd And His Plaza Hotel Orchestra) - 3:07
15. Shadowland Blues Part 2 (Troy Floyd And His Plaza Hotel Orchestra) - 3:09
16. Wabash Blues (Troy Floyd And His Plaza Hotel Orchestra) - 3:14
17. Dreamland Blues Part 1 (Troy Floyd And His Plaza Hotel Orchestra) - 3:06
18. Dreamland Blues Part 2 (Troy Floyd And His Plaza Hotel Orchestra) - 3:25
19. Tampa Shout (Leroy's Dallas Band) - 2:46
20. Going Away Blues (Leroy's Dallas Band) - 3:12
21. Loveless Love (Fred Gardner's Texas University Troubadours) - 3:02
22. Papa's Gone (Fred Gardner's Texas University Troubadours) - 3:01
23. No Trumps (Fred Gardner's Texas University Troubadours) - 3:16
24. Daniel's Blues (Fred Gardner's Texas University Troubadours) - 3:27


Exact Audio Copy V0.99 prebeta 5 from 4. May 2009

EAC extraction logfile from 22. April 2010, 16:13

Various / Jazz In Texas 1924-1930

Used drive : Optiarc DVD RW AD-7590A Adapter: 3 ID: 0

Read mode : Secure
Utilize accurate stream : Yes
Defeat audio cache : Yes
Make use of C2 pointers : No

Read offset correction : 48
Overread into Lead-In and Lead-Out : No
Fill up missing offset samples with silence : Yes
Delete leading and trailing silent blocks : No
Null samples used in CRC calculations : Yes
Used interface : Native Win32 interface for Win NT & 2000
Gap handling : Appended to previous track

Used output format : User Defined Encoder
Selected bitrate : 192 kBit/s
Quality : High
Add ID3 tag : No
Command line compressor : C:\Program Files\Exact Audio Copy\Flac\flac.exe
Additional command line options : -8 -V -T "ARTIST=%a" -T "TITLE=%t" -T "ALBUM=%g" -T "DATE=%y" -T "TRACKNUMBER=%n" -T "TOTALTRACKS=%x" -T "GENRE=%m" -T "ALBUM ARTIST=%v" -T "ALBUMARTIST=%v" -T "COMMENT=EAC V0.95 beta 4, Secure Mode, Test & Copy, AccurateRi

TOC of the extracted CD

Track | Start | Length | Start sector | End sector
––––––––––––––––––––––––––––-
1 | 0:00.00 | 2:57.42 | 0 | 13316
2 | 2:57.42 | 2:55.08 | 13317 | 26449
3 | 5:52.50 | 3:18.42 | 26450 | 41341
4 | 9:11.17 | 2:58.43 | 41342 | 54734
5 | 12:09.60 | 2:59.40 | 54735 | 68199
6 | 15:09.25 | 2:42.12 | 68200 | 80361
7 | 17:51.37 | 2:58.48 | 80362 | 93759
8 | 20:50.10 | 2:53.37 | 93760 | 106771
9 | 23:43.47 | 2:54.35 | 106772 | 119856
10 | 26:38.07 | 2:48.73 | 119857 | 132529
11 | 29:27.05 | 2:37.27 | 132530 | 144331
12 | 32:04.32 | 2:53.63 | 144332 | 157369
13 | 34:58.20 | 2:51.72 | 157370 | 170266
14 | 37:50.17 | 3:07.35 | 170267 | 184326
15 | 40:57.52 | 3:08.55 | 184327 | 198481
16 | 44:06.32 | 3:13.63 | 198482 | 213019
17 | 47:20.20 | 3:06.10 | 213020 | 226979
18 | 50:26.30 | 3:24.72 | 226980 | 242351
19 | 53:51.27 | 2:45.50 | 242352 | 254776
20 | 56:37.02 | 3:12.05 | 254777 | 269181
21 | 59:49.07 | 3:02.28 | 269182 | 282859
22 | 62:51.35 | 3:00.57 | 282860 | 296416
23 | 65:52.17 | 3:16.05 | 296417 | 311121
24 | 69:08.22 | 3:26.63 | 311122 | 326634

Track 1

Filename C:\WK\Jazz In Texas 1924-1930\01 - Jimmy Joy's St. Anthony's Hotel Orchestra - Milenberg Joys.wav

Pre-gap length 0:00:02.00

Peak level 99.9 %
Track quality 100.0 %
Test CRC 4AA27480
Copy CRC 4AA27480
Track not present in AccurateRip database
Copy OK

Track 2

Filename C:\WK\Jazz In Texas 1924-1930\02 - Jimmy Joy's St. Anthony's Hotel Orchestra - Clarinet Marmalade (Blues).wav

Pre-gap length 0:00:02.20

Peak level 99.9 %
Track quality 100.0 %
Test CRC 62168CDE
Copy CRC 62168CDE
Track not present in AccurateRip database
Copy OK

Track 3

Filename C:\WK\Jazz In Texas 1924-1930\03 - Jimmy Joy's St. Anthony's Hotel Orchestra - Mama Will Be Gone.wav

Pre-gap length 0:00:02.20

Peak level 99.9 %
Track quality 99.9 %
Test CRC 39A3F0D4
Copy CRC 39A3F0D4
Track not present in AccurateRip database
Copy OK

Track 4

Filename C:\WK\Jazz In Texas 1924-1930\04 - Lloyd Finlay And His Orchestra - You'll Want Me Back Some Day.wav

Pre-gap length 0:00:02.20

Peak level 100.0 %
Track quality 100.0 %
Test CRC 5CBFC69D
Copy CRC 5CBFC69D
Track not present in AccurateRip database
Copy OK

Track 5

Filename C:\WK\Jazz In Texas 1924-1930\05 - Lloyd Finlay And His Orchestra - Mysterious Blues (Castle House Rag).wav

Pre-gap length 0:00:02.17

Peak level 100.0 %
Track quality 100.0 %
Test CRC C6AA9D83
Copy CRC C6AA9D83
Track not present in AccurateRip database
Copy OK

Track 6

Filename C:\WK\Jazz In Texas 1924-1930\06 - Lloyd Finlay And His Orchestra - Fiddlin' Blues (Fido Blues).wav

Pre-gap length 0:00:02.10

Peak level 100.0 %
Track quality 100.0 %
Test CRC 246FD41E
Copy CRC 246FD41E
Track not present in AccurateRip database
Copy OK

Track 7

Filename C:\WK\Jazz In Texas 1924-1930\07 - Lloyd Finlay And His Orchestra - Mamma (Won't Ou Come & Ma-Ma Me).wav

Pre-gap length 0:00:02.09

Peak level 99.9 %
Track quality 99.9 %
Test CRC 42D854C2
Copy CRC 42D854C2
Track not present in AccurateRip database
Copy OK

Track 8

Filename C:\WK\Jazz In Texas 1924-1930\08 - Lloyd Finlay And His Orchestra - Jes Harp Blues.wav

Pre-gap length 0:00:02.24

Peak level 99.9 %
Track quality 100.0 %
Test CRC 9D6181BC
Copy CRC 9D6181BC
Track not present in AccurateRip database
Copy OK

Track 9

Filename C:\WK\Jazz In Texas 1924-1930\09 - Lloyd Finlay And His Orchestra - Ride'Em Cowboy.wav

Pre-gap length 0:00:02.13

Peak level 99.9 %
Track quality 100.0 %
Test CRC 9C108167
Copy CRC 9C108167
Track not present in AccurateRip database
Copy OK

Track 10

Filename C:\WK\Jazz In Texas 1924-1930\10 - Fatty Martin's Orchestra - End O' Main.wav

Pre-gap length 0:00:02.16

Peak level 99.9 %
Track quality 100.0 %
Test CRC EFAC3888
Copy CRC EFAC3888
Track not present in AccurateRip database
Copy OK

Track 11

Filename C:\WK\Jazz In Texas 1924-1930\11 - Fatty Martin's Orchestra - Jimtown Blues.wav

Pre-gap length 0:00:02.13

Peak level 99.9 %
Track quality 100.0 %
Test CRC 8352D9D2
Copy CRC 8352D9D2
Track not present in AccurateRip database
Copy OK

Track 12

Filename C:\WK\Jazz In Texas 1924-1930\12 - Irene Taylor - I Ain't Thinkin' 'Bout You.wav

Pre-gap length 0:00:02.09

Peak level 99.9 %
Track quality 100.0 %
Test CRC DBD4A0B7
Copy CRC DBD4A0B7
Track not present in AccurateRip database
Copy OK

Track 13

Filename C:\WK\Jazz In Texas 1924-1930\13 - Randolph McCurtain's College Ramblers - Sweet Girl Mary.wav

Pre-gap length 0:00:02.10

Peak level 99.9 %
Track quality 100.0 %
Test CRC 66A4AF00
Copy CRC 66A4AF00
Track not present in AccurateRip database
Copy OK

Track 14

Filename C:\WK\Jazz In Texas 1924-1930\14 - Troy Floyd And His Plaza Hotel Orchestra - Shadowland Blues Part 1.wav

Pre-gap length 0:00:02.13

Peak level 99.9 %
Track quality 100.0 %
Test CRC B2FA507B
Copy CRC B2FA507B
Track not present in AccurateRip database
Copy OK

Track 15

Filename C:\WK\Jazz In Texas 1924-1930\15 - Troy Floyd And His Plaza Hotel Orchestra - Shadowland Blues Part 2.wav

Pre-gap length 0:00:02.13

Peak level 99.9 %
Track quality 100.0 %
Test CRC AAB43880
Copy CRC AAB43880
Track not present in AccurateRip database
Copy OK

Track 16

Filename C:\WK\Jazz In Texas 1924-1930\16 - Troy Floyd And His Plaza Hotel Orchestra - Wabash Blues.wav

Pre-gap length 0:00:01.86

Peak level 99.9 %
Track quality 100.0 %
Test CRC 0FC8E2E6
Copy CRC 0FC8E2E6
Track not present in AccurateRip database
Copy OK

Track 17

Filename C:\WK\Jazz In Texas 1924-1930\17 - Troy Floyd And His Plaza Hotel Orchestra - Dreamland Blues Part 1.wav

Pre-gap length 0:00:02.06

Peak level 99.9 %
Track quality 100.0 %
Test CRC 4516A591
Copy CRC 4516A591
Track not present in AccurateRip database
Copy OK

Track 18

Filename C:\WK\Jazz In Texas 1924-1930\18 - Troy Floyd And His Plaza Hotel Orchestra - Dreamland Blues Part 2.wav

Pre-gap length 0:00:02.17

Peak level 100.0 %
Track quality 100.0 %
Test CRC F2DAE2B7
Copy CRC F2DAE2B7
Track not present in AccurateRip database
Copy OK

Track 19

Filename C:\WK\Jazz In Texas 1924-1930\19 - Leroy's Dallas Band - Tampa Shout.wav

Pre-gap length 0:00:02.16

Peak level 100.0 %
Track quality 100.0 %
Test CRC EAFDBEDC
Copy CRC EAFDBEDC
Track not present in AccurateRip database
Copy OK

Track 20

Filename C:\WK\Jazz In Texas 1924-1930\20 - Leroy's Dallas Band - Going Away Blues.wav

Pre-gap length 0:00:02.13

Peak level 99.9 %
Track quality 100.0 %
Test CRC 0E8E0372
Copy CRC 0E8E0372
Track not present in AccurateRip database
Copy OK

Track 21

Filename C:\WK\Jazz In Texas 1924-1930\21 - Fred Gardner's Texas University Troubadours - Loveless Love.wav

Pre-gap length 0:00:02.29

Peak level 99.9 %
Track quality 100.0 %
Test CRC EB45CBC9
Copy CRC EB45CBC9
Track not present in AccurateRip database
Copy OK

Track 22

Filename C:\WK\Jazz In Texas 1924-1930\22 - Fred Gardner's Texas University Troubadours - Papa's Gone.wav

Pre-gap length 0:00:02.30

Peak level 99.9 %
Track quality 100.0 %
Test CRC D6ABC4E1
Copy CRC D6ABC4E1
Track not present in AccurateRip database
Copy OK

Track 23

Filename C:\WK\Jazz In Texas 1924-1930\23 - Fred Gardner's Texas University Troubadours - No Trumps.wav

Pre-gap length 0:00:02.36

Peak level 99.9 %
Track quality 100.0 %
Test CRC 02A7B074
Copy CRC 02A7B074
Track not present in AccurateRip database
Copy OK

Track 24

Filename C:\WK\Jazz In Texas 1924-1930\24 - Fred Gardner's Texas University Troubadours - Daniel's Blues.wav

Pre-gap length 0:00:02.13

Peak level 99.9 %
Track quality 100.0 %
Test CRC 689751A6
Copy CRC 689751A6
Track not present in AccurateRip database
Copy OK

None of the tracks are present in the AccurateRip database

No errors occurred

End of status report


[CUETools log; Date: 29/01/2013 12:31:40; Version: 2.1.4]
[AccurateRip ID: 003d4558-0427d683-51110318] found.
Track [ CRC | V2 ] Status
01 [c5ed52b3|a1593b9d] (1+0/1) Accurately ripped
02 [0a8ed310|bc09f02a] (1+0/1) Accurately ripped
03 [2ebff476|7f4aaf33] (1+0/1) Accurately ripped
04 [cc791881|b668811f] (1+0/1) Accurately ripped
05 [0f6f6184|90eb46e4] (1+0/1) Accurately ripped
06 [8ae0ea40|491846c2] (1+0/1) Accurately ripped
07 [dd0e19ff|246e70ae] (1+0/1) Accurately ripped
08 [a8cacf62|fef62b4c] (1+0/1) Accurately ripped
09 [f571986c|ac7f823d] (1+0/1) Accurately ripped
10 [ce0131ed|4ea364b7] (1+0/1) Accurately ripped
11 [86349335|14bb2906] (1+0/1) Accurately ripped
12 [d6ac8d46|da0e908d] (1+0/1) Accurately ripped
13 [235d37f8|f3582c03] (1+0/1) Accurately ripped
14 [636a9c00|dffee15d] (1+0/1) Accurately ripped
15 [4b89dfc4|0aec9799] (1+0/1) Accurately ripped
16 [61ea50a9|e4e1208e] (1+0/1) Accurately ripped
17 [3e1edbfe|350b970f] (1+0/1) Accurately ripped
18 [10c3934f|61b33097] (1+0/1) Accurately ripped
19 [ee156d2f|cd9b71c1] (1+0/1) Accurately ripped
20 [c8682af8|62b6e187] (1+0/1) Accurately ripped
21 [86bc47fd|d2806ff4] (1+0/1) Accurately ripped
22 [b3aef0cf|80bbe5ce] (1+0/1) Accurately ripped
23 [7e99300a|70fc1f9d] (1+0/1) Accurately ripped
24 [35af16c0|4859abfd] (1+0/1) Accurately ripped

Track Peak [ CRC32 ] [W/O NULL] [ LOG ]
– 99,9 [9F6C32A8] [59414770]
01 99,9 [4AA27480] [FD9167CD] CRC32
02 99,9 [62168CDE] [53109E77] CRC32
03 99,9 [39A3F0D4] [08494993] CRC32
04 99,9 [5CBFC69D] [7551322E] CRC32
05 99,9 [C6AA9D83] [49EB467B] CRC32
06 99,9 [246FD41E] [E58828EB] CRC32
07 99,9 [42D854C2] [FC01057C] CRC32
08 99,9 [9D6181BC] [98002891] CRC32
09 99,9 [9C108167] [1F3D3DA8] CRC32
10 99,9 [EFAC3888] [F51AFF3A] CRC32
11 99,9 [8352D9D2] [735E626A] CRC32
12 99,9 [DBD4A0B7] [5863B6E9] CRC32
13 99,9 [66A4AF00] [F92843AA] CRC32
14 99,9 [B2FA507B] [0DBC4941] CRC32
15 99,9 [AAB43880] [981C4E25] CRC32
16 99,9 [0FC8E2E6] [2A05F20D] CRC32
17 99,9 [4516A591] [B465CDD4] CRC32
18 99,9 [F2DAE2B7] [8CD5C29C] CRC32
19 99,9 [EAFDBEDC] [F587169E] CRC32
20 99,9 [0E8E0372] [0B8718CA] CRC32
21 99,9 [EB45CBC9] [076D69EC] CRC32
22 99,9 [D6ABC4E1] [153B611C] CRC32
23 99,9 [02A7B074] [4696B1FE] CRC32
24 99,9 [689751A6] [D32326A8] CRC32


Released Date: 1997
Format: CD, Compilation
Length: 64:30

VA - Jazz In Texas 1924-1930 (1997)
VA - Jazz In Texas 1924-1930 (1997)

******************************************************

Thanks to knttk & papa1954

The files are interchangeable!