Subcategories

V.A. - Jazz & Cinema Vol. 3 [Recorded 1959-1961] (2001) (Repost)

Posted By: gribovar
V.A. - Jazz & Cinema Vol. 3 [Recorded 1959-1961] (2001) (Repost)

V.A. - Jazz & Cinema Vol. 3 [Recorded 1959-1961] (2001)
EAC Rip | FLAC (tracks+.cue+log) - 208 MB | MP3 CBR 320 kbps (LAME 3.93) - 92 MB | Covers - 28 MB
Genre: Jazz | RAR 3% Rec. | Label: Universal Music (548 793-2)

The Jazz in Paris: Jazz and Cinema series of Verve CD reissues examines jazz recorded for French film soundtracks in the late '50s and early '60s. This third compilation is the least successful of the first three, as few of the tracks stand on their own merit away from the movies they accompanied. Written for the film Les Loups Dans la Bergerie, the compositions of Serge Gainsbourg might be labeled cool, though they are rarely given time to develop and feature no major soloists in Alan Gouraguer's arrangements. Less successful are Andre Hodeir's somewhat boppish charts for Les Tripe au Soleil, which have extremely distracting scat vocals by Christiane Legrand that frequently seem off-key. The best of the lot is a remake of four songs composed by Freddie Redd for The Connection, which began life as a play. The potent trumpet of Sonny Grey and sassy trombone of Luis Miguel Fuentes constitute the centerpiece of each selection. This session also marked the recording debut of drummer Daniel Humair as a leader, who recruited René Urtreger to write the arrangements. It is these four tracks that make this anthology worth acquiring.
Tracklist:

Serge Gainsbourg & Alain Goraguer
01. Générique
02. Fuite Du Rouquin
03. Les Loups Dans La Bergerie
04. Cha Cha Cha Du Loup
05. Les Loups Dans La Bergerie (fin)

André Hodeir
06. Rhythm And Blues n° 1
07. Spiritual
08. Danse
09. Le Désert
10. Blues

Daniel Humair Soultet
11. Theme For Sister Salvation
12. Overdose
13. Wigglin'
14. Music Forever
15. One Mint Julep

Total time: 39:09

Exact Audio Copy V1.0 beta 3 from 29. August 2011

EAC extraction logfile from 22. January 2013, 16:29

Various Artists / Jazz & Cinema, Vol.3

Used drive : hp BD RW BD-5750H Adapter: 0 ID: 1

Read mode : Secure
Utilize accurate stream : Yes
Defeat audio cache : Yes
Make use of C2 pointers : No

Read offset correction : 48
Overread into Lead-In and Lead-Out : No
Fill up missing offset samples with silence : Yes
Delete leading and trailing silent blocks : No
Null samples used in CRC calculations : Yes
Used interface : Native Win32 interface for Win NT & 2000
Gap handling : Appended to previous track

Used output format : User Defined Encoder
Selected bitrate : 128 kBit/s
Quality : High
Add ID3 tag : No
Command line compressor : C:\Program Files (x86)\Audio\Exact Audio Copy\Flac\flac.exe
Additional command line options : -8 -V -T "ARTIST=%artist%" -T "TITLE=%title%" -T "ALBUM=%albumtitle%" -T "DATE=%year%" -T "TRACKNUMBER=%tracknr%" -T "TOTALTRACKS=%numtracks%" -T "GENRE=%genre%" -T "ALBUMARTIST=%albumartist%" -T "ALBUM ARTIST=%albumartist%" -T "COMMENT=EAC Secure Mode, Test & Copy, AccurateRip, FLAC -8" %source%


TOC of the extracted CD

Track | Start | Length | Start sector | End sector
––––––––––––––––––––––––––––-
1 | 0:00.00 | 1:27.60 | 0 | 6584
2 | 1:27.60 | 1:07.36 | 6585 | 11645
3 | 2:35.21 | 2:46.03 | 11646 | 24098
4 | 5:21.24 | 1:34.17 | 24099 | 31165
5 | 6:55.41 | 3:31.05 | 31166 | 46995
6 | 10:26.46 | 2:08.38 | 46996 | 56633
7 | 12:35.09 | 1:25.41 | 56634 | 63049
8 | 14:00.50 | 2:33.11 | 63050 | 74535
9 | 16:33.61 | 2:13.38 | 74536 | 84548
10 | 18:47.24 | 3:54.18 | 84549 | 102116
11 | 22:41.42 | 2:55.56 | 102117 | 115297
12 | 25:37.23 | 3:43.60 | 115298 | 132082
13 | 29:21.08 | 3:36.68 | 132083 | 148350
14 | 32:58.01 | 2:33.00 | 148351 | 159825
15 | 35:31.01 | 3:37.64 | 159826 | 176164


Track 1

Filename C:\AUDIO\Various Artists - Jazz & Cinema Vol.3 (1959-61) [FLAC] {Gitanes 548 793-2}\01 - Alain Goraguer - Les loups dans la bergerie - Generique.wav

Pre-gap length 0:00:02.00

Peak level 88.1 %
Extraction speed 8.9 X
Track quality 100.0 %
Test CRC 392D95DB
Copy CRC 392D95DB
Accurately ripped (confidence 3) [7E4C4182] (AR v1)
Copy OK

Track 2

Filename C:\AUDIO\Various Artists - Jazz & Cinema Vol.3 (1959-61) [FLAC] {Gitanes 548 793-2}\02 - Alain Goraguer - Les loups dans la bergerie - Fuite du rouquin.wav

Pre-gap length 0:00:01.45

Peak level 78.1 %
Extraction speed 8.8 X
Track quality 100.0 %
Test CRC CBF494C1
Copy CRC CBF494C1
Accurately ripped (confidence 3) [3253C075] (AR v1)
Copy OK

Track 3

Filename C:\AUDIO\Various Artists - Jazz & Cinema Vol.3 (1959-61) [FLAC] {Gitanes 548 793-2}\03 - Alain Goraguer - Les loups dans la bergerie - Les loups dans la bergerie.wav

Pre-gap length 0:00:01.45

Peak level 80.0 %
Extraction speed 10.3 X
Track quality 100.0 %
Test CRC 0ACD4631
Copy CRC 0ACD4631
Accurately ripped (confidence 3) [7EB9E8F3] (AR v1)
Copy OK

Track 4

Filename C:\AUDIO\Various Artists - Jazz & Cinema Vol.3 (1959-61) [FLAC] {Gitanes 548 793-2}\04 - Alain Goraguer - Les loups dans la bergerie - Cha cha cha du loup.wav

Pre-gap length 0:00:01.45

Peak level 90.0 %
Extraction speed 10.1 X
Track quality 100.0 %
Test CRC 0EC5E096
Copy CRC 0EC5E096
Accurately ripped (confidence 3) [3FF4EA9A] (AR v1)
Copy OK

Track 5

Filename C:\AUDIO\Various Artists - Jazz & Cinema Vol.3 (1959-61) [FLAC] {Gitanes 548 793-2}\05 - Alain Goraguer - Les loups dans la bergerie - Les loups dans la bergerie (fin).wav

Pre-gap length 0:00:01.45

Peak level 78.5 %
Extraction speed 11.6 X
Track quality 100.0 %
Test CRC 30F5D28C
Copy CRC 30F5D28C
Accurately ripped (confidence 3) [9494DF02] (AR v1)
Copy OK

Track 6

Filename C:\AUDIO\Various Artists - Jazz & Cinema Vol.3 (1959-61) [FLAC] {Gitanes 548 793-2}\06 - Andre Hodeir - Les tripes au soleil - Rhythm and Blues no.1.wav

Pre-gap length 0:00:04.45

Peak level 89.0 %
Extraction speed 11.6 X
Track quality 100.0 %
Test CRC B853E1C1
Copy CRC B853E1C1
Accurately ripped (confidence 3) [C1487420] (AR v1)
Copy OK

Track 7

Filename C:\AUDIO\Various Artists - Jazz & Cinema Vol.3 (1959-61) [FLAC] {Gitanes 548 793-2}\07 - Andre Hodeir - Les tripes au soleil - Spiritual.wav

Pre-gap length 0:00:01.45

Peak level 49.9 %
Extraction speed 11.3 X
Track quality 100.0 %
Test CRC 77491546
Copy CRC 77491546
Accurately ripped (confidence 3) [E03CAC10] (AR v1)
Copy OK

Track 8

Filename C:\AUDIO\Various Artists - Jazz & Cinema Vol.3 (1959-61) [FLAC] {Gitanes 548 793-2}\08 - Andre Hodeir - Les tripes au soleil - Danse.wav

Pre-gap length 0:00:01.45

Peak level 82.4 %
Extraction speed 12.5 X
Track quality 100.0 %
Test CRC C32EA982
Copy CRC C32EA982
Accurately ripped (confidence 3) [876174B0] (AR v1)
Copy OK

Track 9

Filename C:\AUDIO\Various Artists - Jazz & Cinema Vol.3 (1959-61) [FLAC] {Gitanes 548 793-2}\09 - Andre Hodeir - Les tripes au soleil - Le desert.wav

Pre-gap length 0:00:01.45

Peak level 89.5 %
Extraction speed 12.9 X
Track quality 100.0 %
Test CRC D94053E0
Copy CRC D94053E0
Accurately ripped (confidence 3) [3B54AFFA] (AR v1)
Copy OK

Track 10

Filename C:\AUDIO\Various Artists - Jazz & Cinema Vol.3 (1959-61) [FLAC] {Gitanes 548 793-2}\10 - Andre Hodeir - Les tripes au soleil - Blues.wav

Pre-gap length 0:00:01.45

Peak level 93.0 %
Extraction speed 14.0 X
Track quality 100.0 %
Test CRC 9E0A35F2
Copy CRC 9E0A35F2
Accurately ripped (confidence 3) [7A052C2A] (AR v1)
Copy OK

Track 11

Filename C:\AUDIO\Various Artists - Jazz & Cinema Vol.3 (1959-61) [FLAC] {Gitanes 548 793-2}\11 - Daniel Humair Soultet - The connection - Theme for Sister Salvation.wav

Pre-gap length 0:00:04.45

Peak level 65.2 %
Extraction speed 14.2 X
Track quality 100.0 %
Test CRC 57073F85
Copy CRC 57073F85
Accurately ripped (confidence 3) [AA824AEC] (AR v1)
Copy OK

Track 12

Filename C:\AUDIO\Various Artists - Jazz & Cinema Vol.3 (1959-61) [FLAC] {Gitanes 548 793-2}\12 - Daniel Humair Soultet - The connection - Overdose.wav

Pre-gap length 0:00:01.45

Peak level 76.5 %
Extraction speed 15.1 X
Track quality 100.0 %
Test CRC B6A8241D
Copy CRC B6A8241D
Accurately ripped (confidence 3) [6C40E631] (AR v1)
Copy OK

Track 13

Filename C:\AUDIO\Various Artists - Jazz & Cinema Vol.3 (1959-61) [FLAC] {Gitanes 548 793-2}\13 - Daniel Humair Soultet - The connection - Wigglin'.wav

Pre-gap length 0:00:01.45

Peak level 76.0 %
Extraction speed 15.5 X
Track quality 100.0 %
Test CRC DCC12357
Copy CRC DCC12357
Accurately ripped (confidence 3) [851E68F6] (AR v1)
Copy OK

Track 14

Filename C:\AUDIO\Various Artists - Jazz & Cinema Vol.3 (1959-61) [FLAC] {Gitanes 548 793-2}\14 - Daniel Humair Soultet - The connection - Music Forever.wav

Pre-gap length 0:00:01.45

Peak level 78.8 %
Extraction speed 15.4 X
Track quality 100.0 %
Test CRC E2E66206
Copy CRC E2E66206
Accurately ripped (confidence 3) [53670D76] (AR v1)
Copy OK

Track 15

Filename C:\AUDIO\Various Artists - Jazz & Cinema Vol.3 (1959-61) [FLAC] {Gitanes 548 793-2}\15 - Daniel Humair Soultet - The connection - One Mint Julep.wav

Pre-gap length 0:00:01.45

Peak level 76.0 %
Extraction speed 16.6 X
Track quality 100.0 %
Test CRC CD8AA144
Copy CRC CD8AA144
Accurately ripped (confidence 3) [C8588735] (AR v1)
Copy OK


All tracks accurately ripped

No errors occurred

End of status report

==== Log checksum 328AEB4CC9C63ADDE69EEEDF3CA081BFC4309019707AB4BF8AF32B7E3B7CD3CF ====

[CUETools log; Date: 23.05.2018 14:51:52; Version: 2.1.4]
[CTDB TOCID: UgD_B5a7ejdI7vqZDJRZnZdERVo-] found.
Track | CTDB Status
1 | (17/20) Accurately ripped
2 | (20/20) Accurately ripped
3 | (20/20) Accurately ripped
4 | (20/20) Accurately ripped
5 | (20/20) Accurately ripped
6 | (20/20) Accurately ripped
7 | (17/20) Accurately ripped
8 | (20/20) Accurately ripped
9 | (20/20) Accurately ripped
10 | (20/20) Accurately ripped
11 | (20/20) Accurately ripped
12 | (20/20) Accurately ripped
13 | (20/20) Accurately ripped
14 | (20/20) Accurately ripped
15 | (20/20) Accurately ripped
[AccurateRip ID: 0012d0cd-00dd807d-d4092c0f] found.
Track [ CRC | V2 ] Status
01 [7e4c4182|30e760e8] (03+03/16) Accurately ripped
02 [3253c075|fc3ec6c4] (03+03/16) Accurately ripped
03 [7eb9e8f3|023bfafa] (03+03/16) Accurately ripped
04 [3ff4ea9a|bda0708f] (03+03/16) Accurately ripped
05 [9494df02|72aff61d] (03+03/16) Accurately ripped
06 [c1487420|d9130de5] (03+03/15) Accurately ripped
07 [e03cac10|1b88fbd2] (03+03/16) Accurately ripped
08 [876174b0|ff0d90e2] (03+03/16) Accurately ripped
09 [3b54affa|5815625e] (03+03/15) Accurately ripped
10 [7a052c2a|6183cfb9] (03+03/16) Accurately ripped
11 [aa824aec|8f25e5c9] (03+03/16) Accurately ripped
12 [6c40e631|71776edf] (03+03/16) Accurately ripped
13 [851e68f6|378bb5fe] (03+03/16) Accurately ripped
14 [53670d76|cb718171] (03+03/16) Accurately ripped
15 [c8588735|2c5b0c7a] (03+03/16) Accurately ripped
Offsetted by 664:
01 [145d24f2] (05/16) Accurately ripped
02 [493dae55] (05/16) Accurately ripped
03 [ff61e933] (05/16) Accurately ripped
04 [22299ada] (05/16) Accurately ripped
05 [1a8f8dc2] (05/16) Accurately ripped
06 [21deb280] (05/15) Accurately ripped
07 [460dfa38] (05/16) Accurately ripped
08 [6032ad90] (05/16) Accurately ripped
09 [5c504842] (05/15) Accurately ripped
10 [7eb9dd3a] (05/16) Accurately ripped
11 [73d9a5ec] (05/16) Accurately ripped
12 [a96bdcc9] (05/16) Accurately ripped
13 [400e74de] (05/16) Accurately ripped
14 [6d139106] (05/16) Accurately ripped
15 [05defc3d] (05/16) Accurately ripped

Track Peak [ CRC32 ] [W/O NULL] [ LOG ]
– 93,0 [159147B8] [A70DFD54]
01 88,1 [392D95DB] [61692DAE] CRC32
02 78,1 [CBF494C1] [467CCF7F] CRC32
03 80,0 [0ACD4631] [88112AF6] CRC32
04 90,0 [0EC5E096] [00786F93] CRC32
05 78,5 [30F5D28C] [5A232D83] CRC32
06 89,0 [B853E1C1] [B87B5E0B] CRC32
07 49,9 [77491546] [8680FA19] CRC32
08 82,4 [C32EA982] [F4D4A39A] CRC32
09 89,5 [D94053E0] [8D7B60F5] CRC32
10 93,0 [9E0A35F2] [3C47D8D0] CRC32
11 65,2 [57073F85] [1492ED34] CRC32
12 76,5 [B6A8241D] [BC79AAA0] CRC32
13 76,0 [DCC12357] [9DA3DEA4] CRC32
14 78,8 [E2E66206] [AC06ACB2] CRC32
15 76,0 [CD8AA144] [C9DF31EE] CRC32

Thanks to the original releaser

See also:
V.A. - Jazz & Cinéma Vol. 1 [Recorded 1959] (2000)
V.A. - Jazz & Cinéma Vol. 2 [Recorded 1958-1961] (2000)