Tags
Language
Tags
November 2022
Su Mo Tu We Th Fr Sa
30 31 1 2 3 4 5
6 7 8 9 10 11 12
13 14 15 16 17 18 19
20 21 22 23 24 25 26
27 28 29 30 1 2 3

V.A. - Kalevala: A Finnish Progressive Rock Epic [3CD Box Set] (2003) [Reissue 2008]

Posted By: gribovar
V.A. - Kalevala: A Finnish Progressive Rock Epic [3CD Box Set] (2003) [Reissue 2008]

V.A. - Kalevala: A Finnish Progressive Rock Epic [3CD Box Set] (2003) [Reissue 2008]
EAC Rip | WavPack (image+.cue+log) - 1,6 GB | MP3 CBR 320 kbps (LAME 3.93) - 569 MB | Covers - 845 MB
Genre: Progressive Rock | RAR 3% Rec. | Label: Musea (FGBG 4755.AR)

Famous among Progressive rock fans worldwide for being probably the classiest (and most complete) publication in this style, the Finnish magazine Colossus had the great idea to ask thirty bands of the whole world to illustrate the national Finnish epic: "Kalevala". It is made of old ballads and traditional songs, but is also part of a huge group of legends, which has inspired both J.R.R. Tolkien for his mythic "Lord Of The Rings" and composer Sibelius, among others. The idea that contributed to the creation of "Kalevala - A Finnish Progressive Rock Epic" was to use exclusively instruments of the Seventies, in order to obtain the "Aging" that the story needed. The result is absolutely stunning: three albums included in a box-set designed as beautifully as the famous Colossus covers. As for the music, the listener won't be disappointed! He'll be delighted to hear about four hours of sumptuous and rich (Vocal or instrumental) Progressive rock. On it, all the styles (Neo Progressive, symphonic, neo-classical, heavy-metal, experimental…) are blended with a certain domination of a golden Seventies Progressive rock inspiration. No doubt, there was a healthy competition among the bands, some of them performing here at their best so far. The remastered edition published in the year 2008 includes a new artwork and one bonus-track.

CD 1 Tracklist:
01. Haikara - The Creation / The Sowing
02. Overhead - Wainamoinen and Youkahainen / The Fate of Aino
03. Simon Says - Som floden flyter (As the River Runs)
04. Sinkadus - Trubadurens kval (The Minstrel's Cry)
05. Moongarden - Maiden of the Bow
06. Il Castello di Atlante - Ilmarinen Forges the Sampo
07. Magenta - Lemminkainen's Lament
08. Submarine Silence - Three Battles
09. Metaphor - Raking the Bones
10. Clearlight - The Boat Builder / Searching for the Lost Word

Total time: 01:22:45

CD 2 Tracklist:
01. Orchard - 3
02. Greenwall - The Wedding
03. Revelation - Uninvited Guest
04. Scarlet Thread - Pimeasta Pohjolasta
05. Mad Crayon - Il suono dei ricordi (The Sound of Memories)
06. Museo Rosenbach - Fiore di vendetta (The Flower of Revenge)
07. Leviathan - Filo di lama (Edge of a Blade)
08. Malibran - Strani colori (Strange Colors)
09. Sophya Baccini - Malvagio per le stelle (Mean Because of the Stars)
10. Elegant Simplicity - Ilmarinen's Bride of Gold

Total time: 01:18:51

CD 3 Tracklist:
01. Qadesh - Ilmarinen's Fruitless Wooing
02. Cantina Sociale - Kantele
03. Grand Stand - Stormen (Tempest)
04. Germinale - La battaglia per il sampo (The Battle for the Sampo)
05. Aardvark' - Uusi kantele (New Kantele)
06. Thonk - Kapittu 45/46 (Chapter 45/46)
07. Groovector - Tuletta (Fireless)
08. Whobodies - Pine
09. Randone & Tempore - Runo 49
10. Cafeine - Way Is Open
11. Viima - Kaukomielen Kaipaus (Bonus track)

Total time: 01:19:46

Exact Audio Copy V1.1 from 23. June 2015

EAC extraction logfile from 19. March 2016, 20:04

Various Artists / Kalevala - A Finnish Progressive Rock Epic (CD1)

Used drive : PIONEER BD-RW BDR-XD04 Adapter: 1 ID: 0

Read mode : Secure
Utilize accurate stream : Yes
Defeat audio cache : Yes
Make use of C2 pointers : No

Read offset correction : 667
Overread into Lead-In and Lead-Out : No
Fill up missing offset samples with silence : Yes
Delete leading and trailing silent blocks : No
Null samples used in CRC calculations : Yes
Used interface : Native Win32 interface for Win NT & 2000

Used output format : User Defined Encoder
Selected bitrate : 768 kBit/s
Quality : High
Add ID3 tag : No
Command line compressor : C:\Program Files (x86)\Exact Audio Copy\Wavpack\wavpack.exe
Additional command line options : -hm -w "Year=%year%" -w "Genre=%genre%" %source% %dest%


TOC of the extracted CD

Track | Start | Length | Start sector | End sector
––––––––––––––––––––––––––––-
1 | 0:00.00 | 11:31.00 | 0 | 51824
2 | 11:31.00 | 8:05.00 | 51825 | 88199
3 | 19:36.00 | 7:07.00 | 88200 | 120224
4 | 26:43.00 | 5:44.00 | 120225 | 146024
5 | 32:27.00 | 10:22.00 | 146025 | 192674
6 | 42:49.00 | 7:06.00 | 192675 | 224624
7 | 49:55.00 | 6:59.00 | 224625 | 256049
8 | 56:54.00 | 7:34.00 | 256050 | 290099
9 | 64:28.00 | 7:44.00 | 290100 | 324899
10 | 72:12.00 | 10:33.00 | 324900 | 372374


Range status and errors

Selected range

Filename D:\_NL+_\_CD\Various Artists - Kalevala - A Finnish Progressive Rock Epic (CD1).wav

Peak level 96.6 %
Extraction speed 1.8 X
Range quality 100.0 %
Test CRC 4CFD463B
Copy CRC 4CFD463B
Copy OK

No errors occurred


AccurateRip summary

Track 1 accurately ripped (confidence 4) [33F395A4] (AR v2)
Track 2 accurately ripped (confidence 4) [5D89F3E3] (AR v2)
Track 3 accurately ripped (confidence 4) [598130C5] (AR v2)
Track 4 accurately ripped (confidence 4) [0C65AC29] (AR v2)
Track 5 accurately ripped (confidence 4) [6414E731] (AR v2)
Track 6 accurately ripped (confidence 4) [8F849611] (AR v2)
Track 7 accurately ripped (confidence 4) [528468DB] (AR v2)
Track 8 accurately ripped (confidence 4) [FD45D988] (AR v2)
Track 9 accurately ripped (confidence 4) [867103CD] (AR v2)
Track 10 accurately ripped (confidence 4) [4F525E54] (AR v2)

All tracks accurately ripped

End of status report

–– CUETools DB Plugin V2.1.6

[CTDB TOCID: tCn5Fnd3scNxkI7gBcP_tyuGa_Y-] found
Submit result: tCn5Fnd3scNxkI7gBcP_tyuGa_Y- has been confirmed
Track | CTDB Status
1 | (1/1) Accurately ripped
2 | (1/1) Accurately ripped
3 | (1/1) Accurately ripped
4 | (1/1) Accurately ripped
5 | (1/1) Accurately ripped
6 | (1/1) Accurately ripped
7 | (1/1) Accurately ripped
8 | (1/1) Accurately ripped
9 | (1/1) Accurately ripped
10 | (1/1) Accurately ripped


==== Log checksum 617D979235A1EAB017DB47E47C17A0F9184F2E71461CF95B6280E370DB41C680 ====

[CUETools log; Date: 28.09.2019 16:13:58; Version: 2.1.4]
[CTDB TOCID: tCn5Fnd3scNxkI7gBcP_tyuGa_Y-] found.
Track | CTDB Status
1 | (4/4) Accurately ripped
2 | (4/4) Accurately ripped
3 | (4/4) Accurately ripped
4 | (4/4) Accurately ripped
5 | (4/4) Accurately ripped
6 | (4/4) Accurately ripped
7 | (4/4) Accurately ripped
8 | (4/4) Accurately ripped
9 | (4/4) Accurately ripped
10 | (3/4) Accurately ripped
[AccurateRip ID: 001f8a38-00f8e73e-a013650a] found.
Track [ CRC | V2 ] Status
01 [53d02569|33f395a4] (2+5/7) Accurately ripped
02 [e99b110a|5d89f3e3] (2+5/7) Accurately ripped
03 [c98de26f|598130c5] (2+5/7) Accurately ripped
04 [1ae85bd7|0c65ac29] (2+5/7) Accurately ripped
05 [49dbe761|6414e731] (2+5/7) Accurately ripped
06 [5134cd23|8f849611] (2+5/7) Accurately ripped
07 [42a85a23|528468db] (2+5/7) Accurately ripped
08 [db06d424|fd45d988] (2+5/7) Accurately ripped
09 [73379b35|867103cd] (2+5/7) Accurately ripped
10 [047c840c|4f525e54] (2+5/7) Accurately ripped

Track Peak [ CRC32 ] [W/O NULL] [ LOG ]
– 96,6 [4CFD463B] [8F4F2412] CRC32
01 96,6 [C512AF77] [66B29B33]
02 93,9 [59D1D6F3] [CF80DF67]
03 96,6 [C331706F] [425F3D15]
04 96,6 [4CDC8C17] [9C97A682]
05 96,6 [9D542878] [E4035C6A]
06 96,6 [8EB85124] [7E64BC10]
07 96,6 [94C0D5E4] [B82EF580]
08 96,6 [B93943C6] [3D67D72C]
09 96,6 [7DCD8246] [2273A1A6]
10 96,6 [CA922576] [FE56C269]

Exact Audio Copy V1.1 from 23. June 2015

EAC extraction logfile from 20. March 2016, 10:08

Various Artists / Kalevala - A Finnish Progressive Rock Epic (CD2)

Used drive : PIONEER BD-RW BDR-XD04 Adapter: 1 ID: 0

Read mode : Secure
Utilize accurate stream : Yes
Defeat audio cache : Yes
Make use of C2 pointers : No

Read offset correction : 667
Overread into Lead-In and Lead-Out : No
Fill up missing offset samples with silence : Yes
Delete leading and trailing silent blocks : No
Null samples used in CRC calculations : Yes
Used interface : Native Win32 interface for Win NT & 2000

Used output format : User Defined Encoder
Selected bitrate : 768 kBit/s
Quality : High
Add ID3 tag : No
Command line compressor : C:\Program Files (x86)\Exact Audio Copy\Wavpack\wavpack.exe
Additional command line options : -hm -w "Year=%year%" -w "Genre=%genre%" %source% %dest%


TOC of the extracted CD

Track | Start | Length | Start sector | End sector
––––––––––––––––––––––––––––-
1 | 0:00.00 | 7:34.00 | 0 | 34049
2 | 7:34.00 | 14:27.00 | 34050 | 99074
3 | 22:01.00 | 10:07.00 | 99075 | 144599
4 | 32:08.00 | 5:03.00 | 144600 | 167324
5 | 37:11.00 | 6:22.00 | 167325 | 195974
6 | 43:33.00 | 6:42.00 | 195975 | 226124
7 | 50:15.00 | 10:35.00 | 226125 | 273749
8 | 60:50.00 | 7:31.00 | 273750 | 307574
9 | 68:21.00 | 5:25.00 | 307575 | 331949
10 | 73:46.00 | 5:05.00 | 331950 | 354824


Range status and errors

Selected range

Filename D:\_NL+_\_CD\Various Artists - Kalevala - A Finnish Progressive Rock Epic (CD2).wav

Peak level 96.6 %
Extraction speed 1.8 X
Range quality 99.9 %
Test CRC A20E0B64
Copy CRC A20E0B64
Copy OK

No errors occurred


AccurateRip summary

Track 1 accurately ripped (confidence 2) [BBB9A3D1] (AR v2)
Track 2 accurately ripped (confidence 2) [902B1621] (AR v2)
Track 3 accurately ripped (confidence 2) [AF4EB2AF] (AR v2)
Track 4 accurately ripped (confidence 2) [AB1F4193] (AR v2)
Track 5 accurately ripped (confidence 2) [64E8FE2D] (AR v2)
Track 6 accurately ripped (confidence 2) [7F562492] (AR v2)
Track 7 accurately ripped (confidence 2) [9EB9B179] (AR v2)
Track 8 accurately ripped (confidence 2) [3CD9E2A7] (AR v2)
Track 9 accurately ripped (confidence 2) [F243392E] (AR v2)
Track 10 accurately ripped (confidence 2) [CEBEF554] (AR v2)

All tracks accurately ripped

End of status report

–– CUETools DB Plugin V2.1.6

[CTDB TOCID: L526NpEu8FJbE33Bz2q4oPl6t4A-] found
Submit result: L526NpEu8FJbE33Bz2q4oPl6t4A- has been confirmed
Track | CTDB Status
1 | (1/1) Accurately ripped
2 | (1/1) Accurately ripped
3 | (1/1) Accurately ripped
4 | (1/1) Accurately ripped
5 | (1/1) Accurately ripped
6 | (1/1) Accurately ripped
7 | (1/1) Accurately ripped
8 | (1/1) Accurately ripped
9 | (1/1) Accurately ripped
10 | (1/1) Accurately ripped


==== Log checksum 01643EB1D9DE9CC771CC54713CD9F2051A0737A29E4897A164FD744AE9FBE887 ====

[CUETools log; Date: 28.09.2019 16:14:34; Version: 2.1.4]
[CTDB TOCID: L526NpEu8FJbE33Bz2q4oPl6t4A-] found.
Track | CTDB Status
1 | (4/4) Accurately ripped
2 | (4/4) Accurately ripped
3 | (4/4) Accurately ripped
4 | (4/4) Accurately ripped
5 | (4/4) Accurately ripped
6 | (4/4) Accurately ripped
7 | (4/4) Accurately ripped
8 | (4/4) Accurately ripped
9 | (4/4) Accurately ripped
10 | (4/4) Accurately ripped
[AccurateRip ID: 002094d2-00ff1fd2-74127b0a] found.
Track [ CRC | V2 ] Status
01 [758d167c|bbb9a3d1] (0+3/7) Accurately ripped
02 [920f6f0d|902b1621] (0+3/7) Accurately ripped
03 [4aee1436|af4eb2af] (0+3/7) Accurately ripped
04 [b9340cc8|ab1f4193] (0+3/7) Accurately ripped
05 [4c3c1e3b|64e8fe2d] (0+3/7) Accurately ripped
06 [ee161faf|7f562492] (0+3/7) Accurately ripped
07 [fc7d2e82|9eb9b179] (0+3/7) Accurately ripped
08 [86ca3cf9|3cd9e2a7] (0+3/7) Accurately ripped
09 [b1c95fd7|f243392e] (0+3/7) Accurately ripped
10 [69722020|cebef554] (0+3/7) Accurately ripped
Offsetted by 664:
01 [2cfb4415] (2/7) Accurately ripped
02 [1184eb27] (2/7) Accurately ripped
03 [e24c373f] (2/7) Accurately ripped
04 [f8eec437] (2/7) Accurately ripped
05 [314f023b] (2/7) Accurately ripped
06 [fad7e1da] (2/7) Accurately ripped
07 [71dc30d8] (2/7) Accurately ripped
08 [016dde08] (2/7) Accurately ripped
09 [f0323af8] (2/7) Accurately ripped
10 [4d5a7329] (2/7) Accurately ripped

Track Peak [ CRC32 ] [W/O NULL] [ LOG ]
– 96,6 [A20E0B64] [B8C1FE61] CRC32
01 96,6 [D5B6C787] [1B780A1B]
02 96,6 [DD97BC33] [53211295]
03 96,6 [CDAE9A45] [B00417D4]
04 96,6 [491F2CEE] [BDC1A710]
05 96,6 [F2B36671] [05063139]
06 96,6 [3BFACF5C] [BD3641C5]
07 96,6 [67A71618] [A84C402E]
08 96,6 [7ACC4756] [3EDC1511]
09 96,6 [1D214B66] [08E66DE4]
10 96,6 [80B1F5DD] [7DE6403B]

Exact Audio Copy V1.1 from 23. June 2015

EAC extraction logfile from 20. March 2016, 14:00

Various Artists / Kalevala - A Finnish Progressive Rock Epic (CD3)

Used drive : PIONEER BD-RW BDR-XD04 Adapter: 1 ID: 0

Read mode : Secure
Utilize accurate stream : Yes
Defeat audio cache : Yes
Make use of C2 pointers : No

Read offset correction : 667
Overread into Lead-In and Lead-Out : No
Fill up missing offset samples with silence : Yes
Delete leading and trailing silent blocks : No
Null samples used in CRC calculations : Yes
Used interface : Native Win32 interface for Win NT & 2000

Used output format : User Defined Encoder
Selected bitrate : 768 kBit/s
Quality : High
Add ID3 tag : No
Command line compressor : C:\Program Files (x86)\Exact Audio Copy\Wavpack\wavpack.exe
Additional command line options : -hm -w "Year=%year%" -w "Genre=%genre%" %source% %dest%


TOC of the extracted CD

Track | Start | Length | Start sector | End sector
––––––––––––––––––––––––––––-
1 | 0:00.00 | 11:34.00 | 0 | 52049
2 | 11:34.00 | 5:47.00 | 52050 | 78074
3 | 17:21.00 | 7:01.00 | 78075 | 109649
4 | 24:22.00 | 8:12.00 | 109650 | 146549
5 | 32:34.00 | 5:53.00 | 146550 | 173024
6 | 38:27.00 | 6:39.00 | 173025 | 202949
7 | 45:06.00 | 5:19.00 | 202950 | 226874
8 | 50:25.00 | 5:36.00 | 226875 | 252074
9 | 56:01.00 | 8:58.00 | 252075 | 292424
10 | 64:59.00 | 11:43.00 | 292425 | 345149
11 | 76:42.00 | 3:04.00 | 345150 | 358949


Range status and errors

Selected range

Filename D:\_NL+_\_CD\Various Artists - Kalevala - A Finnish Progressive Rock Epic (CD3).wav

Peak level 96.6 %
Extraction speed 5.0 X
Range quality 100.0 %
Test CRC 34DBE9D4
Copy CRC 34DBE9D4
Copy OK

No errors occurred


AccurateRip summary

Track 1 accurately ripped (confidence 2) [DFBEA66E] (AR v2)
Track 2 accurately ripped (confidence 2) [30772343] (AR v2)
Track 3 accurately ripped (confidence 2) [0745BF92] (AR v2)
Track 4 accurately ripped (confidence 2) [A53AE358] (AR v2)
Track 5 accurately ripped (confidence 2) [2CCF7849] (AR v2)
Track 6 accurately ripped (confidence 2) [98FEB334] (AR v2)
Track 7 accurately ripped (confidence 2) [5313F802] (AR v2)
Track 8 accurately ripped (confidence 2) [2BA8FAFB] (AR v2)
Track 9 accurately ripped (confidence 2) [53F807EE] (AR v2)
Track 10 accurately ripped (confidence 2) [40067FFE] (AR v2)
Track 11 accurately ripped (confidence 2) [8E51A31E] (AR v2)

All tracks accurately ripped

End of status report

–– CUETools DB Plugin V2.1.6

[CTDB TOCID: kQkHTlsRGMcbj1aSrv1SrdePOa0-] found
Submit result: kQkHTlsRGMcbj1aSrv1SrdePOa0- has been confirmed
Track | CTDB Status
1 | (1/1) Accurately ripped
2 | (1/1) Accurately ripped
3 | (1/1) Accurately ripped
4 | (1/1) Accurately ripped
5 | (1/1) Accurately ripped
6 | (1/1) Accurately ripped
7 | (1/1) Accurately ripped
8 | (1/1) Accurately ripped
9 | (1/1) Accurately ripped
10 | (1/1) Accurately ripped
11 | (1/1) Accurately ripped


==== Log checksum 68B21EE7868A712475EF6F6E755CB045FB14B1EDA43B8F5F928811E3E616D8A5 ====

[CUETools log; Date: 28.09.2019 16:15:11; Version: 2.1.4]
[CTDB TOCID: kQkHTlsRGMcbj1aSrv1SrdePOa0-] found.
Track | CTDB Status
1 | (4/4) Accurately ripped
2 | (4/4) Accurately ripped
3 | (4/4) Accurately ripped
4 | (4/4) Accurately ripped
5 | (4/4) Accurately ripped
6 | (4/4) Accurately ripped
7 | (4/4) Accurately ripped
8 | (4/4) Accurately ripped
9 | (4/4) Accurately ripped
10 | (3/4) Accurately ripped
11 | (3/4) Accurately ripped
[AccurateRip ID: 0022254f-01232503-9812b20b] found.
Track [ CRC | V2 ] Status
01 [997042e9|dfbea66e] (0+3/7) Accurately ripped
02 [3b586e4c|30772343] (0+3/7) Accurately ripped
03 [70ebbed4|0745bf92] (0+3/7) Accurately ripped
04 [63bbeb99|a53ae358] (0+3/7) Accurately ripped
05 [3f61f12a|2ccf7849] (0+3/7) Accurately ripped
06 [949340eb|98feb334] (0+3/7) Accurately ripped
07 [3bf00078|5313f802] (0+3/7) Accurately ripped
08 [6dc1c19b|2ba8fafb] (0+3/7) Accurately ripped
09 [a5d32819|53f807ee] (0+3/7) Accurately ripped
10 [3dcb2877|40067ffe] (0+3/7) Accurately ripped
11 [de23af7b|8e51a31e] (0+3/7) Accurately ripped
Offsetted by 664:
01 [f6bcdd9b] (2/7) Accurately ripped
02 [53ebfbce] (2/7) Accurately ripped
03 [daab661a] (2/7) Accurately ripped
04 [b357f598] (2/7) Accurately ripped
05 [70a69502] (2/7) Accurately ripped
06 [c6157860] (2/7) Accurately ripped
07 [06702765] (2/7) Accurately ripped
08 [8ce261af] (2/7) Accurately ripped
09 [89edd59b] (2/7) Accurately ripped
10 [b4c49af5] (2/7) Accurately ripped
11 [c6a7c4e6] (2/7) Accurately ripped

Track Peak [ CRC32 ] [W/O NULL] [ LOG ]
– 96,6 [34DBE9D4] [F722B9E1] CRC32
01 96,6 [4910B423] [2F48D58E]
02 96,6 [53F70ED3] [39192FCA]
03 96,6 [EDFE1820] [ADA28088]
04 96,6 [315047D6] [C3C38474]
05 96,6 [4F5662B1] [F36E6A23]
06 96,6 [46911255] [85732524]
07 96,6 [8D26DB11] [C2BA54A7]
08 96,6 [5AF1AB92] [93B5638E]
09 96,6 [40F6DEA1] [95D4D1A8]
10 96,6 [FAD7F4C9] [F97CD47E]
11 96,6 [B7A17824] [2E01E4F7]

Thanks to tatuk