Subcategories

V.A. - Louis Armstrong And Friends [Recorded 1933-39] (2001) (Repost)

Posted By: gribovar
V.A. - Louis Armstrong And Friends [Recorded 1933-39] (2001) (Repost)

V.A. - Louis Armstrong And Friends [Recorded 1933-39] (2001)
EAC Rip | FLAC (tracks+.cue+log) - 320 MB | MP3 CBR 320 kbps (LAME 3.93) - 150 MB | Covers - 43 MB
Genre: Jazz | RAR 3% Rec. | Label: Universal Music (013 979-2)

The title of this compilation is a bit misleading, as Louis Armstrong only appears on seven of the CD's 20 tracks. All of them were recorded during a visit by the trumpeter to France in 1934 and were made on the sly, since he was under an exclusive contract to another label. The all-stars were primarily European musicians assembled for the session, though pianist Herman Chittison, a fellow American, makes his mark in "Super Tiger Rag," along with the leader's crisp, high-note solo. They compare favorably with some of Armstrong's later work back home with larger orchestras, but for the most part, the music is of minimal interest aside from his contributions. The other selections are a mixed bag. Pianist Freddy Johnson and trumpeter Arthur Briggs lead an orchestra that offers rather dated treatments of "Sweet Georgia Brown" and Spencer Williams' "Foxy and Grapesy." Actress Marlene Dietrich sings in her native German in "Wo Ist der Mann?" (Where Is the Man?), though the lyrics are half-spoken, backed by Briggs and Johnson leading a quintet. Tracks featuring vocalist Louis Cole with Briggs and Johnson are simply forgettable. Austrian singer Greta Keller is far more interesting than Dietrich on her pair of songs, including a moving "Goodbye to Summer" and the humorous, lightly swinging "I'm Gonna Lock My Heart and Throw Away the Key." The band is a good one, with expatriates Herman Chittison on piano and trumpeter Bill Coleman soloing. Clarinetist Danny Polo leads a sextet on the last four tracks, featuring either Garland Wilson or Una Mae Carlisle on piano and the phenomenal but underrated guitarist Oscar Alemán. The unaccredited "Doing the Gorgonzola" is easily the high point of this rare session.
Tracklist:
01. Saint Louis Blues (Louis Armstrong Et Son Orchestra)
02. Super Tiger Rag (Louis Armstrong Et Son Orchestra)
03. Will You Won't Be My Baby? (Louis Armstrong Et Son Orchestra)
04. On The Sunny Side Of The Street - part 1 (Louis Armstrong Et Son Orchestra)
05. On The Sunny Side Of The Street - part 2 (Louis Armstrong Et Son Orchestra)
06. Saint Louis Blues (Louis Armstrong Et Son Orchestra)
07. Song Of The Vipers (Louis Armstrong Et Son Orchestra)
08. Sweet Georgia Brown (Freddy Johnson, Arthur Briggs &Their All Star Orchestra)
09. Foxy And Grapesy (Freddy Johnson, Arthur Briggs & Their All Star Orchestra)
10. Wo Ist Der Mann? (Marlene Dietrich Accompagnee Par Freddie Johnson Et Son Jazz)
11. Nobody's Sweetheart (Arthur Briggs)
12. Grabbin' Blues (Arthur Briggs)
13. I Got Rythm (Arthur Briggs)
14. Japanese Sandman (Arthur Briggs)
15. Goodbye To Summer (Greta Keller)
16. I'm Gonna Lock My Door And Throw Away The Key (Greta Keller)
17. Doing The Gorgonzola (Danny Polo And His Swing Stars)
18. Montparnasse Jump (Danny Polo And His Swing Stars)
19. China Boy (Danny Polo And His Swing Stars)
20. Polo-Naise (Danny Polo And His Swing Stars)

Total time: 01:03:47

Exact Audio Copy V1.0 beta 1 from 15. November 2010

EAC extraction logfile from 9. January 2012, 14:24

Various / Louis Armstrong And Friends

Used drive : HL-DT-STDVD+-RW GSA-T21N Adapter: 0 ID: 0

Read mode : Secure
Utilize accurate stream : Yes
Defeat audio cache : Yes
Make use of C2 pointers : No

Read offset correction : 667
Overread into Lead-In and Lead-Out : No
Fill up missing offset samples with silence : Yes
Delete leading and trailing silent blocks : No
Null samples used in CRC calculations : Yes
Used interface : Native Win32 interface for Win NT & 2000
Gap handling : Appended to previous track

Used output format : User Defined Encoder
Selected bitrate : 896 kBit/s
Quality : High
Add ID3 tag : No
Command line compressor : C:\Program Files\Audio\Exact Audio Copy\Flac\flac.exe
Additional command line options : -8 -V -T "ARTIST=%a" -T "TITLE=%t" -T "ALBUM=%g" -T "DATE=%y" -T "TRACKNUMBER=%n" -T "TOTALTRACKS=%x" -T "GENRE=%m" -T "ALBUMARTIST=%v" -T "ALBUM ARTIST=%v" -T "COMMENT=EAC Secure Mode, Test & Copy, AccurateRip, FLAC -8" %s


TOC of the extracted CD

Track | Start | Length | Start sector | End sector
––––––––––––––––––––––––––––-
1 | 0:00.00 | 2:45.03 | 0 | 12377
2 | 2:45.03 | 3:09.29 | 12378 | 26581
3 | 5:54.32 | 2:50.36 | 26582 | 39367
4 | 8:44.68 | 2:58.42 | 39368 | 52759
5 | 11:43.35 | 3:09.18 | 52760 | 66952
6 | 14:52.53 | 3:08.26 | 66953 | 81078
7 | 18:01.04 | 2:57.62 | 81079 | 94415
8 | 20:58.66 | 3:17.70 | 94416 | 109260
9 | 24:16.61 | 3:38.51 | 109261 | 125661
10 | 27:55.37 | 3:15.29 | 125662 | 140315
11 | 31:10.66 | 3:19.16 | 140316 | 155256
12 | 34:30.07 | 3:33.53 | 155257 | 171284
13 | 38:03.60 | 3:19.51 | 171285 | 186260
14 | 41:23.36 | 3:43.35 | 186261 | 203020
15 | 45:06.71 | 3:40.20 | 203021 | 219540
16 | 48:47.16 | 3:11.38 | 219541 | 233903
17 | 51:58.54 | 3:06.49 | 233904 | 247902
18 | 55:05.28 | 2:47.63 | 247903 | 260490
19 | 57:53.16 | 2:57.45 | 260491 | 273810
20 | 60:50.61 | 2:56.07 | 273811 | 287017


Track 1

Filename C:\Various Artists - Louis Armstrong and friends (1933-39) [FLAC] {Gitanes 013 979-2}\01 - Louis Armstrong et son Orchestra - Saint Louis Blues.wav

Pre-gap length 0:00:02.00

Peak level 85.9 %
Extraction speed 2.1 X
Track quality 99.9 %
Test CRC 34AD3C3F
Copy CRC 34AD3C3F
Accurately ripped (confidence 2) [D6DD3866]
Copy OK

Track 2

Filename C:\Various Artists - Louis Armstrong and friends (1933-39) [FLAC] {Gitanes 013 979-2}\02 - Louis Armstrong et son Orchestra - Super Tiger Rag.wav

Pre-gap length 0:00:01.45

Peak level 79.6 %
Extraction speed 3.0 X
Track quality 100.0 %
Test CRC B33A8D59
Copy CRC B33A8D59
Accurately ripped (confidence 2) [F7CF410B]
Copy OK

Track 3

Filename C:\Various Artists - Louis Armstrong and friends (1933-39) [FLAC] {Gitanes 013 979-2}\03 - Louis Armstrong et son Orchestra - Will You Won't Be My Baby.wav

Pre-gap length 0:00:01.45

Peak level 73.9 %
Extraction speed 3.1 X
Track quality 100.0 %
Test CRC 08E58ED0
Copy CRC 08E58ED0
Accurately ripped (confidence 2) [D628508E]
Copy OK

Track 4

Filename C:\Various Artists - Louis Armstrong and friends (1933-39) [FLAC] {Gitanes 013 979-2}\04 - Louis Armstrong et son Orchestra - On the Sunny Side of the Street - Part 1.wav

Pre-gap length 0:00:01.45

Peak level 72.2 %
Extraction speed 3.3 X
Track quality 100.0 %
Test CRC C405DE5A
Copy CRC C405DE5A
Accurately ripped (confidence 2) [76FFFA87]
Copy OK

Track 5

Filename C:\Various Artists - Louis Armstrong and friends (1933-39) [FLAC] {Gitanes 013 979-2}\05 - Louis Armstrong et son Orchestra - On the Sunny Side of the Street - Part 2.wav

Pre-gap length 0:00:01.45

Peak level 69.8 %
Extraction speed 2.8 X
Track quality 99.9 %
Test CRC 224F5B9F
Copy CRC 224F5B9F
Accurately ripped (confidence 2) [3BAE6085]
Copy OK

Track 6

Filename C:\Various Artists - Louis Armstrong and friends (1933-39) [FLAC] {Gitanes 013 979-2}\06 - Louis Armstrong et son Orchestra - Saint Louis Blues.wav

Pre-gap length 0:00:01.45

Peak level 76.2 %
Extraction speed 3.7 X
Track quality 100.0 %
Test CRC 5A87C429
Copy CRC 5A87C429
Accurately ripped (confidence 2) [F2E8AD7B]
Copy OK

Track 7

Filename C:\Various Artists - Louis Armstrong and friends (1933-39) [FLAC] {Gitanes 013 979-2}\07 - Louis Armstrong et son Orchestra - Song of the Vipers.wav

Pre-gap length 0:00:01.45

Peak level 77.5 %
Extraction speed 3.8 X
Track quality 100.0 %
Test CRC 701A26E9
Copy CRC 701A26E9
Accurately ripped (confidence 2) [E8AFA8F0]
Copy OK

Track 8

Filename C:\Various Artists - Louis Armstrong and friends (1933-39) [FLAC] {Gitanes 013 979-2}\08 - Freddy Johnson, Arthur Briggs & their All Star Orchestra - Sweet Georgia Brown.wav

Pre-gap length 0:00:04.45

Peak level 84.3 %
Extraction speed 4.0 X
Track quality 100.0 %
Test CRC 76ACA52C
Copy CRC 76ACA52C
Accurately ripped (confidence 2) [6C9D15C3]
Copy OK

Track 9

Filename C:\Various Artists - Louis Armstrong and friends (1933-39) [FLAC] {Gitanes 013 979-2}\09 - Freddy Johnson, Arthur Briggs & their All Star Orchestra - Foxy and Grapesy.wav

Pre-gap length 0:00:01.45

Peak level 87.7 %
Extraction speed 4.2 X
Track quality 100.0 %
Test CRC D5440D0F
Copy CRC D5440D0F
Accurately ripped (confidence 2) [927C3C0D]
Copy OK

Track 10

Filename C:\Various Artists - Louis Armstrong and friends (1933-39) [FLAC] {Gitanes 013 979-2}\10 - Marlene Dietrich accompagnee par Freddie Johnson et son Jazz - Wo ist der Mann.wav

Pre-gap length 0:00:04.45

Peak level 85.8 %
Extraction speed 4.4 X
Track quality 100.0 %
Test CRC C9B044BB
Copy CRC C9B044BB
Accurately ripped (confidence 2) [15729200]
Copy OK

Track 11

Filename C:\Various Artists - Louis Armstrong and friends (1933-39) [FLAC] {Gitanes 013 979-2}\11 - Arthur Briggs - Nobody's Sweetheart.wav

Pre-gap length 0:00:04.45

Peak level 63.5 %
Extraction speed 3.6 X
Track quality 99.9 %
Test CRC 044E341B
Copy CRC 044E341B
Accurately ripped (confidence 2) [46A3895F]
Copy OK

Track 12

Filename C:\Various Artists - Louis Armstrong and friends (1933-39) [FLAC] {Gitanes 013 979-2}\12 - Arthur Briggs - Grabbin' Blues.wav

Pre-gap length 0:00:01.45

Peak level 85.3 %
Extraction speed 4.7 X
Track quality 100.0 %
Test CRC 8B322C87
Copy CRC 8B322C87
Accurately ripped (confidence 2) [1FD6BFC2]
Copy OK

Track 13

Filename C:\Various Artists - Louis Armstrong and friends (1933-39) [FLAC] {Gitanes 013 979-2}\13 - Arthur Briggs - I Got Rythm.wav

Pre-gap length 0:00:01.45

Peak level 61.3 %
Extraction speed 4.8 X
Track quality 100.0 %
Test CRC B127B62F
Copy CRC B127B62F
Accurately ripped (confidence 2) [410000EB]
Copy OK

Track 14

Filename C:\Various Artists - Louis Armstrong and friends (1933-39) [FLAC] {Gitanes 013 979-2}\14 - Arthur Briggs - Japanese Sandman.wav

Pre-gap length 0:00:01.45

Peak level 83.6 %
Extraction speed 4.1 X
Track quality 99.9 %
Test CRC B5C48483
Copy CRC B5C48483
Accurately ripped (confidence 2) [F3D6C126]
Copy OK

Track 15

Filename C:\Various Artists - Louis Armstrong and friends (1933-39) [FLAC] {Gitanes 013 979-2}\15 - Greta Keller - Goodbye to Summer.wav

Pre-gap length 0:00:04.45

Peak level 62.3 %
Extraction speed 5.2 X
Track quality 100.0 %
Test CRC E5070A8C
Copy CRC E5070A8C
Accurately ripped (confidence 2) [5DBC6C31]
Copy OK

Track 16

Filename C:\Various Artists - Louis Armstrong and friends (1933-39) [FLAC] {Gitanes 013 979-2}\16 - Greta Keller - I'm Gonna Lock My Door And Throw Away The Key.wav

Pre-gap length 0:00:01.45

Peak level 79.5 %
Extraction speed 5.1 X
Track quality 100.0 %
Test CRC 72E7C72D
Copy CRC 72E7C72D
Accurately ripped (confidence 2) [32CA10A0]
Copy OK

Track 17

Filename C:\Various Artists - Louis Armstrong and friends (1933-39) [FLAC] {Gitanes 013 979-2}\17 - Danny Polo and His Swing Stars - Doing the Gorgonzola.wav

Pre-gap length 0:00:04.45

Peak level 67.9 %
Extraction speed 5.2 X
Track quality 100.0 %
Test CRC E28A39FD
Copy CRC E28A39FD
Cannot be verified as accurate (confidence 7) [CDC0D08D], AccurateRip returned [5E80835B]
Copy OK

Track 18

Filename C:\Various Artists - Louis Armstrong and friends (1933-39) [FLAC] {Gitanes 013 979-2}\18 - Danny Polo and His Swing Stars - Montparnasse Jump.wav

Pre-gap length 0:00:01.45

Peak level 72.9 %
Extraction speed 5.3 X
Track quality 100.0 %
Test CRC 72E76C8A
Copy CRC 72E76C8A
Cannot be verified as accurate (confidence 7) [5FF4BB97], AccurateRip returned [66EF7713]
Copy OK

Track 19

Filename C:\Various Artists - Louis Armstrong and friends (1933-39) [FLAC] {Gitanes 013 979-2}\19 - Danny Polo and His Swing Stars - China Boy.wav

Pre-gap length 0:00:01.45

Peak level 85.2 %
Extraction speed 5.3 X
Track quality 100.0 %
Test CRC 4C4CD464
Copy CRC 4C4CD464
Cannot be verified as accurate (confidence 7) [C3144615], AccurateRip returned [1E980229]
Copy OK

Track 20

Filename C:\Various Artists - Louis Armstrong and friends (1933-39) [FLAC] {Gitanes 013 979-2}\20 - Danny Polo and His Swing Stars - Polo-naise.wav

Pre-gap length 0:00:01.43

Peak level 66.0 %
Extraction speed 5.5 X
Track quality 100.0 %
Test CRC FFE12B60
Copy CRC FFE12B60
Cannot be verified as accurate (confidence 7) [CA0054BA], AccurateRip returned [C490DFBA]
Copy OK


16 track(s) accurately ripped
4 track(s) could not be verified as accurate

Some tracks could not be verified as accurate

No errors occurred

End of status report

==== Log checksum A07A5801C3FD0C9D0E9106F4B3B3BEA498AEE09363BE58A254F843332D836454 ====

[CUETools log; Date: 16.05.2018 15:43:48; Version: 2.1.4]
[CTDB TOCID: IABgMMeC8P273ISwH.HXYofJ50Y-] found.
Track | CTDB Status
1 | (25/25) Accurately ripped
2 | (25/25) Accurately ripped
3 | (25/25) Accurately ripped
4 | (25/25) Accurately ripped
5 | (24/25) Accurately ripped
6 | (25/25) Accurately ripped
7 | (25/25) Accurately ripped
8 | (25/25) Accurately ripped
9 | (25/25) Accurately ripped
10 | (25/25) Accurately ripped
11 | (25/25) Accurately ripped
12 | (25/25) Accurately ripped
13 | (25/25) Accurately ripped
14 | (25/25) Accurately ripped
15 | (25/25) Accurately ripped
16 | (25/25) Accurately ripped
17 | (25/25) Accurately ripped
18 | (25/25) Accurately ripped
19 | (25/25) Accurately ripped
20 | (24/25) Accurately ripped
[AccurateRip ID: 002d9503-02a2252e-270ef214] found.
Track [ CRC | V2 ] Status
01 [d6dd3866|04773b04] (03+05/38) Accurately ripped
02 [f7cf410b|c017526d] (03+05/37) Accurately ripped
03 [d628508e|ce525083] (03+05/37) Accurately ripped
04 [76fffa87|a908adf1] (03+05/37) Accurately ripped
05 [3bae6085|54e4aa26] (03+05/37) Accurately ripped
06 [f2e8ad7b|c496d7b8] (03+05/36) Accurately ripped
07 [e8afa8f0|e32f1f7f] (03+05/36) Accurately ripped
08 [6c9d15c3|cdb36434] (03+05/36) Accurately ripped
09 [927c3c0d|1f32bda7] (03+05/37) Accurately ripped
10 [15729200|7a752c37] (03+05/37) Accurately ripped
11 [46a3895f|d108a2fe] (03+05/37) Accurately ripped
12 [1fd6bfc2|1dd17b41] (03+05/36) Accurately ripped
13 [410000eb|068184cc] (03+05/35) Accurately ripped
14 [f3d6c126|de942075] (03+04/33) Accurately ripped
15 [5dbc6c31|d3eff45f] (03+04/33) Accurately ripped
16 [32ca10a0|f55dfd31] (03+04/33) Accurately ripped
17 [cdc0d08d|499e4b6a] (02+04/32) Accurately ripped
18 [5ff4bb97|a19dbfc5] (02+05/33) Accurately ripped
19 [c3144615|18005a3d] (02+05/34) Accurately ripped
20 [ca0054ba|959d76f1] (02+05/34) Accurately ripped
Offsetted by 6:
01 [086d6ba4] (02/38) Accurately ripped
02 [e482fc07] (02/37) Accurately ripped
03 [b779cfa8] (02/37) Accurately ripped
04 [40cf09f5] (02/37) Accurately ripped
05 [6de314c3] (02/37) Accurately ripped
06 [091e32b3] (02/36) Accurately ripped
07 [03e09f24] (02/36) Accurately ripped
08 [f3e1905b] (02/36) Accurately ripped
09 [780293ad] (02/37) Accurately ripped
10 [be17d33c] (02/37) Accurately ripped
11 [5ef34047] (02/37) Accurately ripped
12 [1e33a55a] (02/36) Accurately ripped
13 [c6f9cf69] (02/35) Accurately ripped
14 [91b6b3ea] (02/33) Accurately ripped
15 [af2db659] (02/33) Accurately ripped
16 [a55fd588] (02/33) Accurately ripped
17 [c20ef303] (02/32) Accurately ripped
18 [af7e3ce3] (03/33) Accurately ripped
19 [32b46719] (03/34) Accurately ripped
20 [cd0263ba] (03/34) Accurately ripped
Offsetted by 670:
01 [756e3d1c] (08/38) Accurately ripped
02 [8cdfd0f7] (07/37) Accurately ripped
03 [1eb4c190] (07/37) Accurately ripped
04 [28fc602d] (07/37) Accurately ripped
05 [ccabaa3b] (07/37) Accurately ripped
06 [a2ebc993] (07/36) Accurately ripped
07 [1a6062f4] (07/36) Accurately ripped
08 [6d7be4bb] (07/36) Accurately ripped
09 [0615ca2d] (07/37) Accurately ripped
10 [5032b12c] (07/37) Accurately ripped
11 [36be51e7] (07/37) Accurately ripped
12 [6906e5ba] (07/36) Accurately ripped
13 [b1a1bde1] (07/35) Accurately ripped
14 [7bdba5fa] (07/33) Accurately ripped
15 [8ed1c4f9] (07/33) Accurately ripped
16 [83739f28] (07/33) Accurately ripped
17 [5e80835b] (07/32) Accurately ripped
18 [66ef7713] (07/33) Accurately ripped
19 [1e980229] (07/34) Accurately ripped
20 [c490dfba] (07/34) Accurately ripped
Offsetted by 635:
01 [544fbcdd] (00/38) No match
02 [fd720e39] (00/37) No match
03 [7c595c23] (00/37) No match
04 [ba6f30d6] (00/37) No match
05 [5278397c] (00/37) No match
06 [a15e4077] (04/36) Accurately ripped
07 [d1181c1a] (04/36) Accurately ripped
08 [586c6eef] (04/36) Accurately ripped
09 [2086205d] (04/37) Accurately ripped
10 [a3195f4e] (04/37) Accurately ripped
11 [fe42a6f3] (04/37) Accurately ripped
12 [7293aa6e] (04/36) Accurately ripped
13 [241b3402] (03/35) Accurately ripped
14 [0d969dd8] (02/33) Accurately ripped
15 [de679465] (02/33) Accurately ripped
16 [bc5f4d34] (02/33) Accurately ripped
17 [4d636500] (02/32) Accurately ripped
18 [6c4d5a2d] (02/33) Accurately ripped
19 [3e1c96e7] (02/34) Accurately ripped
20 [5daf883a] (02/34) Accurately ripped
Offsetted by 636:
01 [5c927012] (04/38) Accurately ripped
02 [fa3aad63] (04/37) Accurately ripped
03 [21e6f152] (04/37) Accurately ripped
04 [06bc5e13] (04/37) Accurately ripped
05 [05810231] (00/37) No match (V2 was not tested)
06 [2511d6ab] (00/36) No match
07 [2af59a78] (00/36) No match
08 [6ef7d8b3] (00/36) No match
09 [9c1c844d] (00/37) No match
10 [e9df94d8] (00/37) No match
11 [57a5456f] (00/37) No match
12 [724dd0b2] (00/36) No match
13 [ba6f8117] (00/35) No match
14 [5291464e] (00/33) No match
15 [16a520c1] (00/33) No match
16 [a4cd98b0] (00/33) No match
17 [f61b1569] (00/32) No match
18 [4ee4450f] (00/33) No match
19 [fb61f1bd] (00/34) No match
20 [08da8aba] (00/34) No match

Track Peak [ CRC32 ] [W/O NULL] [ LOG ]
– 87,7 [FC303D91] [803C11BB]
01 85,9 [34AD3C3F] [1F0E3B42] CRC32
02 79,6 [B33A8D59] [15BDC708] CRC32
03 73,9 [08E58ED0] [44F5051B] CRC32
04 72,2 [C405DE5A] [37A7E526] CRC32
05 69,8 [224F5B9F] [E6A51D95] CRC32
06 76,2 [5A87C429] [E120F53F] CRC32
07 77,5 [701A26E9] [46681081] CRC32
08 84,3 [76ACA52C] [CC5DC379] CRC32
09 87,7 [D5440D0F] [49D71A47] CRC32
10 85,8 [C9B044BB] [8CA59675] CRC32
11 63,5 [044E341B] [9DCA9484] CRC32
12 85,3 [8B322C87] [E42E9763] CRC32
13 61,3 [B127B62F] [A18FF025] CRC32
14 83,6 [B5C48483] [10A5EFF0] CRC32
15 62,3 [E5070A8C] [56CD2CCB] CRC32
16 79,5 [72E7C72D] [223606BB] CRC32
17 67,9 [E28A39FD] [5AA26047] CRC32
18 72,9 [72E76C8A] [5C86B823] CRC32
19 85,2 [4C4CD464] [FED08D01] CRC32
20 66,0 [FFE12B60] [76331FFA] CRC32

Thanks to the original releaser

See also:
Louis Armstrong and The All Stars - Satchmo At Pasadena (1951) [Reissue 2009]
Louis Armstrong - Hot Five & Hot Seven 1925-1928 (1990)
Ella Fitzgerald & Louis Armstrong - Verve Jazz Masters 24 (1994)