Subcategories
Tags
Language
Tags

V.A. - Nu-Jazz Divas (2007)

Posted By: gribovar
V.A. - Nu-Jazz Divas (2007)

V.A. - Nu-Jazz Divas (2007)
EAC Rip | WavPack (image+.cue+log) - 677 MB | MP3 CBR 320 kbps (LAME 3.93) - 244 MB | Covers - 128 MB
Genre: Nu Jazz, Electro Swing, Jazz-Funk | RAR 3% Rec. | Label: High Note Records (HN470CD)

You don't have to imagine any image of the mellow and full voices of Jazz divas. Just open your ears and enjoy it with ease. The four-dimensional floatation of electronic particles insinuates and creates the vivid appearances for the improvisation sound in modern times. Nu-Jazz Divas takes perfect interpretation of voices and extraordinary recording quality as main considerations and displays the absorption and remake of traditional Jazz in electronic generation. The two CDs contain the nuances between "Happy Hour" and "After Hour". The Cha Cha beats mixed with Funk, the inseparable House and Soul, even the blood linkage of Fusion and Urban, they all exquisitely express the variable characteristics of Jazz, which can be uplifting and exultant or soothing and enchanting. Artists include Alice Russell, Parov Stelar, Dephazz, P-Jay, Mo'Horizons, Nils Krogh, the Quantic Soul Orchestra and many others.
CD 1 Tracklist (Happy Hour):
01. TM Juke Feat. Sophie Faricy - Come Away
02. Dephazz - My Society
03. Waldeck Feat. Joy Malcolm - Make My Day? (Parov Stelar Mix)
04. P-Jay Feat. Gala Stohler - Walking
05. Parov Stelar - Charleston Butterfly
06. Mo'Horizons - Lovely Day Inside
07. Raw Artistic Soul Feat. Ursula Rucker - The Light
08. Nils Krogh - Things We Do (Jazzy Sport Crew Remix)
09. P-Jay Feat. Caroline Chevin - Exit
10. The Quantic Soul Orchestra - Super 8 (Pt 1)

Total time: 57:06

CD 2 Tracklist (After Hour):
01. Alice Russell - Humankind
02. Kinny & Horne - Forgetting To Remember (Nostalgia 77 Mix)
03. P-Jay Feat. Sabina Stokes - Ride With Me
04. Waldeck Feat. Zeebee - Our Day Will Come
05. Jojo Effect - Not With Me
06. The Dining Rooms - Thin Ice (Paolo Fedreghini & Marco Bianchi Remix)
07. Petra Magoni & Ferruccio Spinetti - I Never Say Goodbye
08. Alice Russell - To Know This
09. Dephazz - Nonsensical Thing
10. ebel Gilberto - Simplesmente (Tom Middleton Cosmos Mix)

Total time: 47:02

Exact Audio Copy V1.0 beta 2 from 29. April 2011

EAC extraction logfile from 2. October 2011, 23:08

Various / Nu-Jazz Divas (happy hour)

Used drive : hp DVD-RAM GH40L Adapter: 7 ID: 0

Read mode : Secure
Utilize accurate stream : Yes
Defeat audio cache : Yes
Make use of C2 pointers : No

Read offset correction : 667
Overread into Lead-In and Lead-Out : No
Fill up missing offset samples with silence : Yes
Delete leading and trailing silent blocks : No
Null samples used in CRC calculations : Yes
Used interface : Native Win32 interface for Win NT & 2000

Used output format : Internal WAV Routines
Sample format : 44.100 Hz; 16 Bit; Stereo


TOC of the extracted CD

Track | Start | Length | Start sector | End sector
––––––––––––––––––––––––––––-
1 | 0:00.00 | 6:03.20 | 0 | 27244
2 | 6:03.20 | 3:39.53 | 27245 | 43722
3 | 9:42.73 | 4:41.31 | 43723 | 64828
4 | 14:24.29 | 7:01.22 | 64829 | 96425
5 | 21:25.51 | 5:13.46 | 96426 | 119946
6 | 26:39.22 | 5:50.52 | 119947 | 146248
7 | 32:29.74 | 8:19.18 | 146249 | 183691
8 | 40:49.17 | 7:03.57 | 183692 | 215473
9 | 47:52.74 | 5:51.70 | 215474 | 241868
10 | 53:44.69 | 3:21.26 | 241869 | 256969


Range status and errors

Selected range

Filename C:\Users\WAN0777\Desktop\Rip by WANO777\Various - Nu-Jazz Divas (happy hour).wav

Peak level 100.0 %
Extraction speed 3.2 X
Range quality 99.9 %
Test CRC FEB106F4
Copy CRC FEB106F4
Copy OK

No errors occurred


AccurateRip summary

Track 1 not present in database
Track 2 not present in database
Track 3 not present in database
Track 4 not present in database
Track 5 not present in database
Track 6 not present in database
Track 7 not present in database
Track 8 not present in database
Track 9 not present in database
Track 10 not present in database

None of the tracks are present in the AccurateRip database

End of status report

==== Log checksum C373B4FB28C7211CEA1C3EA287A32AE57E0C3614A1E1D56267D5334C7C1AFEA3 ====

[CUETools log; Date: 12.06.2021 14:59:10; Version: 2.1.4]
[CTDB TOCID: 9fXi_zk.j7npNfhtIbYCvTc9gIU-] found.
Track | CTDB Status
1 | (6/6) Accurately ripped
2 | (6/6) Accurately ripped
3 | (6/6) Accurately ripped
4 | (6/6) Accurately ripped
5 | (6/6) Accurately ripped
6 | (6/6) Accurately ripped
7 | (6/6) Accurately ripped
8 | (6/6) Accurately ripped
9 | (6/6) Accurately ripped
10 | (6/6) Accurately ripped
[AccurateRip ID: 00154ec8-00accd15-8d0d620a] found.
Track [ CRC | V2 ] Status
01 [5ba6d28c|d140fe0a] (0+5/5) Accurately ripped
02 [ed0e63f3|b1d485f5] (0+5/5) Accurately ripped
03 [b3fe5d30|635907c8] (0+5/5) Accurately ripped
04 [7555fe40|70d86631] (0+5/5) Accurately ripped
05 [1a4fe370|479a48a8] (0+5/5) Accurately ripped
06 [53ed5888|b702d84b] (0+5/5) Accurately ripped
07 [45ea2f42|25d2df46] (0+5/5) Accurately ripped
08 [f9a81e76|f51d844d] (0+5/5) Accurately ripped
09 [2bd94cd8|1dcdea96] (0+5/5) Accurately ripped
10 [0f6c1230|814a6af3] (0+5/5) Accurately ripped

Track Peak [ CRC32 ] [W/O NULL] [ LOG ]
– 100,0 [FEB106F4] [3B4D0959] CRC32
01 96,3 [FB9BCD0A] [CB33867A]
02 91,8 [098FD805] [3C72B1F1]
03 94,1 [9E9F1893] [0B38700D]
04 100,0 [BF0F0ABD] [001A0972]
05 95,2 [0443DDDF] [C5AEEE6F]
06 93,4 [0FBA109A] [119E011B]
07 100,0 [E8C45BB1] [84F767A9]
08 96,3 [F5D6296B] [02279BF1]
09 93,9 [D7EC3270] [E839CD75]
10 88,0 [4CD656A1] [B1D9A5E0]

Exact Audio Copy V1.0 beta 2 from 29. April 2011

EAC extraction logfile from 2. October 2011, 23:43

Nu-Jazz Divas / Nu-Jazz Divas CD2 Afterhour

Used drive : hp DVD-RAM GH40L Adapter: 7 ID: 0

Read mode : Secure
Utilize accurate stream : Yes
Defeat audio cache : Yes
Make use of C2 pointers : No

Read offset correction : 667
Overread into Lead-In and Lead-Out : No
Fill up missing offset samples with silence : Yes
Delete leading and trailing silent blocks : No
Null samples used in CRC calculations : Yes
Used interface : Native Win32 interface for Win NT & 2000

Used output format : Internal WAV Routines
Sample format : 44.100 Hz; 16 Bit; Stereo


TOC of the extracted CD

Track | Start | Length | Start sector | End sector
––––––––––––––––––––––––––––-
1 | 0:00.00 | 4:39.16 | 0 | 20940
2 | 4:39.16 | 3:26.72 | 20941 | 36462
3 | 8:06.13 | 3:46.27 | 36463 | 53439
4 | 11:52.40 | 4:45.40 | 53440 | 74854
5 | 16:38.05 | 3:55.08 | 74855 | 92487
6 | 20:33.13 | 6:34.05 | 92488 | 122042
7 | 27:07.18 | 3:22.59 | 122043 | 137251
8 | 30:30.02 | 6:35.72 | 137252 | 166948
9 | 37:05.74 | 3:51.31 | 166949 | 184304
10 | 40:57.30 | 6:04.71 | 184305 | 211675


Range status and errors

Selected range

Filename C:\Users\WAN0777\Desktop\Rip by WANO777\Nu-Jazz Divas - Nu-Jazz Divas CD2 Afterhour.wav

Peak level 97.5 %
Extraction speed 3.0 X
Range quality 99.9 %
Test CRC BAA178F8
Copy CRC BAA178F8
Copy OK

No errors occurred


AccurateRip summary

Track 1 not present in database
Track 2 not present in database
Track 3 not present in database
Track 4 not present in database
Track 5 not present in database
Track 6 not present in database
Track 7 not present in database
Track 8 not present in database
Track 9 not present in database
Track 10 not present in database

None of the tracks are present in the AccurateRip database

End of status report

==== Log checksum DA15393BE6083DD2B560474E139A48F265E5F9B74FEEAA52458772285DA40561 ====

[CUETools log; Date: 12.06.2021 15:00:06; Version: 2.1.4]
[CTDB TOCID: lUOe1kbcUF8jOzCszy2IRsVi8cg-] found.
Track | CTDB Status
1 | (6/6) Accurately ripped
2 | (6/6) Accurately ripped
3 | (6/6) Accurately ripped
4 | (6/6) Accurately ripped
5 | (6/6) Accurately ripped
6 | (6/6) Accurately ripped
7 | (6/6) Accurately ripped
8 | (6/6) Accurately ripped
9 | (6/6) Accurately ripped
10 | (6/6) Accurately ripped
[AccurateRip ID: 0010ca7c-00881e03-7a0b060a] found.
Track [ CRC | V2 ] Status
01 [f28eb014|1df7edae] (0+5/5) Accurately ripped
02 [a3e375d4|fae75c2e] (0+5/5) Accurately ripped
03 [16cf2f6b|245b596a] (0+5/5) Accurately ripped
04 [b332ab15|b506d177] (0+5/5) Accurately ripped
05 [50e70704|b4685849] (0+5/5) Accurately ripped
06 [2a11996c|62843d16] (0+5/5) Accurately ripped
07 [e8f0efd3|8e76287e] (0+5/5) Accurately ripped
08 [1c4df930|39f8ab48] (0+5/5) Accurately ripped
09 [3057e128|570b3d15] (0+5/5) Accurately ripped
10 [0e61a113|b8cd3e0c] (0+5/5) Accurately ripped

Track Peak [ CRC32 ] [W/O NULL] [ LOG ]
– 97,5 [BAA178F8] [D60E782E] CRC32
01 97,5 [1AC009E6] [9F217EC3]
02 95,4 [56989AC2] [351BDE4E]
03 96,6 [9F25E25C] [859093B1]
04 94,5 [C66BD98C] [519222C1]
05 93,2 [1498B77A] [619F5D29]
06 91,0 [37472AD2] [6AB120F3]
07 94,1 [71D7C28A] [D18B56F9]
08 95,2 [7930844E] [9802B21A]
09 94,3 [FCB75ED6] [D5985E65]
10 92,1 [ACE8072D] [B3EC3D91]

Thanks to WAN0777