Subcategories

V.A. - Simply Relaxation [4CD Box Set] (2010) (Repost)

Posted By: gribovar
V.A. - Simply Relaxation [4CD Box Set] (2010) (Repost)

V.A. - Simply Relaxation [4CD Box Set] (2010)
EAC Rip | FLAC (tracks+.cue+log) - 1,11 GB | MP3 CBR 320 kbps (LAME 3.93) - 642 MB | Covers - 223 MB
Genre: New Age | RAR 3% Rec. | Label: Union Square Music (SIMPLYCD085)

Relaxation is the opposite of tension; something the body uses as its defence against trauma of a physical or emotional nature. These 4CDs of specially recorded relaxation music will aid the quest for tranquillity and calm amid the stains and stresses of modern day life.
CD 1 Tracklist:
01. Kevin Kendle - Nightfall
02. Healing Time - The Journey
03. Llewellyn - Faerie Cottage
04. Brian Carter - Alone At The Crossroads
05. Visions Of Peace - Lasting Reflection
06. Llewellyn - Twilight
07. John Coker - Floatation
08. Healing Time - Eternal Skies
09. Brian King - The Homeland

Total time: 01:12:47

CD 2 Tracklist:
01. Midori - Islands At Dusk
02. Eternity - Dawn Of Time
03. Breath Of Life - Beautiful Mind
04. Efferverscence - Santosha
05. Eternity - Empty Skies
06. Nightfall - Gentle Paradise
07. Miracle Skies - Letting Go
08. Breath Of Life - Blue Lagoon

Total time: 01:04:42

CD 3 Tracklist:
01. Moonstone - Inner Calm
02. Kevin Kendle - Skylark
03. Nightfall - Spirit Time
04. Llewellyn - Dream
05. Crystal Moon - Gentle Rain
06. Miracle Skies - Silver Melody
07. Sacred Moon - Earth Sounds

Total time: 01:07:53

CD 4 Tracklist:
01. Llewellyn - Floating
02. Dreamstone - Kundalini
03. Moonstone - The Endless Sea
04. Harmonize - Drifting Sands
05. Brent Alan Plain - Birth Of The Planets

Total time: 01:07:48

Exact Audio Copy V1.0 beta 1 from 15. November 2010

EAC extraction logfile from 5. December 2013, 9:59

Various / Simply Relaxation CD1

Used drive : ASUS DRW-24B3ST Adapter: 1 ID: 2

Read mode : Secure
Utilize accurate stream : Yes
Defeat audio cache : Yes
Make use of C2 pointers : No

Read offset correction : 6
Overread into Lead-In and Lead-Out : No
Fill up missing offset samples with silence : Yes
Delete leading and trailing silent blocks : No
Null samples used in CRC calculations : Yes
Used interface : Native Win32 interface for Win NT & 2000
Gap handling : Appended to previous track

Used output format : User Defined Encoder
Selected bitrate : 896 kBit/s
Quality : High
Add ID3 tag : No
Command line compressor : C:\Program Files (x86)\Exact Audio Copy\Flac\flac.exe
Additional command line options : -8 -V -T "ARTIST=%a" -T "TITLE=%t" -T "ALBUM=%g" -T "DATE=%y" -T "TRACKNUMBER=%n" -T "GENRE=%m" -T "COMMENT=ripped by Oleandris" %s


TOC of the extracted CD

Track | Start | Length | Start sector | End sector
––––––––––––––––––––––––––––-
1 | 0:00.00 | 12:26.46 | 0 | 55995
2 | 12:26.46 | 8:12.19 | 55996 | 92914
3 | 20:38.65 | 8:15.68 | 92915 | 130107
4 | 28:54.58 | 5:21.14 | 130108 | 154196
5 | 34:15.72 | 8:08.55 | 154197 | 190851
6 | 42:24.52 | 10:21.32 | 190852 | 237458
7 | 52:46.09 | 8:49.13 | 237459 | 277146
8 | 61:35.22 | 7:53.09 | 277147 | 312630
9 | 69:28.31 | 3:19.36 | 312631 | 327591


Track 1

Filename F:\ЗАГРУЗКИ\ Simply Relaxation 4CD (2010)\CD1\01. Kevin Kendle - Nightfall.wav

Pre-gap length 0:00:02.00

Peak level 73.8 %
Extraction speed 2.3 X
Track quality 100.0 %
Test CRC 17AD4547
Copy CRC 17AD4547
Accurately ripped (confidence 1) [F93A85E6]
Copy OK

Track 2

Filename F:\ЗАГРУЗКИ\ Simply Relaxation 4CD (2010)\CD1\02. Healing Time - The Journey.wav

Peak level 88.0 %
Extraction speed 2.8 X
Track quality 100.0 %
Test CRC B358BF6A
Copy CRC B358BF6A
Accurately ripped (confidence 1) [F2F94DC9]
Copy OK

Track 3

Filename F:\ЗАГРУЗКИ\ Simply Relaxation 4CD (2010)\CD1\03. Llewellyn - Faerie Cottage.wav

Peak level 90.4 %
Extraction speed 3.1 X
Track quality 100.0 %
Test CRC 36EA4410
Copy CRC 36EA4410
Accurately ripped (confidence 1) [005ADBFA]
Copy OK

Track 4

Filename F:\ЗАГРУЗКИ\ Simply Relaxation 4CD (2010)\CD1\04. Brian Carter - Alone At The Crossroads.wav

Peak level 94.3 %
Extraction speed 3.2 X
Track quality 100.0 %
Test CRC 3E5E9111
Copy CRC 3E5E9111
Accurately ripped (confidence 1) [41176EFC]
Copy OK

Track 5

Filename F:\ЗАГРУЗКИ\ Simply Relaxation 4CD (2010)\CD1\05. Visions Of Peace - Lasting Reflection.wav

Peak level 78.8 %
Extraction speed 3.5 X
Track quality 100.0 %
Test CRC 3D7A5FDE
Copy CRC 3D7A5FDE
Accurately ripped (confidence 1) [8A4D7165]
Copy OK

Track 6

Filename F:\ЗАГРУЗКИ\ Simply Relaxation 4CD (2010)\CD1\06. Llewellyn - Twilight.wav

Peak level 99.5 %
Extraction speed 3.9 X
Track quality 100.0 %
Test CRC 4E1F1EB1
Copy CRC 4E1F1EB1
Accurately ripped (confidence 1) [1767393C]
Copy OK

Track 7

Filename F:\ЗАГРУЗКИ\ Simply Relaxation 4CD (2010)\CD1\07. John Coker - Floatation.wav

Peak level 86.8 %
Extraction speed 4.1 X
Track quality 100.0 %
Test CRC 9F7E1566
Copy CRC 9F7E1566
Accurately ripped (confidence 1) [55E62F4F]
Copy OK

Track 8

Filename F:\ЗАГРУЗКИ\ Simply Relaxation 4CD (2010)\CD1\08. Healing Time - Eternal Skies.wav

Peak level 99.4 %
Extraction speed 4.3 X
Track quality 100.0 %
Test CRC 6FD88F83
Copy CRC 6FD88F83
Accurately ripped (confidence 1) [39E27335]
Copy OK

Track 9

Filename F:\ЗАГРУЗКИ\ Simply Relaxation 4CD (2010)\CD1\09. Brian King - The Homeland.wav

Peak level 65.4 %
Extraction speed 4.0 X
Track quality 100.0 %
Test CRC 02A60B36
Copy CRC 02A60B36
Accurately ripped (confidence 1) [08226146]
Copy OK


All tracks accurately ripped

No errors occurred

End of status report

==== Log checksum F2A885833CEEEEB834F9DDF45E644815B6158506DAA75B449EFB386FFA8F44B7 ====

[CUETools log; Date: 18.04.2016 20:52:33; Version: 2.1.4]
[CTDB TOCID: OLlhM5ztE5mVHtcHqTjqGr9DIkg-] found.
Track | CTDB Status
1 | (4/4) Accurately ripped
2 | (4/4) Accurately ripped
3 | (4/4) Accurately ripped
4 | (4/4) Accurately ripped
5 | (4/4) Accurately ripped
6 | (4/4) Accurately ripped
7 | (4/4) Accurately ripped
8 | (4/4) Accurately ripped
9 | (4/4) Accurately ripped
[AccurateRip ID: 001b24d1-00c3415f-83110f09] found.
Track [ CRC | V2 ] Status
01 [f93a85e6|c6cb3e72] (0+3/3) Accurately ripped
02 [f2f94dc9|1d129122] (0+3/3) Accurately ripped
03 [005adbfa|8d2fc9ef] (0+3/3) Accurately ripped
04 [41176efc|537b2b07] (0+3/3) Accurately ripped
05 [8a4d7165|449d5972] (0+3/3) Accurately ripped
06 [1767393c|8d3d22a5] (0+3/3) Accurately ripped
07 [55e62f4f|e5f1dabb] (0+3/3) Accurately ripped
08 [39e27335|ea0fd080] (0+3/3) Accurately ripped
09 [08226146|e0dc2a47] (0+3/3) Accurately ripped

Track Peak [ CRC32 ] [W/O NULL] [ LOG ]
– 99,5 [F261CB9E] [68849636]
01 73,8 [17AD4547] [BA6F6803] CRC32
02 88,0 [B358BF6A] [3C21EF25] CRC32
03 90,4 [36EA4410] [8E975E5C] CRC32
04 94,3 [3E5E9111] [2A98E69A] CRC32
05 78,8 [3D7A5FDE] [AD5391E0] CRC32
06 99,5 [4E1F1EB1] [4344CBD7] CRC32
07 86,8 [9F7E1566] [B431FBE4] CRC32
08 99,4 [6FD88F83] [75D6F9F0] CRC32
09 65,4 [02A60B36] [0D445191] CRC32

Exact Audio Copy V1.0 beta 1 from 15. November 2010

EAC extraction logfile from 5. December 2013, 9:35

Various / Simply Relaxation CD2

Used drive : PLEXTOR DVDR PX-L890SA Adapter: 1 ID: 4

Read mode : Secure
Utilize accurate stream : Yes
Defeat audio cache : Yes
Make use of C2 pointers : No

Read offset correction : 6
Overread into Lead-In and Lead-Out : No
Fill up missing offset samples with silence : Yes
Delete leading and trailing silent blocks : No
Null samples used in CRC calculations : Yes
Used interface : Native Win32 interface for Win NT & 2000
Gap handling : Appended to previous track

Used output format : User Defined Encoder
Selected bitrate : 896 kBit/s
Quality : High
Add ID3 tag : No
Command line compressor : C:\Program Files (x86)\Exact Audio Copy\Flac\flac.exe
Additional command line options : -8 -V -T "ARTIST=%a" -T "TITLE=%t" -T "ALBUM=%g" -T "DATE=%y" -T "TRACKNUMBER=%n" -T "GENRE=%m" -T "COMMENT=ripped by Oleandris" %s


TOC of the extracted CD

Track | Start | Length | Start sector | End sector
––––––––––––––––––––––––––––-
1 | 0:00.00 | 7:44.07 | 0 | 34806
2 | 7:44.07 | 8:04.52 | 34807 | 71158
3 | 15:48.59 | 8:11.60 | 71159 | 108043
4 | 24:00.44 | 8:05.03 | 108044 | 144421
5 | 32:05.47 | 8:12.40 | 144422 | 181361
6 | 40:18.12 | 8:06.43 | 181362 | 217854
7 | 48:24.55 | 8:04.72 | 217855 | 254226
8 | 56:29.52 | 8:13.12 | 254227 | 291213


Track 1

Filename F:\ЗАГРУЗКИ\ Simply Relaxation 4CD (2010)\CD2\01. Midori - Islands At Dusk.wav

Pre-gap length 0:00:02.00

Peak level 53.4 %
Extraction speed 4.1 X
Track quality 100.0 %
Test CRC 442EF55E
Copy CRC 442EF55E
Accurately ripped (confidence 1) [2613B297]
Copy OK

Track 2

Filename F:\ЗАГРУЗКИ\ Simply Relaxation 4CD (2010)\CD2\02. Eternity - Dawn Of Time.wav

Peak level 50.4 %
Extraction speed 4.9 X
Track quality 100.0 %
Test CRC 002CC41D
Copy CRC 002CC41D
Accurately ripped (confidence 1) [E718CB00]
Copy OK

Track 3

Filename F:\ЗАГРУЗКИ\ Simply Relaxation 4CD (2010)\CD2\03. Breath Of Life - Beautiful Mind.wav

Peak level 87.2 %
Extraction speed 4.9 X
Track quality 99.9 %
Test CRC 8D8C4378
Copy CRC 8D8C4378
Accurately ripped (confidence 1) [47AB2ED0]
Copy OK

Track 4

Filename F:\ЗАГРУЗКИ\ Simply Relaxation 4CD (2010)\CD2\04. Efferverscence - Santosha.wav

Peak level 85.2 %
Extraction speed 6.1 X
Track quality 100.0 %
Test CRC 15D37329
Copy CRC 15D37329
Accurately ripped (confidence 1) [4276ED08]
Copy OK

Track 5

Filename F:\ЗАГРУЗКИ\ Simply Relaxation 4CD (2010)\CD2\05. Eternity - Empty Skies.wav

Peak level 80.3 %
Extraction speed 6.7 X
Track quality 100.0 %
Test CRC 3BF8013F
Copy CRC 3BF8013F
Accurately ripped (confidence 1) [75A20873]
Copy OK

Track 6

Filename F:\ЗАГРУЗКИ\ Simply Relaxation 4CD (2010)\CD2\06. Nightfall - Gentle Paradise.wav

Pre-gap length 0:00:02.01

Peak level 99.4 %
Extraction speed 7.1 X
Track quality 100.0 %
Test CRC 956C7D7A
Copy CRC 956C7D7A
Accurately ripped (confidence 1) [F2B9BEC7]
Copy OK

Track 7

Filename F:\ЗАГРУЗКИ\ Simply Relaxation 4CD (2010)\CD2\07. Miracle Skies - Letting Go.wav

Pre-gap length 0:00:01.47

Peak level 26.5 %
Extraction speed 7.6 X
Track quality 100.0 %
Test CRC 68EBEB89
Copy CRC 68EBEB89
Accurately ripped (confidence 1) [CF4202DE]
Copy OK

Track 8

Filename F:\ЗАГРУЗКИ\ Simply Relaxation 4CD (2010)\CD2\08. Breath Of Life - Blue Lagoon.wav

Peak level 63.4 %
Extraction speed 8.0 X
Track quality 100.0 %
Test CRC A3727F82
Copy CRC A3727F82
Accurately ripped (confidence 1) [072E64D8]
Copy OK


All tracks accurately ripped

No errors occurred

End of status report

==== Log checksum 61ADC09EAC13F05C1124A0CFE9591882A71BC833382704DAB0EBA60EBA970564 ====

[CUETools log; Date: 18.04.2016 20:52:51; Version: 2.1.4]
[CTDB TOCID: nSNLKb0CrL3pWBNvuavtHmHZCaM-] found.
Track | CTDB Status
1 | (1/1) Accurately ripped
2 | (1/1) Accurately ripped
3 | (1/1) Accurately ripped
4 | (1/1) Accurately ripped
5 | (1/1) Accurately ripped
6 | (1/1) Accurately ripped
7 | (1/1) Accurately ripped
8 | (1/1) Accurately ripped
[AccurateRip ID: 0013e232-0084d4fd-670f2a08] found.
Track [ CRC | V2 ] Status
01 [2613b297|297256c7] (0+3/3) Accurately ripped
02 [e718cb00|58f142c4] (0+3/3) Accurately ripped
03 [47ab2ed0|8a7ba40f] (0+3/3) Accurately ripped
04 [4276ed08|34467836] (0+3/3) Accurately ripped
05 [75a20873|0d8c7e30] (0+3/3) Accurately ripped
06 [f2b9bec7|dac402e7] (0+3/3) Accurately ripped
07 [cf4202de|53343216] (0+3/3) Accurately ripped
08 [072e64d8|ef17eb96] (0+3/3) Accurately ripped

Track Peak [ CRC32 ] [W/O NULL] [ LOG ]
– 99,4 [0B12CE15] [6AECB77D]
01 53,4 [442EF55E] [03C51E2E] CRC32
02 50,4 [002CC41D] [99B770C7] CRC32
03 87,2 [8D8C4378] [5BC8EE20] CRC32
04 85,2 [15D37329] [562005B1] CRC32
05 80,3 [3BF8013F] [D19B69CA] CRC32
06 99,4 [956C7D7A] [58B7E655] CRC32
07 26,5 [68EBEB89] [F57A9A9A] CRC32
08 63,4 [A3727F82] [AABC9D66] CRC32

Exact Audio Copy V1.0 beta 1 from 15. November 2010

EAC extraction logfile from 5. December 2013, 9:51

Various / Simply Relaxation CD3

Used drive : PLEXTOR DVDR PX-891SA Adapter: 1 ID: 5

Read mode : Secure
Utilize accurate stream : Yes
Defeat audio cache : Yes
Make use of C2 pointers : No

Read offset correction : 6
Overread into Lead-In and Lead-Out : No
Fill up missing offset samples with silence : Yes
Delete leading and trailing silent blocks : No
Null samples used in CRC calculations : Yes
Used interface : Native Win32 interface for Win NT & 2000
Gap handling : Appended to previous track

Used output format : User Defined Encoder
Selected bitrate : 896 kBit/s
Quality : High
Add ID3 tag : No
Command line compressor : C:\Program Files (x86)\Exact Audio Copy\Flac\flac.exe
Additional command line options : -8 -V -T "ARTIST=%a" -T "TITLE=%t" -T "ALBUM=%g" -T "DATE=%y" -T "TRACKNUMBER=%n" -T "GENRE=%m" -T "COMMENT=ripped by Oleandris" %s


TOC of the extracted CD

Track | Start | Length | Start sector | End sector
––––––––––––––––––––––––––––-
1 | 0:00.00 | 8:14.24 | 0 | 37073
2 | 8:14.24 | 12:42.42 | 37074 | 94265
3 | 20:56.66 | 8:04.53 | 94266 | 130618
4 | 29:01.44 | 14:10.37 | 130619 | 194405
5 | 43:12.06 | 8:13.34 | 194406 | 231414
6 | 51:25.40 | 8:17.48 | 231415 | 268737
7 | 59:43.13 | 8:10.53 | 268738 | 305540


Track 1

Filename F:\ЗАГРУЗКИ\ Simply Relaxation 4CD (2010)\CD3\01. Moonstone - Inner Calm.wav

Pre-gap length 0:00:02.00

Peak level 90.6 %
Extraction speed 2.3 X
Track quality 100.0 %
Test CRC 414BA1DC
Copy CRC 414BA1DC
Accurately ripped (confidence 1) [7D575DFE]
Copy OK

Track 2

Filename F:\ЗАГРУЗКИ\ Simply Relaxation 4CD (2010)\CD3\02. Kevin Kendle - Skylark.wav

Peak level 88.4 %
Extraction speed 2.9 X
Track quality 100.0 %
Test CRC FAE9600F
Copy CRC FAE9600F
Accurately ripped (confidence 1) [05801A21]
Copy OK

Track 3

Filename F:\ЗАГРУЗКИ\ Simply Relaxation 4CD (2010)\CD3\03. Nightfall - Spirit Time.wav

Pre-gap length 0:00:01.44

Peak level 56.2 %
Extraction speed 3.2 X
Track quality 100.0 %
Test CRC A1A2E508
Copy CRC A1A2E508
Accurately ripped (confidence 1) [1CD3036E]
Copy OK

Track 4

Filename F:\ЗАГРУЗКИ\ Simply Relaxation 4CD (2010)\CD3\04. Llewellyn - Dream.wav

Peak level 80.9 %
Extraction speed 3.7 X
Track quality 100.0 %
Test CRC D0B0301F
Copy CRC D0B0301F
Accurately ripped (confidence 1) [B69AA936]
Copy OK

Track 5

Filename F:\ЗАГРУЗКИ\ Simply Relaxation 4CD (2010)\CD3\05. Crystal Moon - Gentle Rain.wav

Peak level 88.2 %
Extraction speed 3.3 X
Track quality 99.9 %
Test CRC 6FF515CF
Copy CRC 6FF515CF
Accurately ripped (confidence 1) [B3E167AD]
Copy OK

Track 6

Filename F:\ЗАГРУЗКИ\ Simply Relaxation 4CD (2010)\CD3\06. Miracle Skies - Silver Melody.wav

Pre-gap length 0:00:01.10

Peak level 68.8 %
Extraction speed 4.2 X
Track quality 100.0 %
Test CRC 0B5C68AE
Copy CRC 0B5C68AE
Accurately ripped (confidence 1) [E7380CFE]
Copy OK

Track 7

Filename F:\ЗАГРУЗКИ\ Simply Relaxation 4CD (2010)\CD3\07. Sacred Moon - Earth Sounds.wav

Peak level 77.2 %
Extraction speed 4.5 X
Track quality 100.0 %
Test CRC FC593612
Copy CRC FC593612
Accurately ripped (confidence 1) [49C65855]
Copy OK


All tracks accurately ripped

No errors occurred

End of status report

==== Log checksum 36340669F4847ED09B644F2D2F374DC2586FE35D9FED745D46D48C2195CE8646 ====

[CUETools log; Date: 18.04.2016 20:53:12; Version: 2.1.4]
[CTDB TOCID: nvQCN91DO_JGkomgwhJ38PLsEKQ-] found.
Track | CTDB Status
1 | (2/2) Accurately ripped
2 | (2/2) Accurately ripped
3 | (2/2) Accurately ripped
4 | (2/2) Accurately ripped
5 | (2/2) Accurately ripped
6 | (2/2) Accurately ripped
7 | (2/2) Accurately ripped
[AccurateRip ID: 001341eb-0073707d-6f0fe907] found.
Track [ CRC | V2 ] Status
01 [7d575dfe|ec88be6d] (0+3/3) Accurately ripped
02 [05801a21|6cca1647] (0+3/3) Accurately ripped
03 [1cd3036e|b1074f08] (0+3/3) Accurately ripped
04 [b69aa936|ea02e4c7] (0+3/3) Accurately ripped
05 [b3e167ad|cdf1b7f0] (0+3/3) Accurately ripped
06 [e7380cfe|ac4e0d98] (0+3/3) Accurately ripped
07 [49c65855|8876bca5] (0+3/3) Accurately ripped

Track Peak [ CRC32 ] [W/O NULL] [ LOG ]
– 90,6 [5B4544BA] [15B80E20]
01 90,6 [414BA1DC] [5F1A3535] CRC32
02 88,4 [FAE9600F] [57064095] CRC32
03 56,2 [A1A2E508] [ED4E55A6] CRC32
04 80,8 [D0B0301F] [093D8F3A] CRC32
05 88,2 [6FF515CF] [2E5226D9] CRC32
06 68,8 [0B5C68AE] [3EC9C320] CRC32
07 77,2 [FC593612] [812C4BF2] CRC32

Exact Audio Copy V1.0 beta 1 from 15. November 2010

EAC extraction logfile from 5. December 2013, 9:59

Various / Simply Relaxation CD4

Used drive : PLEXTOR DVDR PX-L890SA Adapter: 1 ID: 4

Read mode : Secure
Utilize accurate stream : Yes
Defeat audio cache : Yes
Make use of C2 pointers : No

Read offset correction : 6
Overread into Lead-In and Lead-Out : No
Fill up missing offset samples with silence : Yes
Delete leading and trailing silent blocks : No
Null samples used in CRC calculations : Yes
Used interface : Native Win32 interface for Win NT & 2000
Gap handling : Appended to previous track

Used output format : User Defined Encoder
Selected bitrate : 896 kBit/s
Quality : High
Add ID3 tag : No
Command line compressor : C:\Program Files (x86)\Exact Audio Copy\Flac\flac.exe
Additional command line options : -8 -V -T "ARTIST=%a" -T "TITLE=%t" -T "ALBUM=%g" -T "DATE=%y" -T "TRACKNUMBER=%n" -T "GENRE=%m" -T "COMMENT=ripped by Oleandris" %s


TOC of the extracted CD

Track | Start | Length | Start sector | End sector
––––––––––––––––––––––––––––-
1 | 0:00.00 | 13:55.03 | 0 | 62627
2 | 13:55.03 | 8:10.34 | 62628 | 99411
3 | 22:05.37 | 8:00.29 | 99412 | 135440
4 | 30:05.66 | 7:42.12 | 135441 | 170102
5 | 37:48.03 | 30:00.31 | 170103 | 305133


Track 1

Filename F:\ЗАГРУЗКИ\ Simply Relaxation 4CD (2010)\CD4\01. Llewellyn - Floating.wav

Pre-gap length 0:00:02.00

Peak level 78.2 %
Extraction speed 4.5 X
Track quality 100.0 %
Test CRC A3F8C2E0
Copy CRC A3F8C2E0
Accurately ripped (confidence 1) [A10A1D9F]
Copy OK

Track 2

Filename F:\ЗАГРУЗКИ\ Simply Relaxation 4CD (2010)\CD4\02. Dreamstone - Kundalini.wav

Peak level 64.1 %
Extraction speed 4.7 X
Track quality 99.9 %
Test CRC A13C6B74
Copy CRC A13C6B74
Accurately ripped (confidence 1) [34EB6A13]
Copy OK

Track 3

Filename F:\ЗАГРУЗКИ\ Simply Relaxation 4CD (2010)\CD4\03. Moonstone - The Endless Sea.wav

Peak level 90.9 %
Extraction speed 6.0 X
Track quality 100.0 %
Test CRC B7B4634F
Copy CRC B7B4634F
Accurately ripped (confidence 1) [E216C18D]
Copy OK

Track 4

Filename F:\ЗАГРУЗКИ\ Simply Relaxation 4CD (2010)\CD4\04. Harmonize - Drifting Sands.wav

Peak level 98.4 %
Extraction speed 6.4 X
Track quality 100.0 %
Test CRC 101AA915
Copy CRC 101AA915
Accurately ripped (confidence 1) [8F2ACBA5]
Copy OK

Track 5

Filename F:\ЗАГРУЗКИ\ Simply Relaxation 4CD (2010)\CD4\05. Brent Alan Plain - Birth Of The Planets.wav

Peak level 77.7 %
Extraction speed 7.9 X
Track quality 100.0 %
Test CRC 1E15B424
Copy CRC 1E15B424
Accurately ripped (confidence 1) [471C2495]
Copy OK


All tracks accurately ripped

No errors occurred

End of status report

==== Log checksum 2B30E99950502139C424FE526176F6F90A8AB0562B79F3293D0E27693F8236E4 ====

[CUETools log; Date: 18.04.2016 20:53:33; Version: 2.1.4]
[CTDB TOCID: Ir7iqLJpIXKZmSvJ3BWCI76JGDg-] found.
Track | CTDB Status
1 | (2/2) Accurately ripped
2 | (2/2) Accurately ripped
3 | (2/2) Accurately ripped
4 | (2/2) Accurately ripped
5 | (2/2) Accurately ripped
[AccurateRip ID: 000bca6e-0037a470-3c0fe405] found.
Track [ CRC | V2 ] Status
01 [a10a1d9f|37ee9450] (0+3/3) Accurately ripped
02 [34eb6a13|9642c590] (0+3/3) Accurately ripped
03 [e216c18d|12d11485] (0+3/3) Accurately ripped
04 [8f2acba5|7f11a6e6] (0+3/3) Accurately ripped
05 [471c2495|96942ecc] (0+3/3) Accurately ripped

Track Peak [ CRC32 ] [W/O NULL] [ LOG ]
– 98,4 [CD6A9E52] [436997B5]
01 78,2 [A3F8C2E0] [1C89A809] CRC32
02 64,1 [A13C6B74] [EF994BEB] CRC32
03 90,9 [B7B4634F] [A2F8A13A] CRC32
04 98,4 [101AA915] [B99E07F3] CRC32
05 77,7 [1E15B424] [7DED08CE] CRC32

Thanks to Oleandris

See also:
V.A. - Simply Anti Stress [4CD Box Set] (2010)

CD 1:

LOSSLESS:
Nitroflare.com

MP3 320 kbps:
Nitroflare.com
_____________________________

CD 2:

LOSSLESS:
Nitroflare.com

MP3 320 kbps:
Nitroflare.com
_____________________________

CD 3:

LOSSLESS:
Nitroflare.com

MP3 320 kbps:
Nitroflare.com
_____________________________

CD 4:

LOSSLESS:
Nitroflare.com

MP3 320 kbps:
Nitroflare.com
_____________________________

Covers:
Nitroflare.com

CD 1:

LOSSLESS:
Turbobit.net

MP3 320 kbps:
Turbobit.net
_____________________________

CD 2:

LOSSLESS:
Depositfiles.com

MP3 320 kbps:
Turbobit.net
_____________________________

CD 3:

LOSSLESS:
Depositfiles.com

MP3 320 kbps:
Depositfiles.com
_____________________________

CD 4:

LOSSLESS:
Turbobit.net

MP3 320 kbps:
Turbobit.net
_____________________________

Covers:
Depositfiles.com