Subcategories

VA - Sweet Jazz Soul (1997)

Posted By: technick
VA - Sweet Jazz Soul (1997)

VA - Sweet Jazz Soul (1997)
EAC: flac (tracks) + cue + log | RAR, 3 %, 366,97 MB
mp3 320 kbps | RAR, 3 %, 141,98 MB | Scans | RAR, 3 %, 16,78 MB
Label: Warner Music Greece A.E. | Cat №: 9548-35134-2 | (DepositFiles+FilePost+Uploaded)

A Greek-only premium compilation, released with the music magazine "Jazz & Tzaz" (Issue 46-47).

Exact Audio Copy V1.0 beta 1 from 15. November 2010

EAC extraction logfile from 14. March 2011, 13:43

Various / Sweet Jazz Soul (Jazz & Tzaz 46-47)

Used drive : HL-DT-STDVD-RAM GH22NP20 Adapter: 1 ID: 1

Read mode : Secure
Utilize accurate stream : Yes
Defeat audio cache : Yes
Make use of C2 pointers : No

Read offset correction : 102
Overread into Lead-In and Lead-Out : No
Fill up missing offset samples with silence : Yes
Delete leading and trailing silent blocks : No
Null samples used in CRC calculations : Yes
Used interface : Native Win32 interface for Win NT & 2000
Gap handling : Appended to previous track

Used output format : User Defined Encoder
Selected bitrate : 896 kBit/s
Quality : High
Add ID3 tag : No
Command line compressor : C:\Program Files\Exact Audio Copy\Flac\flac.exe
Additional command line options : -5 -V -T "ARTIST=%a" -T "TITLE=%t" -T "ALBUM=%g" -T "DATE=%y" -T "TRACKNUMBER=%n" -T "GENRE=%m" -T "COMMENT=%e" %s -o %d


TOC of the extracted CD

Track | Start | Length | Start sector | End sector
––––––––––––––––––––––––––––-
1 | 0:00.00 | 5:42.12 | 0 | 25661
2 | 5:42.12 | 5:58.63 | 25662 | 52574
3 | 11:41.00 | 7:07.57 | 52575 | 84656
4 | 18:48.57 | 8:38.20 | 84657 | 123526
5 | 27:27.02 | 13:41.50 | 123527 | 185151
6 | 41:08.52 | 4:59.60 | 185152 | 207636
7 | 46:08.37 | 5:16.08 | 207637 | 231344
8 | 51:24.45 | 3:20.45 | 231345 | 246389
9 | 54:45.15 | 3:14.35 | 246390 | 260974
10 | 57:59.50 | 2:50.30 | 260975 | 273754


Track 1

Filename C:\New Folder\01. Charles Mingus - Wednesday Night Prayer Meeting.wav

Pre-gap length 0:00:02.00

Peak level 96.8 %
Extraction speed 1.6 X
Track quality 100.0 %
Test CRC 4E6E83B0
Copy CRC 4E6E83B0
Track not present in AccurateRip database
Copy OK

Track 2

Filename C:\New Folder\02. The Manhattan Transfer - Birdland.wav

Pre-gap length 0:00:01.42

Peak level 99.2 %
Extraction speed 1.9 X
Track quality 100.0 %
Test CRC 5B1EBC78
Copy CRC 5B1EBC78
Track not present in AccurateRip database
Copy OK

Track 3

Filename C:\New Folder\03. Herbie Mann - Memphis Underground.wav

Pre-gap length 0:00:01.43

Peak level 87.8 %
Extraction speed 2.2 X
Track quality 100.0 %
Test CRC 54E8E568
Copy CRC 54E8E568
Track not present in AccurateRip database
Copy OK

Track 4

Filename C:\New Folder\04. Modern Jazz Quartet With Sonny Rollins - Bags' Groove.wav

Pre-gap length 0:00:01.42

Peak level 81.0 %
Extraction speed 2.5 X
Track quality 100.0 %
Test CRC C950BF02
Copy CRC C950BF02
Track not present in AccurateRip database
Copy OK

Track 5

Filename C:\New Folder\05. John Coltrane - My Favorite Things.wav

Pre-gap length 0:00:01.42

Peak level 88.2 %
Extraction speed 2.8 X
Track quality 100.0 %
Test CRC AAE9882C
Copy CRC AAE9882C
Track not present in AccurateRip database
Copy OK

Track 6

Filename C:\New Folder\06. Ornette Coleman - Lonely Woman.wav

Pre-gap length 0:00:01.42

Peak level 99.0 %
Extraction speed 2.9 X
Track quality 100.0 %
Test CRC 7FD9E0F9
Copy CRC 7FD9E0F9
Track not present in AccurateRip database
Copy OK

Track 7

Filename C:\New Folder\07. Charles Lloyd - Sorcery.wav

Pre-gap length 0:00:01.42

Peak level 99.2 %
Extraction speed 2.3 X
Track quality 99.9 %
Test CRC B876DE62
Copy CRC B876DE62
Track not present in AccurateRip database
Copy OK

Track 8

Filename C:\New Folder\08. Keith Jarrett - Standing Outside.wav

Pre-gap length 0:00:01.43

Peak level 90.3 %
Extraction speed 2.9 X
Track quality 100.0 %
Test CRC 79BE6A3C
Copy CRC 79BE6A3C
Track not present in AccurateRip database
Copy OK

Track 9

Filename C:\New Folder\09. Bill Evans - B Minor Waltz.wav

Pre-gap length 0:00:01.43

Peak level 73.3 %
Extraction speed 3.0 X
Track quality 100.0 %
Test CRC 08B985BB
Copy CRC 08B985BB
Track not present in AccurateRip database
Copy OK

Track 10

Filename C:\New Folder\10. Ray Charles - I Got A Woman.wav

Pre-gap length 0:00:01.43

Peak level 98.9 %
Extraction speed 2.9 X
Track quality 100.0 %
Test CRC 1D3195B8
Copy CRC 1D3195B8
Track not present in AccurateRip database
Copy OK


None of the tracks are present in the AccurateRip database

No errors occurred

End of status report

==== Log checksum 0C5E591CF3416F2343A2F3FC974CB951AC5FDC638CE0D33D5A6BA3DA28D2C1CD ====

Tracklist:
01. Charles Mingus - Wednesday Night Prayer Meeting [05:42]
02. The Manhattan Transfer - Birdland [05:58]
03. Herbie Mann - Memphis Underground [07:07]
04. Modern Jazz Quartet With Sonny Rollins - Bags' Groove [08:38]
05. John Coltrane - My Favorite Things [13:41]
06. Ornette Coleman - Lonely Woman [04:59]
07. Charles Lloyd - Sorcery [Live] [05:16]
08. Keith Jarrett - Standing Outside [03:20]
09. Bill Evans - B Minor Waltz [03:14]
10. Ray Charles - I Got A Woman [02:50]
–––––––––––––
Total time [1:00:50]
VA - Sweet Jazz Soul (1997)
VA - Sweet Jazz Soul (1997)

No mirrors, please!
Not my rip! All Thanks to alekow!

Welcome to My Blog!
FilePost: Part1, Part2, mp3, scans.
Uploaded: Part1, Part2, mp3, scans.
DepositFiles: flac, mp3, scans.
pass: kermith