Subcategories

VA - Thank God It's Friday (OST) [2CD] (1978) [1997, Remastered Reissue]

Posted By: BlondStyle
VA - Thank God It's Friday (OST) [2CD] (1978) [1997, Remastered Reissue]

VA - Thank God It's Friday (The Original Motion Picture Soundtrack) [2CD] (1978) [1997, Remastered Reissue]
R&B, Funk/Soul, Disco | EAC Rip | FLAC, Tracks+CUE+LOG+Scans-300dpi (JPEG) | 01:46:33 h | 772,59 Mb
Label: Casablanca Records (Germany) | Released: 1997, March, 25

Thank God It's Friday is a 1978 American musical comedy film directed by Robert Klane and produced by Motown Productions and Casablanca Filmworks for Columbia Pictures. The film contains many popular disco songs, with many key performers featured, including Donna Summer, Diana Ross, Thelma Houston, The Commodores. A triple album containing many of the tracks heard in the film was a commercial success. The biggest hit single on the album was Donna Summer's "Last Dance", which won an Academy Award as well as a Golden Globe for Best Original Song and also made it to #3 on the US singles chart. The song was written by Paul Jabara, who the following year would go on to compose Summer's duet with Barbra Streisand, "No More Tears (Enough Is Enough)". Jabara himself performed two of the songs on the Thank God It's Friday soundtrack, and appeared in the film as well. The soundtrack album was originally issued as a 3 record set in 1978, of which the 3rd disc was a single side 12 inch single of the 15:45 minutes Donna Summer, "Je t'aime... moi non plus" track. Upon its 1978 release, a promo set of separate 12" singles of every track was released to select DJs only. An edited CD came out in 1995 on the budget label Rebound Records. A digitally remastered version of the full soundtrack on a 2 disc set was released on PolyGram Records on March 25, 1997. The company that holds the rights to the album is as of 1998 the Universal Music Group. Cameo's "Find My Way" was originally issued as a 7" single in 1975. Giorgio Moroder and Donna Summer's cover version of Serge Gainsbourg and Jane Birkin's 1969 hit single "Je t'aime... moi non plus" was also recorded a few years earlier, but had its debut on the soundtrack and was subsequently issued as an edited 7" single in a few countries in 1978. "Too Hot Ta Trot" was from The Commodores' 1977 album Commodores Live! – on certain editions of the Thank God It's Friday album replaced by a studio recording. Other titles on the soundtrack, including "Last Dance", were especially recorded for the film. Diana Ross' "Lovin' Livin' and Givin'" was remixed after the release of the soundtrack and used as the opening track on her 1978 album Ross. It was also released as a single in certain territories and has since been remixed and re-edited a number of times for inclusion on various hits packages issued by Motown/Universal Music. The final part of Donna Summer's "Last Dance" is later re-included as a separate track called 'Reprise' towards the end of the soundtrack album. An edited version of the whole track was the version issued on the 7" single in most countries, and this track can be found on many of Summer's compilations, including 1994's Endless Summer and 2003's The Journey: The Very Best of Donna Summer. The 12" single used the full-length 8:11 version. A live recording of the track was included on the album Live and More, issued in late 1978 and the following year the studio version was remixed by Giorgio Moroder for what was to be Summer's final Casablanca Records album, On The Radio: Greatest Hits Volumes 1 & 2. The 1979 mix can be found on Summer's 1993 and 2005 compilations The Donna Summer Anthology and Gold respectively. An extended remix of Summer's "With Your Love" was issued as a promo 12" single in 1978; a slightly shorter version of this can be found on the cd Mercury Records/PolyGram's 1987 release The Dance Collection: A Compilation of Twelve Inch Singles. The 8 track cartridge and cassette both feature the full length version. ~Wikipedia~
VA - Thank God It's Friday (OST) [2CD] (1978) [1997, Remastered Reissue]

VA - Thank God It's Friday (OST) [2CD] (1978) [1997, Remastered Reissue]

VA - Thank God It's Friday (OST) [2CD] (1978) [1997, Remastered Reissue]


Release of the album: 1978, April, 22 [2xLP Casablanca Record And Filmworks, Cat.# NBLP 7099-3, USA]
Release of this CD: 1997, March, 25 [CD Casablanca Records (Germany), Cat.# 534 606-2 / UPC: 731453460621]
Ⓟ 1978 Mercury Records a PolyGram Company, © 1978 Columbia Pictures, A Division of Columbia Pictures Industries, inc.
All songs Ⓟ 1978 Mercury Records except "Find My Way" Ⓟ 1975 Mercury Records and "Too Hot Ta Trot" Ⓟ 1977 Motown Record Corp., and "Lovin', Livin' And Givin'" and "Love Masterpiece" Ⓟ 1978 Motown Record Corp.
Digitally remastered by Gary N. Mayo at PolyGram Studios

Tracklist:

Disc 1

01. Love And Kisses - Thank God It's Friday (04:15)
Producer, Written-By – Alec R. Costandinos
02. Pattie Brooks - After Dark (07:52)
Producer – Simon Soussan
Written-By – Pattie Brooks

03. Donna Summer - With Your Love (04:00)
Producer, Written-By – Giorgio Moroder, Pete Bellotte
Written-By – Donna Summer

04. Donna Summer - Last Dance (08:09)
Producer – Bob Esty, Giorgio Moroder
Written-By – Paul Jabara

05. Paul Jabara - Disco Queen (03:46)
Producer – Bob Esty
Producer, Written-By – Paul Jabara

06. Cameo - Find My Way (04:57)
Producer – Larry Blackmon
Written-By – Johnny Melfi

07. The Commodores - Too Hot Ta Trot (03:24)
Producer – The Commodores, James Carmichael
Written-By – Lionel Richie, Milan Williams, R. LaPread, Thomas McClary, W. Orange, William King

08. Wright Bros. Flying Machine Leatherman's Theme (03:23)
Producer, Written-By – Arthur G. Wright
09. Marathon - I Wanna Dance (05:56)
Producer, Written-By – Pete Bellotte

Disc 2

01. Sunshine - Take It To The Zoo (07:59)
Producer – Arthur G. Wright
Written-By – Bruce Sudano, Donna Summer, Joe Esposito

02. Santa Esmeralda - Sevilla Nights (06:06)
Producer, Written-By – Jean-Manuel de Scarano, Nicolas Skorsky
Written-By – Jean-Claude Petit

03. Love And Kisses - You're The Most Precious Thing In My Life (07:55)
Producer, Written-By – Alec R. Costandinos
04. D. C. La Rue - Do You Want The Real Thing (04:41)
Producer, Written-By – Bob Esty
Written-By – D. C. La Rue

05. Paul Jabara - Trapped In A Stairway (03:23)
Producer, Written-By – Bob Esty, Paul Jabara
06. Natural Juices - Floyd's Theme (02:57)
Producer, Written-By – Dick St. Nicklaus
07. Diana Ross - Livin', Lovin', Givin' (04:39)
Producer – Hal Davis
Written-By – Kenneth Stover, Pam Davis

08. Thelma Houston - Love Masterpiece (04:02)
Producer, Written-By – Hal Davis
Written-By – Art Posey, Josef Powell

09 . Donna Summer - Last Dance (Reprise) (03:21)
Producer – Bob Esty, Giorgio Moroder
Written-By – Paul Jabara

10. Donna Summer - Je T'Aime (Moi Non Plus) [Special Bonus Track] (15:51)
Producer – Giorgio Moroder, Pete Bellotte
Written-By – Serge Gainsbourg


Exact Audio Copy V0.99 prebeta 5 from 4. May 2009

EAC extraction logfile from 17. January 2010, 14:18

Various / Thank God It's Friday (CD1)

Used drive : _NEC DVD_RW ND-3520AW Adapter: 2 ID: 0

Read mode : Secure
Utilize accurate stream : Yes
Defeat audio cache : Yes
Make use of C2 pointers : No

Read offset correction : 48
Overread into Lead-In and Lead-Out : No
Fill up missing offset samples with silence : Yes
Delete leading and trailing silent blocks : No
Null samples used in CRC calculations : Yes
Used interface : Native Win32 interface for Win NT & 2000
Gap handling : Appended to previous track

Used output format : User Defined Encoder
Selected bitrate : 896 kBit/s
Quality : High
Add ID3 tag : No
Command line compressor : D:\Programme\FLAC\flac.exe
Additional command line options : -V -8 -T "artist=%a" -T "title=%t" -T "album=%g" -T "date=%y" -T "tracknumber=%n" -T "genre=%m" %s


TOC of the extracted CD

Track | Start | Length | Start sector | End sector
––––––––––––––––––––––––––––-
1 | 0:00.00 | 4:14.57 | 0 | 19106
2 | 4:14.57 | 7:51.65 | 19107 | 54496
3 | 12:06.47 | 3:59.58 | 54497 | 72479
4 | 16:06.30 | 8:08.70 | 72480 | 109149
5 | 24:15.25 | 3:46.30 | 109150 | 126129
6 | 28:01.55 | 4:56.72 | 126130 | 148401
7 | 32:58.52 | 3:24.33 | 148402 | 163734
8 | 36:23.10 | 3:23.25 | 163735 | 178984
9 | 39:46.35 | 5:56.00 | 178985 | 205684


Track 1

Filename D:\Various - Thank God It's Friday\CD 1\01. Love And Kisses - Thank God It's Friday.wav

Pre-gap length 0:00:02.00

Peak level 99.9 %
Track quality 100.0 %
Test CRC 061E7181
Copy CRC 061E7181
Accurately ripped (confidence 1) [5795BA5A]
Copy OK

Track 2

Filename D:\Various - Thank God It's Friday\CD 1\02. Pattie Brooks - After Dark.wav

Peak level 100.0 %
Track quality 99.9 %
Test CRC 3187CC88
Copy CRC 3187CC88
Accurately ripped (confidence 1) [787C5CF5]
Copy OK

Track 3

Filename D:\Various - Thank God It's Friday\CD 1\03. Donna Summer - With Your Love.wav

Pre-gap length 0:00:00.02

Peak level 97.1 %
Track quality 100.0 %
Test CRC 1457EBC6
Copy CRC 1457EBC6
Accurately ripped (confidence 1) [8DF5C2A1]
Copy OK

Track 4

Filename D:\Various - Thank God It's Friday\CD 1\04. Donna Summer - Last Dance.wav

Pre-gap length 0:00:00.02

Peak level 100.0 %
Track quality 100.0 %
Test CRC 815B17E1
Copy CRC 815B17E1
Accurately ripped (confidence 1) [91802E37]
Copy OK

Track 5

Filename D:\Various - Thank God It's Friday\CD 1\05. Paul Jabara - Disco Queen.wav

Pre-gap length 0:00:00.02

Peak level 100.0 %
Track quality 100.0 %
Test CRC 1EDE04C5
Copy CRC 1EDE04C5
Accurately ripped (confidence 1) [C6D59739]
Copy OK

Track 6

Filename D:\Various - Thank God It's Friday\CD 1\06. Cameo - Find My Way.wav

Pre-gap length 0:00:00.02

Peak level 100.0 %
Track quality 100.0 %
Test CRC E995813D
Copy CRC E995813D
Accurately ripped (confidence 1) [C2B1DD3F]
Copy OK

Track 7

Filename D:\Various - Thank God It's Friday\CD 1\07. Commodores - To Hot Ta Trot.wav

Pre-gap length 0:00:00.02

Peak level 100.0 %
Track quality 100.0 %
Test CRC 69412F00
Copy CRC 69412F00
Accurately ripped (confidence 1) [BA00E414]
Copy OK

Track 8

Filename D:\Various - Thank God It's Friday\CD 1\08. Wright Bros. Flying Machine - Leatherman's Theme.wav

Pre-gap length 0:00:00.02

Peak level 98.9 %
Track quality 98.3 %
Test CRC DFF8C66B
Copy CRC DFF8C66B
Accurately ripped (confidence 1) [7D24862A]
Copy OK

Track 9

Filename D:\Various - Thank God It's Friday\CD 1\09. Marathon - I Wanna Dance.wav

Pre-gap length 0:00:00.02

Peak level 100.0 %
Track quality 99.9 %
Test CRC A78D8773
Copy CRC A78D8773
Accurately ripped (confidence 1) [ECF0D1AC]
Copy OK


All tracks accurately ripped

No errors occurred

End of status report

Exact Audio Copy V0.99 prebeta 5 from 4. May 2009

EAC extraction logfile from 17. January 2010, 15:06

Various / Thank God It's Friday (CD2)

Used drive : _NEC DVD_RW ND-3520AW Adapter: 2 ID: 0

Read mode : Secure
Utilize accurate stream : Yes
Defeat audio cache : Yes
Make use of C2 pointers : No

Read offset correction : 48
Overread into Lead-In and Lead-Out : No
Fill up missing offset samples with silence : Yes
Delete leading and trailing silent blocks : No
Null samples used in CRC calculations : Yes
Used interface : Native Win32 interface for Win NT & 2000
Gap handling : Appended to previous track

Used output format : User Defined Encoder
Selected bitrate : 896 kBit/s
Quality : High
Add ID3 tag : No
Command line compressor : D:\Programme\FLAC\flac.exe
Additional command line options : -V -8 -T "artist=%a" -T "title=%t" -T "album=%g" -T "date=%y" -T "tracknumber=%n" -T "genre=%m" %s


TOC of the extracted CD

Track | Start | Length | Start sector | End sector
––––––––––––––––––––––––––––-
1 | 0:00.00 | 7:58.55 | 0 | 35904
2 | 7:58.55 | 6:06.32 | 35905 | 63386
3 | 14:05.12 | 7:54.68 | 63387 | 99004
4 | 22:00.05 | 4:40.72 | 99005 | 120076
5 | 26:41.02 | 3:23.13 | 120077 | 135314
6 | 30:04.15 | 2:57.37 | 135315 | 148626
7 | 33:01.52 | 4:39.30 | 148627 | 169581
8 | 37:41.07 | 4:01.38 | 169582 | 187694
9 | 41:42.45 | 3:20.62 | 187695 | 202756
10 | 45:03.32 | 15:47.30 | 202757 | 273811


Track 1

Filename D:\Various - Thank God It's Friday\CD 2\01. Sunshine - Take It To The Zoo.wav

Pre-gap length 0:00:02.00

Peak level 97.1 %
Track quality 100.0 %
Test CRC FC3E9859
Copy CRC FC3E9859
Cannot be verified as accurate (confidence 3) [84888F84], AccurateRip returned [89784C1F]
Copy OK

Track 2

Filename D:\Various - Thank God It's Friday\CD 2\02. Santa Esmeralda - Sevilla Nights.wav

Peak level 100.0 %
Track quality 100.0 %
Test CRC 5AABA664
Copy CRC 5AABA664
Cannot be verified as accurate (confidence 3) [C558F3F4], AccurateRip returned [B66DF3C4]
Copy OK

Track 3

Filename D:\Various - Thank God It's Friday\CD 2\03. Love And Kisses - You're The Most Precious Thing In My Life.wav

Peak level 100.0 %
Track quality 100.0 %
Test CRC 84E1B307
Copy CRC 84E1B307
Cannot be verified as accurate (confidence 2) [359C2796], AccurateRip returned [82A378A3]
Copy OK

Track 4

Filename D:\Various - Thank God It's Friday\CD 2\04. D.C. LaRue - Do You Want The Real Thing.wav

Peak level 100.0 %
Track quality 100.0 %
Test CRC 96575A6A
Copy CRC 96575A6A
Cannot be verified as accurate (confidence 2) [1DDB18B4], AccurateRip returned [E7981C13]
Copy OK

Track 5

Filename D:\Various - Thank God It's Friday\CD 2\05. Paul Jabara - Trapped In A Stairway.wav

Peak level 100.0 %
Track quality 100.0 %
Test CRC B7C5A5BA
Copy CRC B7C5A5BA
Cannot be verified as accurate (confidence 2) [A68B8BA8], AccurateRip returned [53ACAEE6]
Copy OK

Track 6

Filename D:\Various - Thank God It's Friday\CD 2\06. Natural Juices - Floyd's Theme.wav

Peak level 100.0 %
Track quality 100.0 %
Test CRC 427E143F
Copy CRC 427E143F
Cannot be verified as accurate (confidence 2) [BA02C486], AccurateRip returned [DBE8ED4C]
Copy OK

Track 7

Filename D:\Various - Thank God It's Friday\CD 2\07. Diana Ross - Lovin', Livin' And Givin'.wav

Peak level 100.0 %
Track quality 100.0 %
Test CRC 7256B9B8
Copy CRC 7256B9B8
Cannot be verified as accurate (confidence 2) [C1AA4E1F], AccurateRip returned [E2BCF7E4]
Copy OK

Track 8

Filename D:\Various - Thank God It's Friday\CD 2\08. Thelma Houston - Love Masterpiece.wav

Peak level 100.0 %
Track quality 100.0 %
Test CRC E2A11A07
Copy CRC E2A11A07
Cannot be verified as accurate (confidence 2) [E9172454], AccurateRip returned [528F9A4B]
Copy OK

Track 9

Filename D:\Various - Thank God It's Friday\CD 2\09. Donna Summer - Last Dance.wav

Peak level 100.0 %
Track quality 100.0 %
Test CRC 19852B85
Copy CRC 19852B85
Cannot be verified as accurate (confidence 2) [2C4663C4], AccurateRip returned [35699F48]
Copy OK

Track 10

Filename D:\Various - Thank God It's Friday\CD 2\10. Donna Summer - Je T'aime (Moi Non Plus).wav

Pre-gap length 0:00:03.47

Peak level 99.9 %
Track quality 99.9 %
Test CRC E441A331
Copy CRC E441A331
Cannot be verified as accurate (confidence 3) [217BD799], AccurateRip returned [4EE7185A]
Copy OK


No tracks could be verified as accurate
You may have a different pressing from the one(s) in the database

No errors occurred

End of status report

foobar2000 1.3.9 / Dynamic Range Meter 1.1.1
log date: 2016-05-02 20:32:39

––––––––––––––––––––––––––––––––––––––––
Analyzed: Cameo / Thank God It's Friday (CD1) (1)
Commodores / Thank God It's Friday (CD1) (2)
Donna Summer / Thank God It's Friday (CD1) (3-4)
Love And Kisses / Thank God It's Friday (CD1) (5)
Marathon / Thank God It's Friday (CD1) (6)
Pattie Brooks / Thank God It's Friday (CD1) (7)
Paul Jabara / Thank God It's Friday (CD1) (8)
Wright Bros. Flying Machine / Thank God It's Friday (CD1) (9)
––––––––––––––––––––––––––––––––––––––––

DR Peak RMS Duration Track
––––––––––––––––––––––––––––––––––––––––
DR11 0.00 dB -13.04 dB 4:57 06-Find My Way
DR14 0.00 dB -15.77 dB 3:24 07-To Hot Ta Trot
DR12 -0.25 dB -13.78 dB 4:00 03-With Your Love
DR12 0.00 dB -14.47 dB 8:09 04-Last Dance
DR13 0.00 dB -15.73 dB 4:15 01-Thank God It's Friday
DR11 0.00 dB -12.48 dB 5:56 09-I Wanna Dance
DR13 0.00 dB -14.46 dB 7:52 02-After Dark
DR13 0.00 dB -14.85 dB 3:46 05-Disco Queen
DR12 -0.09 dB -14.50 dB 3:23 08-Leatherman's Theme
––––––––––––––––––––––––––––––––––––––––

Number of tracks: 9
Official DR value: DR13

Samplerate: 44100 Hz
Channels: 2
Bits per sample: 16
Bitrate: 970 kbps
Codec: FLAC
================================================================================

foobar2000 1.3.9 / Dynamic Range Meter 1.1.1
log date: 2016-05-02 20:34:21

––––––––––––––––––––––––––––––––––––––––
Analyzed: D.C. LaRue / Thank God It's Friday (CD2) (1)
Diana Ross / Thank God It's Friday (CD2) (2)
Donna Summer / Thank God It's Friday (CD2) (3-4)
Love And Kisses / Thank God It's Friday (CD2) (5)
Natural Juices / Thank God It's Friday (CD2) (6)
Paul Jabara / Thank God It's Friday (CD2) (7)
Santa Esmeralda / Thank God It's Friday (CD2) (8)
Sunshine / Thank God It's Friday (CD2) (9)
Thelma Houston / Thank God It's Friday (CD2) (10)
––––––––––––––––––––––––––––––––––––––––

DR Peak RMS Duration Track
––––––––––––––––––––––––––––––––––––––––
DR13 0.00 dB -15.67 dB 4:41 04-Do You Want The Real Thing
DR13 0.00 dB -15.28 dB 4:39 07-Lovin', Livin' And Givin'
DR11 0.00 dB -13.37 dB 3:21 09-Last Dance
DR15 0.00 dB -17.26 dB 15:47 10-Je T'aime (Moi Non Plus)
DR15 0.00 dB -16.83 dB 7:55 03-You're The Most Precious Thing In My Life
DR13 0.00 dB -15.70 dB 2:57 06-Floyd's Theme
DR14 0.00 dB -15.57 dB 3:23 05-Trapped In A Stairway
DR15 0.00 dB -16.23 dB 6:06 02-Sevilla Nights
DR12 -0.26 dB -14.40 dB 7:59 01-Take It To The Zoo
DR13 0.00 dB -14.26 dB 4:02 08-Love Masterpiece
––––––––––––––––––––––––––––––––––––––––

Number of tracks: 10
Official DR value: DR13

Samplerate: 44100 Hz
Channels: 2
Bits per sample: 16
Bitrate: 926 kbps
Codec: FLAC
================================================================================

All thanks to FunkyChris
Nitroflare
Disc 1 / Disc 2
Artwork
password: BlondStyle