Subcategories

V.A. - The Best Of Lounge 4 - The Ultimate Lounge Experience In The Mix [4CD] (2012)

Posted By: gribovar
V.A. - The Best Of Lounge 4 - The Ultimate Lounge Experience In The Mix [4CD] (2012)

V.A. - The Best Of Lounge 4 - The Ultimate Lounge Experience In The Mix [4CD] (2012)
EAC Rip | FLAC (tracks+.cue+log) - 1,49 GB | MP3 CBR 320 kbps (LAME 3.93) - 549 MB | Covers - 89 MB
Genre: Chillout, Downtempo, Lounge | RAR 3% Rec. | Label: DreaMusic (ПРЗ CD04960)

Openzone Bar, Paul Hardcastle, Weathertunes, Lemongrass, JoJo Effect, Cosmic Orient, Eskadet, Five Seasons and many more.
CD 1 Tracklist:
01. Openzone Bar - Lifestyle
02. Tim Angrave - Endless Horizons
03. No Noise - Expand Your Mind
04. Paul Hardcastle - Blew My Mind Ibiza Mix
05. Weathertunes - Feel You
06. Tim Angrave - Sunshine
07. Placid Larry - Light Blend
08. Openzone Bar Feat. Airily - Kamome
09. Lemongrass - Let Your Light Shine
10. Weathertunes - Bitter Past
11. Keisuke Sakai - Mizu Sumu

Total time: 57:00

CD 2 Tracklist:
01. JoJo Effect - Brass Des Belugas
02. Bossa De Botinho - Spacestar
03. Glam Sam And His Combo - Charmy
04. Club Des Belugas - Quatre Pieces Collees (Part 1)
05. Jojo Effect - Jazz Bizarre
06. Paul Hardcastle - Into The Blue
07. Jojo Effect - Somewhere In Between
08. Karen Gibson - Painted Room (The Galm Sam Groovy Remix)
09. Mirra - U Menya Est
10. Openzone Bar - Summer Drink
11. Lemongrass - Mermaid
12. Innamorato Della Musica - Venice

Total time: 56:41

CD 3 Tracklist:
01. Cosmic Orient - Eastern Light
02. Openzone Bar - Down Under Snowball
03. Lemongrass - Restaurant At The End Of The Universe
04. Eso Es - Electric Lotus
05. Don Shiva - Sunrise
06. Dangaa - Grassland End Breeze
07. Plasid Larry - Heart Shopping
08. Cosmic Orient - The Big Ocean
09. Eskadet - New Conditions
10. Lemongrass - Where's Mr Spock
11. Openzone Bar - Tranquility

Total time: 57:42

CD 4 Tracklist:
01. Club Des Belugas - Hot Vibes (Spesial Bar Tunes Edit)
02. Tafubar + Eskadet - Evil Naturegirl (Feat. Cara)
03. Five Seasons - Back On The Road
04. Breakfast Brothers - Away
05. Wearhertunes - So Confused
06. Tim Angrave - Belief
07. Five Seasons - Dance Above The Clouds
08. Tafubar + Eskadet - Overconfident
09. Daniel Ray Van Zyl - These Things
10. Breakfast Brothers - Heat Beats
11. Daniel Ray - Floodlight
12. Tafubar + Eskadet - You're A Paradox For Me

Total time: 01:02:16

Exact Audio Copy V1.0 beta 1 from 15. November 2010

EAC extraction logfile from 5. July 2012, 22:34

Various / The Best Of Lounge 4 CD1

Used drive : ASUS DRW-24B3ST Adapter: 3 ID: 0

Read mode : Secure
Utilize accurate stream : Yes
Defeat audio cache : Yes
Make use of C2 pointers : No

Read offset correction : 6
Overread into Lead-In and Lead-Out : No
Fill up missing offset samples with silence : Yes
Delete leading and trailing silent blocks : No
Null samples used in CRC calculations : Yes
Used interface : Native Win32 interface for Win NT & 2000
Gap handling : Appended to previous track

Used output format : User Defined Encoder
Selected bitrate : 1024 kBit/s
Quality : High
Add ID3 tag : No
Command line compressor : C:\Program Files\Exact Audio Copy\Flac\flac.exe
Additional command line options : -8 -V -T "ARTIST=%a" -T "TITLE=%t" -T "ALBUM=%g" -T "DATE=%y" -T "TRACKNUMBER=%n" -T "GENRE=%m" -T "COMMENT=ripped by Oleandris" %s


TOC of the extracted CD

Track | Start | Length | Start sector | End sector
––––––––––––––––––––––––––––-
1 | 0:00.00 | 5:32.15 | 0 | 24914
2 | 5:32.15 | 6:23.25 | 24915 | 53664
3 | 11:55.40 | 5:12.55 | 53665 | 77119
4 | 17:08.20 | 6:22.33 | 77120 | 105802
5 | 23:30.53 | 3:51.59 | 105803 | 123186
6 | 27:22.37 | 6:06.50 | 123187 | 150686
7 | 33:29.12 | 4:10.00 | 150687 | 169436
8 | 37:39.12 | 5:12.04 | 169437 | 192840
9 | 42:51.16 | 4:41.07 | 192841 | 213922
10 | 47:32.23 | 4:47.71 | 213923 | 235518
11 | 52:20.19 | 4:40.31 | 235519 | 256549


Track 1

Filename F:\ЗАГРУЗКИ\ The Best Of Lounge 4 - the ultimate lounge experience in the mix (2012)\CD1\01. Openzone Bar - Lifestyle.wav

Pre-gap length 0:00:02.00

Peak level 99.9 %
Extraction speed 3.5 X
Track quality 100.0 %
Test CRC 5C64BFA6
Copy CRC 5C64BFA6
Track not present in AccurateRip database
Copy OK

Track 2

Filename F:\ЗАГРУЗКИ\ The Best Of Lounge 4 - the ultimate lounge experience in the mix (2012)\CD1\02. Tim Angrave - Endless Horizons.wav

Peak level 100.0 %
Extraction speed 4.3 X
Track quality 100.0 %
Test CRC AED8D703
Copy CRC AED8D703
Track not present in AccurateRip database
Copy OK

Track 3

Filename F:\ЗАГРУЗКИ\ The Best Of Lounge 4 - the ultimate lounge experience in the mix (2012)\CD1\03. No Noise - Expand Your Mind.wav

Peak level 98.8 %
Extraction speed 4.7 X
Track quality 100.0 %
Test CRC 76E0D853
Copy CRC 76E0D853
Track not present in AccurateRip database
Copy OK

Track 4

Filename F:\ЗАГРУЗКИ\ The Best Of Lounge 4 - the ultimate lounge experience in the mix (2012)\CD1\04. Paul Hardcastle - Blew My Mind Ibiza Mix.wav

Peak level 98.8 %
Extraction speed 5.2 X
Track quality 100.0 %
Test CRC 7432C67C
Copy CRC 7432C67C
Track not present in AccurateRip database
Copy OK

Track 5

Filename F:\ЗАГРУЗКИ\ The Best Of Lounge 4 - the ultimate lounge experience in the mix (2012)\CD1\05. Weathertunes - Feel You.wav

Peak level 99.4 %
Extraction speed 4.4 X
Track quality 99.9 %
Test CRC D94F2C6C
Copy CRC D94F2C6C
Track not present in AccurateRip database
Copy OK

Track 6

Filename F:\ЗАГРУЗКИ\ The Best Of Lounge 4 - the ultimate lounge experience in the mix (2012)\CD1\06. Tim Angrave - Sunshine.wav

Peak level 100.0 %
Extraction speed 5.9 X
Track quality 100.0 %
Test CRC BCB51747
Copy CRC BCB51747
Track not present in AccurateRip database
Copy OK

Track 7

Filename F:\ЗАГРУЗКИ\ The Best Of Lounge 4 - the ultimate lounge experience in the mix (2012)\CD1\07. Placid Larry - Light Blend.wav

Peak level 100.0 %
Extraction speed 5.9 X
Track quality 100.0 %
Test CRC 18C0DC1A
Copy CRC 18C0DC1A
Track not present in AccurateRip database
Copy OK

Track 8

Filename F:\ЗАГРУЗКИ\ The Best Of Lounge 4 - the ultimate lounge experience in the mix (2012)\CD1\08. Openzone Bar Feat. Airily - Kamome.wav

Peak level 99.9 %
Extraction speed 6.4 X
Track quality 100.0 %
Test CRC 41E3CB9F
Copy CRC 41E3CB9F
Track not present in AccurateRip database
Copy OK

Track 9

Filename F:\ЗАГРУЗКИ\ The Best Of Lounge 4 - the ultimate lounge experience in the mix (2012)\CD1\09. Lemongrass - Let Your Light Shine.wav

Peak level 98.3 %
Extraction speed 6.5 X
Track quality 100.0 %
Test CRC 66F111FC
Copy CRC 66F111FC
Track not present in AccurateRip database
Copy OK

Track 10

Filename F:\ЗАГРУЗКИ\ The Best Of Lounge 4 - the ultimate lounge experience in the mix (2012)\CD1\10. Weathertunes - Bitter Past.wav

Peak level 99.4 %
Extraction speed 6.8 X
Track quality 100.0 %
Test CRC D618C83B
Copy CRC D618C83B
Track not present in AccurateRip database
Copy OK

Track 11

Filename F:\ЗАГРУЗКИ\ The Best Of Lounge 4 - the ultimate lounge experience in the mix (2012)\CD1\11. Keisuke Sakai - Mizu Sumu.wav

Peak level 98.4 %
Extraction speed 7.0 X
Track quality 100.0 %
Test CRC D0CEF55B
Copy CRC D0CEF55B
Track not present in AccurateRip database
Copy OK


None of the tracks are present in the AccurateRip database

No errors occurred

End of status report

==== Log checksum 44A567C77CB3173DC46D6F604F4122CE0A2642A6D6756E81AD131D8963AED9DD ====

[CUETools log; Date: 22.05.2017 3:38:39; Version: 2.1.4]
[CTDB TOCID: 9F3fI943v5freAhufkFuQ9zFcaU-] found.
Track | CTDB Status
1 | (3/3) Accurately ripped
2 | (3/3) Accurately ripped
3 | (3/3) Accurately ripped
4 | (3/3) Accurately ripped
5 | (3/3) Accurately ripped
6 | (3/3) Accurately ripped
7 | (3/3) Accurately ripped
8 | (3/3) Accurately ripped
9 | (3/3) Accurately ripped
10 | (3/3) Accurately ripped
11 | (3/3) Accurately ripped
[AccurateRip ID: 0018783f-00d1af20-730d5c0b] found.
Track [ CRC | V2 ] Status
01 [0027a16e|a7fb6843] (0+4/4) Accurately ripped
02 [4e40e072|e945d1f0] (0+4/4) Accurately ripped
03 [496dd471|abbcc210] (0+4/4) Accurately ripped
04 [4d6c5345|a6bd3c01] (0+4/4) Accurately ripped
05 [71876654|fe5c6dc6] (0+4/4) Accurately ripped
06 [7f9f54cd|8d4141ed] (0+4/4) Accurately ripped
07 [09f4a93a|aa52c91b] (0+4/4) Accurately ripped
08 [b2f39595|7b973c58] (0+4/4) Accurately ripped
09 [146d47c9|aa079066] (0+4/4) Accurately ripped
10 [13bd5d98|de1508c7] (0+4/4) Accurately ripped
11 [626e2bd1|31b80944] (0+4/4) Accurately ripped

Track Peak [ CRC32 ] [W/O NULL] [ LOG ]
– 100,0 [467E2005] [E7792716]
01 99,9 [5C64BFA6] [EDF7178D] CRC32
02 100,0 [AED8D703] [315AA3EB] CRC32
03 98,8 [76E0D853] [B397B629] CRC32
04 98,8 [7432C67C] [DAFB2ED3] CRC32
05 99,4 [D94F2C6C] [E2B92461] CRC32
06 100,0 [BCB51747] [A5B2E60A] CRC32
07 100,0 [18C0DC1A] [FF87B011] CRC32
08 99,9 [41E3CB9F] [D5B2AB8B] CRC32
09 98,3 [66F111FC] [F185D41F] CRC32
10 99,4 [D618C83B] [AEAB39D1] CRC32
11 98,4 [D0CEF55B] [61B3BA74] CRC32

Exact Audio Copy V1.0 beta 1 from 15. November 2010

EAC extraction logfile from 7. July 2012, 23:32

Various / The Best Of Lounge 4 CD2

Used drive : ASUS DRW-24B3ST Adapter: 3 ID: 0

Read mode : Secure
Utilize accurate stream : Yes
Defeat audio cache : Yes
Make use of C2 pointers : No

Read offset correction : 6
Overread into Lead-In and Lead-Out : No
Fill up missing offset samples with silence : Yes
Delete leading and trailing silent blocks : No
Null samples used in CRC calculations : Yes
Used interface : Native Win32 interface for Win NT & 2000
Gap handling : Appended to previous track

Used output format : User Defined Encoder
Selected bitrate : 1024 kBit/s
Quality : High
Add ID3 tag : No
Command line compressor : C:\Program Files\Exact Audio Copy\Flac\flac.exe
Additional command line options : -8 -V -T "ARTIST=%a" -T "TITLE=%t" -T "ALBUM=%g" -T "DATE=%y" -T "TRACKNUMBER=%n" -T "GENRE=%m" -T "COMMENT=ripped by Oleandris" %s


TOC of the extracted CD

Track | Start | Length | Start sector | End sector
––––––––––––––––––––––––––––-
1 | 0:00.00 | 4:55.55 | 0 | 22179
2 | 4:55.55 | 4:38.72 | 22180 | 43101
3 | 9:34.52 | 3:09.73 | 43102 | 57349
4 | 12:44.50 | 7:18.67 | 57350 | 90266
5 | 20:03.42 | 3:20.06 | 90267 | 105272
6 | 23:23.48 | 5:24.07 | 105273 | 129579
7 | 28:47.55 | 4:11.48 | 129580 | 148452
8 | 32:59.28 | 5:56.54 | 148453 | 175206
9 | 38:56.07 | 4:35.25 | 175207 | 195856
10 | 43:31.32 | 3:54.69 | 195857 | 213475
11 | 47:26.26 | 5:15.17 | 213476 | 237117
12 | 52:41.43 | 4:00.00 | 237118 | 255117


Track 1

Filename F:\ЗАГРУЗКИ\ Cafe Lounge vol.2 4CD (2012)\CD2\01. JoJo Effect - Brass Des Belugas.wav

Pre-gap length 0:00:02.00

Peak level 94.0 %
Extraction speed 3.5 X
Track quality 100.0 %
Test CRC 8DA57CBD
Copy CRC 8DA57CBD
Track not present in AccurateRip database
Copy OK

Track 2

Filename F:\ЗАГРУЗКИ\ Cafe Lounge vol.2 4CD (2012)\CD2\02. Bossa De Botinho - Spacestar.wav

Peak level 100.0 %
Extraction speed 4.1 X
Track quality 100.0 %
Test CRC CBE0CBEE
Copy CRC CBE0CBEE
Track not present in AccurateRip database
Copy OK

Track 3

Filename F:\ЗАГРУЗКИ\ Cafe Lounge vol.2 4CD (2012)\CD2\03. Glam Sam And His Combo - Charmy.wav

Peak level 98.8 %
Extraction speed 4.1 X
Track quality 100.0 %
Test CRC 1AF4925A
Copy CRC 1AF4925A
Track not present in AccurateRip database
Copy OK

Track 4

Filename F:\ЗАГРУЗКИ\ Cafe Lounge vol.2 4CD (2012)\CD2\04. Club Des Belugas - Quatre Pieces Collees (Part 1).wav

Peak level 96.6 %
Extraction speed 5.0 X
Track quality 100.0 %
Test CRC B10337AE
Copy CRC B10337AE
Track not present in AccurateRip database
Copy OK

Track 5

Filename F:\ЗАГРУЗКИ\ Cafe Lounge vol.2 4CD (2012)\CD2\05. Jojo Effect - Jazz Bizarre.wav

Peak level 94.4 %
Extraction speed 4.9 X
Track quality 100.0 %
Test CRC BC9F1AB4
Copy CRC BC9F1AB4
Track not present in AccurateRip database
Copy OK

Track 6

Filename F:\ЗАГРУЗКИ\ Cafe Lounge vol.2 4CD (2012)\CD2\06. Paul Hardcastle - Into The Blue.wav

Peak level 98.8 %
Extraction speed 4.6 X
Track quality 99.9 %
Test CRC 631C7EF7
Copy CRC 631C7EF7
Track not present in AccurateRip database
Copy OK

Track 7

Filename F:\ЗАГРУЗКИ\ Cafe Lounge vol.2 4CD (2012)\CD2\07. Jojo Effect - Somewhere In Between.wav

Peak level 94.4 %
Extraction speed 5.6 X
Track quality 100.0 %
Test CRC 37DDE485
Copy CRC 37DDE485
Track not present in AccurateRip database
Copy OK

Track 8

Filename F:\ЗАГРУЗКИ\ Cafe Lounge vol.2 4CD (2012)\CD2\08. Karen Gibson - Painted Room (The Galm Sam Groovy Remix).wav

Peak level 99.9 %
Extraction speed 6.3 X
Track quality 100.0 %
Test CRC 727AEE13
Copy CRC 727AEE13
Track not present in AccurateRip database
Copy OK

Track 9

Filename F:\ЗАГРУЗКИ\ Cafe Lounge vol.2 4CD (2012)\CD2\09. Mirra - U Menya Est.wav

Peak level 98.8 %
Extraction speed 6.3 X
Track quality 100.0 %
Test CRC 72D65DB3
Copy CRC 72D65DB3
Track not present in AccurateRip database
Copy OK

Track 10

Filename F:\ЗАГРУЗКИ\ Cafe Lounge vol.2 4CD (2012)\CD2\10. Openzone Bar - Sammer Drink.wav

Peak level 99.9 %
Extraction speed 6.4 X
Track quality 100.0 %
Test CRC 27065059
Copy CRC 27065059
Track not present in AccurateRip database
Copy OK

Track 11

Filename F:\ЗАГРУЗКИ\ Cafe Lounge vol.2 4CD (2012)\CD2\11. Lemongrass - Mermaid.wav

Peak level 98.3 %
Extraction speed 6.9 X
Track quality 100.0 %
Test CRC F249CA76
Copy CRC F249CA76
Track not present in AccurateRip database
Copy OK

Track 12

Filename F:\ЗАГРУЗКИ\ Cafe Lounge vol.2 4CD (2012)\CD2\12. Innamorato Della Musica - Venice.wav

Peak level 97.0 %
Extraction speed 6.9 X
Track quality 100.0 %
Test CRC B9C8ED11
Copy CRC B9C8ED11
Track not present in AccurateRip database
Copy OK


None of the tracks are present in the AccurateRip database

No errors occurred

End of status report

==== Log checksum B2503F920CC2D0D2D3034EC529F36F9BAC02961AEF1F9273955C11CE81F401EB ====

[CUETools log; Date: 22.05.2017 3:39:07; Version: 2.1.4]
[CTDB TOCID: UutaL5pP6Y6.5nAIw0H5lhIDqHQ-] found.
Track | CTDB Status
1 | (3/3) Accurately ripped
2 | (3/3) Accurately ripped
3 | (3/3) Accurately ripped
4 | (3/3) Accurately ripped
5 | (3/3) Accurately ripped
6 | (3/3) Accurately ripped
7 | (3/3) Accurately ripped
8 | (3/3) Accurately ripped
9 | (3/3) Accurately ripped
10 | (3/3) Accurately ripped
11 | (3/3) Accurately ripped
12 | (3/3) Accurately ripped
[AccurateRip ID: 00198715-00ee7067-b00d490c] found.
Track [ CRC | V2 ] Status
01 [53a0a3da|c5f5c561] (0+4/4) Accurately ripped
02 [034dca82|e02da879] (0+4/4) Accurately ripped
03 [1750190c|6f288369] (0+4/4) Accurately ripped
04 [393a3f59|ac45d83b] (0+4/4) Accurately ripped
05 [06f29d55|65d98f49] (0+4/4) Accurately ripped
06 [7204b38f|6a8df02f] (0+4/4) Accurately ripped
07 [91d26c21|e29825c9] (0+4/4) Accurately ripped
08 [e67c6005|61772f58] (0+4/4) Accurately ripped
09 [4b95ea23|b6749f1f] (0+4/4) Accurately ripped
10 [79fc18f0|5c0d71ce] (0+4/4) Accurately ripped
11 [63a0c001|b879b5db] (0+4/4) Accurately ripped
12 [3baa9b02|438ab01c] (0+4/4) Accurately ripped

Track Peak [ CRC32 ] [W/O NULL] [ LOG ]
– 100,0 [969FCB2A] [8BCEE6ED]
01 94,0 [8DA57CBD] [F25BE893] CRC32
02 100,0 [CBE0CBEE] [8AE8CEB1] CRC32
03 98,8 [1AF4925A] [D970DA7B] CRC32
04 96,6 [B10337AE] [5166144E] CRC32
05 94,4 [BC9F1AB4] [51FAA032] CRC32
06 98,8 [631C7EF7] [6181E773] CRC32
07 94,4 [37DDE485] [0E78CC38] CRC32
08 99,9 [727AEE13] [440A6DB6] CRC32
09 98,8 [72D65DB3] [ADBC3F77] CRC32
10 99,9 [27065059] [D7BA8852] CRC32
11 98,3 [F249CA76] [21C0BAFB] CRC32
12 97,0 [B9C8ED11] [B48C8AA3] CRC32

Exact Audio Copy V1.0 beta 1 from 15. November 2010

EAC extraction logfile from 5. July 2012, 23:13

Various / The Best Of Lounge 4 CD3

Used drive : ASUS DRW-24B3ST Adapter: 3 ID: 0

Read mode : Secure
Utilize accurate stream : Yes
Defeat audio cache : Yes
Make use of C2 pointers : No

Read offset correction : 6
Overread into Lead-In and Lead-Out : No
Fill up missing offset samples with silence : Yes
Delete leading and trailing silent blocks : No
Null samples used in CRC calculations : Yes
Used interface : Native Win32 interface for Win NT & 2000
Gap handling : Appended to previous track

Used output format : User Defined Encoder
Selected bitrate : 1024 kBit/s
Quality : High
Add ID3 tag : No
Command line compressor : C:\Program Files\Exact Audio Copy\Flac\flac.exe
Additional command line options : -8 -V -T "ARTIST=%a" -T "TITLE=%t" -T "ALBUM=%g" -T "DATE=%y" -T "TRACKNUMBER=%n" -T "GENRE=%m" -T "COMMENT=ripped by Oleandris" %s


TOC of the extracted CD

Track | Start | Length | Start sector | End sector
––––––––––––––––––––––––––––-
1 | 0:00.00 | 5:40.41 | 0 | 25540
2 | 5:40.41 | 4:03.05 | 25541 | 43770
3 | 9:43.46 | 6:29.08 | 43771 | 72953
4 | 16:12.54 | 5:30.05 | 72954 | 97708
5 | 21:42.59 | 5:28.69 | 97709 | 122377
6 | 27:11.53 | 7:04.67 | 122378 | 154244
7 | 34:16.45 | 4:44.00 | 154245 | 175544
8 | 39:00.45 | 3:21.61 | 175545 | 190680
9 | 42:22.31 | 6:06.47 | 190681 | 218177
10 | 48:29.03 | 5:13.45 | 218178 | 241697
11 | 53:42.48 | 4:00.05 | 241698 | 259702


Track 1

Filename F:\ЗАГРУЗКИ\ The Best Of Lounge 4 - the ultimate lounge experience in the mix (2012)\CD3\01. Cosmic Orient - Eastern Light.wav

Pre-gap length 0:00:02.00

Peak level 100.0 %
Extraction speed 3.6 X
Track quality 100.0 %
Test CRC 7E01C2B2
Copy CRC 7E01C2B2
Track not present in AccurateRip database
Copy OK

Track 2

Filename F:\ЗАГРУЗКИ\ The Best Of Lounge 4 - the ultimate lounge experience in the mix (2012)\CD3\02. Openzone Bar - Down Under Snowball.wav

Peak level 99.9 %
Extraction speed 3.2 X
Track quality 99.9 %
Test CRC 26B93D20
Copy CRC 26B93D20
Track not present in AccurateRip database
Copy OK

Track 3

Filename F:\ЗАГРУЗКИ\ The Best Of Lounge 4 - the ultimate lounge experience in the mix (2012)\CD3\03. Lemongrass - Restaurant At The End Of The Universe.wav

Peak level 98.3 %
Extraction speed 4.6 X
Track quality 100.0 %
Test CRC B1D9DC45
Copy CRC B1D9DC45
Track not present in AccurateRip database
Copy OK

Track 4

Filename F:\ЗАГРУЗКИ\ The Best Of Lounge 4 - the ultimate lounge experience in the mix (2012)\CD3\04. Eso Es - Electric Lotus.wav

Peak level 91.2 %
Extraction speed 4.2 X
Track quality 99.9 %
Test CRC DE8BD844
Copy CRC DE8BD844
Track not present in AccurateRip database
Copy OK

Track 5

Filename F:\ЗАГРУЗКИ\ The Best Of Lounge 4 - the ultimate lounge experience in the mix (2012)\CD3\05. Don Shiva - Sunrise.wav

Peak level 92.4 %
Extraction speed 5.3 X
Track quality 100.0 %
Test CRC ADF53736
Copy CRC ADF53736
Track not present in AccurateRip database
Copy OK

Track 6

Filename F:\ЗАГРУЗКИ\ The Best Of Lounge 4 - the ultimate lounge experience in the mix (2012)\CD3\06. Dangaa - Grassland End Breeze.wav

Peak level 98.1 %
Extraction speed 5.9 X
Track quality 100.0 %
Test CRC B7FAF44E
Copy CRC B7FAF44E
Track not present in AccurateRip database
Copy OK

Track 7

Filename F:\ЗАГРУЗКИ\ The Best Of Lounge 4 - the ultimate lounge experience in the mix (2012)\CD3\07. Plasid Larry - Heart Shopping.wav

Peak level 96.6 %
Extraction speed 6.1 X
Track quality 100.0 %
Test CRC 25905B9D
Copy CRC 25905B9D
Track not present in AccurateRip database
Copy OK

Track 8

Filename F:\ЗАГРУЗКИ\ The Best Of Lounge 4 - the ultimate lounge experience in the mix (2012)\CD3\08. Cosmic Orient - The Big Ocean.wav

Peak level 100.0 %
Extraction speed 6.0 X
Track quality 100.0 %
Test CRC EFCD4E89
Copy CRC EFCD4E89
Track not present in AccurateRip database
Copy OK

Track 9

Filename F:\ЗАГРУЗКИ\ The Best Of Lounge 4 - the ultimate lounge experience in the mix (2012)\CD3\09. Eskadet - New Conditions.wav

Peak level 97.6 %
Extraction speed 6.5 X
Track quality 100.0 %
Test CRC E7768D7D
Copy CRC E7768D7D
Track not present in AccurateRip database
Copy OK

Track 10

Filename F:\ЗАГРУЗКИ\ The Best Of Lounge 4 - the ultimate lounge experience in the mix (2012)\CD3\10. Lemongrass - Where's Mr Spock.wav

Peak level 98.2 %
Extraction speed 6.9 X
Track quality 100.0 %
Test CRC 94C50523
Copy CRC 94C50523
Track not present in AccurateRip database
Copy OK

Track 11

Filename F:\ЗАГРУЗКИ\ The Best Of Lounge 4 - the ultimate lounge experience in the mix (2012)\CD3\11. Openzone Bar - Tranquility.wav

Peak level 99.9 %
Extraction speed 5.4 X
Track quality 99.9 %
Test CRC A75842B1
Copy CRC A75842B1
Track not present in AccurateRip database
Copy OK


None of the tracks are present in the AccurateRip database

No errors occurred

End of status report

==== Log checksum 2CA4F58A73C655266177A64B5AC211A39EB1A789A97C6BE2E85BBC7AF9B27C79 ====

[CUETools log; Date: 22.05.2017 3:39:31; Version: 2.1.4]
[CTDB TOCID: xqy0zTkGaCUSDKMJcrgd8b8vgWo-] found.
Track | CTDB Status
1 | (3/3) Accurately ripped
2 | (3/3) Accurately ripped
3 | (3/3) Accurately ripped
4 | (3/3) Accurately ripped
5 | (3/3) Accurately ripped
6 | (3/3) Accurately ripped
7 | (3/3) Accurately ripped
8 | (3/3) Accurately ripped
9 | (3/3) Accurately ripped
10 | (3/3) Accurately ripped
11 | (3/3) Accurately ripped
[AccurateRip ID: 00187363-00d365ab-870d860b] found.
Track [ CRC | V2 ] Status
01 [0ed1f639|62aa5830] (0+4/4) Accurately ripped
02 [024ec65c|9f7bbd8a] (0+4/4) Accurately ripped
03 [37569036|a73d42a5] (0+4/4) Accurately ripped
04 [ad6d0d6c|34d3d0ff] (0+4/4) Accurately ripped
05 [cee0c735|8dd22e09] (0+4/4) Accurately ripped
06 [90119b48|8c94e0db] (0+4/4) Accurately ripped
07 [e7310092|636246b3] (0+4/4) Accurately ripped
08 [2ae0fdf8|0f36dff8] (0+4/4) Accurately ripped
09 [bd437ebf|9ffe8c83] (0+4/4) Accurately ripped
10 [e43b6ece|c55c6e39] (0+4/4) Accurately ripped
11 [2024dfc7|b5deeeed] (0+4/4) Accurately ripped

Track Peak [ CRC32 ] [W/O NULL] [ LOG ]
– 100,0 [479EDFA1] [2ABD1B13]
01 100,0 [7E01C2B2] [84D3E436] CRC32
02 99,9 [26B93D20] [0F01CABF] CRC32
03 98,3 [B1D9DC45] [3F767D20] CRC32
04 91,2 [DE8BD844] [7B39E847] CRC32
05 92,4 [ADF53736] [AF789CBB] CRC32
06 98,1 [B7FAF44E] [FEECF5DB] CRC32
07 96,6 [25905B9D] [DFD0A0C9] CRC32
08 100,0 [EFCD4E89] [FCC07314] CRC32
09 97,6 [E7768D7D] [B1E39DCC] CRC32
10 98,2 [94C50523] [B226ABC3] CRC32
11 99,9 [A75842B1] [C5497F83] CRC32

Exact Audio Copy V1.0 beta 1 from 15. November 2010

EAC extraction logfile from 6. July 2012, 14:43

Various / The Best Of Lounge 4 CD4

Used drive : PLEXTOR DVDR PX-L890SA Adapter: 5 ID: 0

Read mode : Secure
Utilize accurate stream : Yes
Defeat audio cache : Yes
Make use of C2 pointers : No

Read offset correction : 6
Overread into Lead-In and Lead-Out : No
Fill up missing offset samples with silence : Yes
Delete leading and trailing silent blocks : No
Null samples used in CRC calculations : Yes
Used interface : Native Win32 interface for Win NT & 2000
Gap handling : Appended to previous track

Used output format : User Defined Encoder
Selected bitrate : 1024 kBit/s
Quality : High
Add ID3 tag : No
Command line compressor : C:\Program Files\Exact Audio Copy\Flac\flac.exe
Additional command line options : -8 -V -T "ARTIST=%a" -T "TITLE=%t" -T "ALBUM=%g" -T "DATE=%y" -T "TRACKNUMBER=%n" -T "GENRE=%m" -T "COMMENT=ripped by Oleandris" %s


TOC of the extracted CD

Track | Start | Length | Start sector | End sector
––––––––––––––––––––––––––––-
1 | 0:00.00 | 6:58.56 | 0 | 31405
2 | 6:58.56 | 3:30.09 | 31406 | 47164
3 | 10:28.65 | 4:27.68 | 47165 | 67257
4 | 14:56.58 | 3:55.50 | 67258 | 84932
5 | 18:52.33 | 3:42.25 | 84933 | 101607
6 | 22:34.58 | 6:19.32 | 101608 | 130064
7 | 28:54.15 | 5:49.33 | 130065 | 156272
8 | 34:43.48 | 5:53.44 | 156273 | 182791
9 | 40:37.17 | 6:19.26 | 182792 | 211242
10 | 46:56.43 | 3:37.52 | 211243 | 227569
11 | 50:34.20 | 5:47.74 | 227570 | 253668
12 | 56:22.19 | 5:53.61 | 253669 | 280204


Track 1

Filename F:\ЗАГРУЗКИ\ The Best Of Lounge 4 - the ultimate lounge experience in the mix (2012)\CD4\01. Club Des Belugas - Hot Vibes (Spesial Bar Tunes Edit).wav

Pre-gap length 0:00:02.00

Peak level 96.6 %
Extraction speed 3.8 X
Track quality 99.9 %
Test CRC A962682C
Copy CRC A962682C
Track not present in AccurateRip database
Copy OK

Track 2

Filename F:\ЗАГРУЗКИ\ The Best Of Lounge 4 - the ultimate lounge experience in the mix (2012)\CD4\02. Tafubar + Eskadet - Evil Naturegirl (Feat. Cara).wav

Peak level 98.1 %
Extraction speed 4.4 X
Track quality 100.0 %
Test CRC 27B1B80F
Copy CRC 27B1B80F
Track not present in AccurateRip database
Copy OK

Track 3

Filename F:\ЗАГРУЗКИ\ The Best Of Lounge 4 - the ultimate lounge experience in the mix (2012)\CD4\03. Five Seasons - Back On The Road.wav

Peak level 99.9 %
Extraction speed 4.9 X
Track quality 100.0 %
Test CRC 342BA676
Copy CRC 342BA676
Track not present in AccurateRip database
Copy OK

Track 4

Filename F:\ЗАГРУЗКИ\ The Best Of Lounge 4 - the ultimate lounge experience in the mix (2012)\CD4\04. Breakfast Brothers - Away.wav

Peak level 100.0 %
Extraction speed 5.1 X
Track quality 100.0 %
Test CRC 4C1B83CC
Copy CRC 4C1B83CC
Track not present in AccurateRip database
Copy OK

Track 5

Filename F:\ЗАГРУЗКИ\ The Best Of Lounge 4 - the ultimate lounge experience in the mix (2012)\CD4\05. Wearhertunes - So Confused.wav

Peak level 99.4 %
Extraction speed 5.3 X
Track quality 100.0 %
Test CRC 878841CF
Copy CRC 878841CF
Track not present in AccurateRip database
Copy OK

Track 6

Filename F:\ЗАГРУЗКИ\ The Best Of Lounge 4 - the ultimate lounge experience in the mix (2012)\CD4\06. Tim Angrave - Belief.wav

Peak level 100.0 %
Extraction speed 6.1 X
Track quality 100.0 %
Test CRC 5CC5C3F2
Copy CRC 5CC5C3F2
Track not present in AccurateRip database
Copy OK

Track 7

Filename F:\ЗАГРУЗКИ\ The Best Of Lounge 4 - the ultimate lounge experience in the mix (2012)\CD4\07. Five Seasons - Dance Above The Clouds.wav

Peak level 98.8 %
Extraction speed 6.4 X
Track quality 100.0 %
Test CRC F5FE5046
Copy CRC F5FE5046
Track not present in AccurateRip database
Copy OK

Track 8

Filename F:\ЗАГРУЗКИ\ The Best Of Lounge 4 - the ultimate lounge experience in the mix (2012)\CD4\08. Tafubar + Eskadet - Overconfident.wav

Peak level 87.8 %
Extraction speed 6.7 X
Track quality 100.0 %
Test CRC 1E59D100
Copy CRC 1E59D100
Track not present in AccurateRip database
Copy OK

Track 9

Filename F:\ЗАГРУЗКИ\ The Best Of Lounge 4 - the ultimate lounge experience in the mix (2012)\CD4\09. Daniel Ray Van Zyl - These Things.wav

Peak level 100.0 %
Extraction speed 7.2 X
Track quality 100.0 %
Test CRC EB3EF51F
Copy CRC EB3EF51F
Track not present in AccurateRip database
Copy OK

Track 10

Filename F:\ЗАГРУЗКИ\ The Best Of Lounge 4 - the ultimate lounge experience in the mix (2012)\CD4\10. Breakfast Brothers - Heat Beats.wav

Peak level 100.0 %
Extraction speed 6.9 X
Track quality 100.0 %
Test CRC 894340D6
Copy CRC 894340D6
Track not present in AccurateRip database
Copy OK

Track 11

Filename F:\ЗАГРУЗКИ\ The Best Of Lounge 4 - the ultimate lounge experience in the mix (2012)\CD4\11. Daniel Ray - Floodlight.wav

Peak level 95.6 %
Extraction speed 6.3 X
Track quality 99.9 %
Test CRC 5393AEFD
Copy CRC 5393AEFD
Track not present in AccurateRip database
Copy OK

Track 12

Filename F:\ЗАГРУЗКИ\ The Best Of Lounge 4 - the ultimate lounge experience in the mix (2012)\CD4\12. Tafubar + Eskadet - You're A Paradox For Me.wav

Peak level 98.0 %
Extraction speed 7.8 X
Track quality 100.0 %
Test CRC 93118D8A
Copy CRC 93118D8A
Track not present in AccurateRip database
Copy OK


None of the tracks are present in the AccurateRip database

No errors occurred

End of status report

==== Log checksum C253455319BF09C32001D5325F4FD390A5B429E176B9A1C260776171FEBAE16C ====

[CUETools log; Date: 22.05.2017 3:40:06; Version: 2.1.4]
[CTDB TOCID: TgQMoVrO8KsrcdOUxwarliX1_r4-] found.
Track | CTDB Status
1 | (1/1) Accurately ripped
2 | (1/1) Accurately ripped
3 | (1/1) Accurately ripped
4 | (1/1) Accurately ripped
5 | (1/1) Accurately ripped
6 | (1/1) Accurately ripped
7 | (1/1) Accurately ripped
8 | (1/1) Accurately ripped
9 | (1/1) Accurately ripped
10 | (1/1) Accurately ripped
11 | (1/1) Accurately ripped
12 | (0/1) No match
[AccurateRip ID: 001b126b-00fd8985-a50e980c] found.
Track [ CRC | V2 ] Status
01 [4d36d85d|ab9b70ed] (0+3/3) Accurately ripped
02 [41523b40|70697b6e] (0+3/3) Accurately ripped
03 [27f188d7|c7004a68] (0+3/3) Accurately ripped
04 [d442a8f8|962badef] (0+3/3) Accurately ripped
05 [132296b5|d9172fcb] (0+3/3) Accurately ripped
06 [95d8739f|2547e75b] (0+3/3) Accurately ripped
07 [64321e8a|2e0a84a3] (0+3/3) Accurately ripped
08 [c54659a7|f8a7c6df] (0+3/3) Accurately ripped
09 [54c38bc6|c1ae92af] (0+3/3) Accurately ripped
10 [9d42a058|cd94d805] (0+3/3) Accurately ripped
11 [04d51b08|80f76eac] (0+3/3) Accurately ripped
12 [a609de88|f3fc7dbf] (0+1/1) Accurately ripped

Track Peak [ CRC32 ] [W/O NULL] [ LOG ]
– 100,0 [F6B91B02] [C06177CA]
01 96,6 [A962682C] [B796A89D] CRC32
02 98,1 [27B1B80F] [4FD77CC0] CRC32
03 99,9 [342BA676] [FC351560] CRC32
04 99,9 [4C1B83CC] [75F655B8] CRC32
05 99,4 [878841CF] [6C8147DD] CRC32
06 100,0 [5CC5C3F2] [7308C277] CRC32
07 98,8 [F5FE5046] [758D5B55] CRC32
08 87,8 [1E59D100] [FC8A88C4] CRC32
09 100,0 [EB3EF51F] [482D25AD] CRC32
10 100,0 [894340D6] [A659D32C] CRC32
11 95,6 [5393AEFD] [6946BD48] CRC32
12 98,0 [93118D8A] [FFF8B1A2] CRC32

Thanks to oleandris