Subcategories

V.A. - The Best Of Lounge 5 - The Ultimate Lounge Experience In The Mix [4CD] (2012)

Posted By: gribovar
V.A. - The Best Of Lounge 5 - The Ultimate Lounge Experience In The Mix [4CD] (2012)

V.A. - The Best Of Lounge 5 - The Ultimate Lounge Experience In The Mix [4CD] (2012)
EAC Rip | FLAC (tracks+.cue+log) - 1,34 GB | MP3 CBR 320 kbps (LAME 3.93) - 483 MB | Covers - 136 MB
Genre: Chillout, Downtempo, Lounge | RAR 3% Rec. | Label: DreaMusic (ПРЗ CD05974)

Christophe Goze, Openzone Bar, Jojo Effect, Bebo Best & The Super Lounge Orchestra, The James Taylor Quartet, Brenda Boykin and many more.
CD 1 Tracklist:
01. Christophe Goze - Someday I Will
02. Eriq Johnson & Deeper Sublime - Tranquil Dusk
03. Kitty The Bill - Cabriolet Tour
04. Openzone Bar - Where Noone Can Hear You
05. Jojo Effect - The Game
06. Five Seasons - Bridges Of Amsterdam
07. S.W. - Within A Dream
08. Newton feat. Twila.Too - New Beautiful Life
09. Jane Maximova feat. Dmitry Raschepkin - Morning Bird
10. Airily - Same Place
11. S.W. - Technicoloured Melodies

Total time: 56:21

CD 2 Tracklist:
01. Eriq Johnson feat. Ann B. - Hold My Hand
02. Jojo Effect - You're The Love
03. Bebo Best & The Super Lounge Orchestra - La Fleur De La Musique
04. Christophe Goze - Close To You
05. Kitty The Bill - Moon Lagoon
06. Eriq Johnson feat. Miss Wonder - La Verdad
07. Sans Chichi - Lost Moments
08. Bebo Best & The Super Lounge Orchestra - Life Is On The Sea
09. Club Des Belugas - Save A Little Love For Me
10. Anne Schnell - That's What You Get
11. Brenda Boykin - Don't Take My Love Away
12. Sans Chichi - 6 For Fun

Total time: 50:30

CD 3 Tracklist:
01. Minimatic - Didn't It Rain
02. Bebo Best & The Super Lounge Orchestra - Dolce Vita
03. The James Taylor Quartet - Home Is Where The Heart Is
04. Jean Honeymoon - Time
05. The James Taylor Quartet - Woman
06. Papa Cobana - Perfect Body
07. Jean Honeymoon - Electric
08. Papa Cobana - Tricky Dicky
09. Club Des Belugas - Straight To Memphis
10. Bebo Best & The Super Lounge Orchestra - Riempimi Di Baci
11. Jojo Effect - Glitter In Your Eyes

Total time: 47:06

CD 4 Tracklist:
01. Lazlo - The Ska Was Pink
02. The Golden Gate Quartet - Noah
03. Dutty Moonshine & Scubaroots - Elephant In The Room
04. Charlie Johnson & His Paradise Band - The Boy In The Boat
05. Anita O'Ray - Peanut Vendor
06. Lazlo - Les Yeux Noirs
07. Brenda Boykin - This Maybe Game
08. Yaziko - Eljala
09. Rodrigo Sanchez - French Moods
10. Jean Honeymoon - Deepa Nova
11. The James Taylor Quartet - The Template

Total time: 51:18

Exact Audio Copy V1.0 beta 3 from 29. August 2011

EAC extraction logfile from 20. December 2012, 19:29

VA / The Best Of Lounge 5 (CD1)

Used drive : HL-DT-STDVDRAM GT31N Adapter: 0 ID: 1

Read mode : Secure
Utilize accurate stream : Yes
Defeat audio cache : Yes
Make use of C2 pointers : No

Read offset correction : 103
Overread into Lead-In and Lead-Out : No
Fill up missing offset samples with silence : Yes
Delete leading and trailing silent blocks : No
Null samples used in CRC calculations : Yes
Used interface : Native Win32 interface for Win NT & 2000
Gap handling : Appended to previous track

Used output format : User Defined Encoder
Selected bitrate : 128 kBit/s
Quality : High
Add ID3 tag : No
Command line compressor : C:\Program Files (x86)\Exact Audio Copy\Flac\flac.exe
Additional command line options : -8 -V -T "ARTIST=%artist%" -T "TITLE=%title%" -T "ALBUM=%albumtitle%" -T "DATE=%year%" -T "TRACKNUMBER=%tracknr%" -T "GENRE=%genre%" -T "COMMENT=ripped by serginho199®" %source%


TOC of the extracted CD

Track | Start | Length | Start sector | End sector
––––––––––––––––––––––––––––-
1 | 0:00.00 | 6:54.73 | 0 | 31122
2 | 6:54.73 | 3:56.23 | 31123 | 48845
3 | 10:51.21 | 5:10.23 | 48846 | 72118
4 | 16:01.44 | 4:44.47 | 72119 | 93465
5 | 20:46.16 | 5:05.43 | 93466 | 116383
6 | 25:51.59 | 3:50.30 | 116384 | 133663
7 | 29:42.14 | 4:29.39 | 133664 | 153877
8 | 34:11.53 | 4:42.55 | 153878 | 175082
9 | 38:54.33 | 5:53.09 | 175083 | 201566
10 | 44:47.42 | 4:43.17 | 201567 | 222808
11 | 49:30.59 | 6:51.03 | 222809 | 253636


Track 1

Filename C:\EACrips\VA - The Best Of Lounge 5 - The Ultimate Lounge Experience In The Mix (2012) [FLAC]\1.01. Christophe Goze - Someday I Will.wav

Pre-gap length 0:00:02.00

Peak level 98.8 %
Extraction speed 1.3 X
Track quality 99.9 %
Test CRC F7EC9E7A
Copy CRC F7EC9E7A
Track not present in AccurateRip database
Copy OK

Track 2

Filename C:\EACrips\VA - The Best Of Lounge 5 - The Ultimate Lounge Experience In The Mix (2012) [FLAC]\1.02. Eriq Johnson & Deeper Sublime - Tranquil Dusk.wav

Peak level 98.8 %
Extraction speed 1.4 X
Track quality 100.0 %
Test CRC FF5A8694
Copy CRC FF5A8694
Track not present in AccurateRip database
Copy OK

Track 3

Filename C:\EACrips\VA - The Best Of Lounge 5 - The Ultimate Lounge Experience In The Mix (2012) [FLAC]\1.03. Kitty The Bill - Cabriolet Tour.wav

Peak level 96.6 %
Extraction speed 1.6 X
Track quality 100.0 %
Test CRC 01F5AC70
Copy CRC 01F5AC70
Track not present in AccurateRip database
Copy OK

Track 4

Filename C:\EACrips\VA - The Best Of Lounge 5 - The Ultimate Lounge Experience In The Mix (2012) [FLAC]\1.04. Openzone Bar - Where Noone Can Hear You.wav

Peak level 99.9 %
Extraction speed 1.8 X
Track quality 100.0 %
Test CRC CA3E35B1
Copy CRC CA3E35B1
Track not present in AccurateRip database
Copy OK

Track 5

Filename C:\EACrips\VA - The Best Of Lounge 5 - The Ultimate Lounge Experience In The Mix (2012) [FLAC]\1.05. Jojo Effect - The Game.wav

Peak level 100.0 %
Extraction speed 1.9 X
Track quality 100.0 %
Test CRC FF834780
Copy CRC FF834780
Track not present in AccurateRip database
Copy OK

Track 6

Filename C:\EACrips\VA - The Best Of Lounge 5 - The Ultimate Lounge Experience In The Mix (2012) [FLAC]\1.06. Five Seasons - Bridges Of Amsterdam.wav

Peak level 93.4 %
Extraction speed 1.7 X
Track quality 99.9 %
Test CRC 50B691A1
Copy CRC 50B691A1
Track not present in AccurateRip database
Copy OK

Track 7

Filename C:\EACrips\VA - The Best Of Lounge 5 - The Ultimate Lounge Experience In The Mix (2012) [FLAC]\1.07. S.W. - Within A Dream.wav

Peak level 98.4 %
Extraction speed 2.1 X
Track quality 100.0 %
Test CRC 1247AD71
Copy CRC 1247AD71
Track not present in AccurateRip database
Copy OK

Track 8

Filename C:\EACrips\VA - The Best Of Lounge 5 - The Ultimate Lounge Experience In The Mix (2012) [FLAC]\1.08. Newton feat. Twila.Too - New Beautiful Life.wav

Peak level 100.0 %
Extraction speed 2.2 X
Track quality 100.0 %
Test CRC D3C423C9
Copy CRC D3C423C9
Track not present in AccurateRip database
Copy OK

Track 9

Filename C:\EACrips\VA - The Best Of Lounge 5 - The Ultimate Lounge Experience In The Mix (2012) [FLAC]\1.09. Jane Maximova feat. Dmitry Raschepkin - Morning Bird.wav

Peak level 96.6 %
Extraction speed 2.4 X
Track quality 100.0 %
Test CRC DC3A5C06
Copy CRC DC3A5C06
Track not present in AccurateRip database
Copy OK

Track 10

Filename C:\EACrips\VA - The Best Of Lounge 5 - The Ultimate Lounge Experience In The Mix (2012) [FLAC]\1.10. Airily - Same Place.wav

Peak level 99.9 %
Extraction speed 2.4 X
Track quality 100.0 %
Test CRC 58325B3D
Copy CRC 58325B3D
Track not present in AccurateRip database
Copy OK

Track 11

Filename C:\EACrips\VA - The Best Of Lounge 5 - The Ultimate Lounge Experience In The Mix (2012) [FLAC]\1.11. S.W. - Technicoloured Melodies.wav

Peak level 98.4 %
Extraction speed 2.4 X
Track quality 99.9 %
Test CRC F5FB97D5
Copy CRC F5FB97D5
Track not present in AccurateRip database
Copy OK


None of the tracks are present in the AccurateRip database

No errors occurred

End of status report

–– CUETools DB Plugin V2.1.4

[CTDB TOCID: wzU_ApduG3cxG0bqs22lImgsSLc-] disk not present in database
Submit result: wzU_ApduG3cxG0bqs22lImgsSLc- has been uploaded


==== Log checksum 5EFE5B5CC17BA075E3CB17433E43D59BF410F399720B5E660184EA48D58A622F ====

[CUETools log; Date: 25.05.2017 9:47:12; Version: 2.1.4]
[CTDB TOCID: wzU_ApduG3cxG0bqs22lImgsSLc-] found.
Track | CTDB Status
1 | (3/3) Accurately ripped
2 | (3/3) Accurately ripped
3 | (3/3) Accurately ripped
4 | (3/3) Accurately ripped
5 | (3/3) Accurately ripped
6 | (3/3) Accurately ripped
7 | (3/3) Accurately ripped
8 | (3/3) Accurately ripped
9 | (3/3) Accurately ripped
10 | (3/3) Accurately ripped
11 | (3/3) Accurately ripped
[AccurateRip ID: 0016ed70-00c51347-a30d350b] found.
Track [ CRC | V2 ] Status
01 [a6109441|0511c8c9] (0+2/2) Accurately ripped
02 [4e72a021|c97be298] (0+2/2) Accurately ripped
03 [101799d4|b5dd491f] (0+2/2) Accurately ripped
04 [88bed28e|bbcf0511] (0+2/2) Accurately ripped
05 [048889a1|2589fdd2] (0+2/2) Accurately ripped
06 [ab3e984d|6a273661] (0+2/2) Accurately ripped
07 [129897d7|56a83516] (0+2/2) Accurately ripped
08 [d45f0ef3|5bd18456] (0+2/2) Accurately ripped
09 [f78412ae|959c02e5] (0+2/2) Accurately ripped
10 [fee829bf|3e9d8cc0] (0+2/2) Accurately ripped
11 [c4057d1f|a33f8ee2] (0+2/2) Accurately ripped

Track Peak [ CRC32 ] [W/O NULL] [ LOG ]
– 100,0 [F92B5A9B] [BB36A933]
01 98,8 [F7EC9E7A] [A23EA87F] CRC32
02 98,8 [FF5A8694] [DA6CB27B] CRC32
03 96,6 [01F5AC70] [F9C90E4B] CRC32
04 99,9 [CA3E35B1] [5069F776] CRC32
05 100,0 [FF834780] [3524C692] CRC32
06 93,4 [50B691A1] [1BD717F4] CRC32
07 98,4 [1247AD71] [4CEFB6E7] CRC32
08 100,0 [D3C423C9] [048AD664] CRC32
09 96,6 [DC3A5C06] [40B3F732] CRC32
10 99,9 [58325B3D] [4FAF9915] CRC32
11 98,4 [F5FB97D5] [003380BA] CRC32

Exact Audio Copy V1.0 beta 3 from 29. August 2011

EAC extraction logfile from 20. December 2012, 20:32

VA / The Best Of Lounge 5 (CD2)

Used drive : HL-DT-STDVDRAM GT31N Adapter: 0 ID: 1

Read mode : Secure
Utilize accurate stream : Yes
Defeat audio cache : Yes
Make use of C2 pointers : No

Read offset correction : 103
Overread into Lead-In and Lead-Out : No
Fill up missing offset samples with silence : Yes
Delete leading and trailing silent blocks : No
Null samples used in CRC calculations : Yes
Used interface : Native Win32 interface for Win NT & 2000
Gap handling : Appended to previous track

Used output format : User Defined Encoder
Selected bitrate : 128 kBit/s
Quality : High
Add ID3 tag : No
Command line compressor : C:\Program Files (x86)\Exact Audio Copy\Flac\flac.exe
Additional command line options : -8 -V -T "ARTIST=%artist%" -T "TITLE=%title%" -T "ALBUM=%albumtitle%" -T "DATE=%year%" -T "TRACKNUMBER=%tracknr%" -T "GENRE=%genre%" -T "COMMENT=ripped by serginho199®" %source%


TOC of the extracted CD

Track | Start | Length | Start sector | End sector
––––––––––––––––––––––––––––-
1 | 0:00.00 | 3:23.61 | 0 | 15285
2 | 3:23.61 | 4:34.11 | 15286 | 35846
3 | 7:57.72 | 5:07.49 | 35847 | 58920
4 | 13:05.46 | 5:52.16 | 58921 | 85336
5 | 18:57.62 | 4:14.10 | 85337 | 104396
6 | 23:11.72 | 4:58.50 | 104397 | 126796
7 | 28:10.47 | 5:03.39 | 126797 | 149560
8 | 33:14.11 | 3:32.09 | 149561 | 165469
9 | 36:46.20 | 3:09.36 | 165470 | 179680
10 | 39:55.56 | 2:37.53 | 179681 | 191508
11 | 42:33.34 | 3:46.03 | 191509 | 208461
12 | 46:19.37 | 4:11.30 | 208462 | 227316


Track 1

Filename C:\EACrips\VA - The Best Of Lounge 5 - The Ultimate Lounge Experience In The Mix (2012) [FLAC]\2.01. Eriq Johnson feat. Ann B. - Hold My Hand.wav

Pre-gap length 0:00:02.00

Peak level 98.8 %
Extraction speed 1.0 X
Track quality 99.9 %
Test CRC 061A52A5
Copy CRC 061A52A5
Track not present in AccurateRip database
Copy OK

Track 2

Filename C:\EACrips\VA - The Best Of Lounge 5 - The Ultimate Lounge Experience In The Mix (2012) [FLAC]\2.02. Jojo Effect - You're The Love.wav

Peak level 99.5 %
Extraction speed 1.4 X
Track quality 100.0 %
Test CRC 7E4D03AF
Copy CRC 7E4D03AF
Track not present in AccurateRip database
Copy OK

Track 3

Filename C:\EACrips\VA - The Best Of Lounge 5 - The Ultimate Lounge Experience In The Mix (2012) [FLAC]\2.03. Bebo Best & The Super Lounge Orchestra - La Fleur De La Musique.wav

Peak level 97.7 %
Extraction speed 1.6 X
Track quality 100.0 %
Test CRC 5E3D4C31
Copy CRC 5E3D4C31
Track not present in AccurateRip database
Copy OK

Track 4

Filename C:\EACrips\VA - The Best Of Lounge 5 - The Ultimate Lounge Experience In The Mix (2012) [FLAC]\2.04. Christophe Goze - Close To You.wav

Peak level 98.8 %
Extraction speed 1.8 X
Track quality 100.0 %
Test CRC A966FE3D
Copy CRC A966FE3D
Track not present in AccurateRip database
Copy OK

Track 5

Filename C:\EACrips\VA - The Best Of Lounge 5 - The Ultimate Lounge Experience In The Mix (2012) [FLAC]\2.05. Kitty The Bill - Moon Lagoon.wav

Peak level 99.5 %
Extraction speed 1.8 X
Track quality 100.0 %
Test CRC 4AE2ACE5
Copy CRC 4AE2ACE5
Track not present in AccurateRip database
Copy OK

Track 6

Filename C:\EACrips\VA - The Best Of Lounge 5 - The Ultimate Lounge Experience In The Mix (2012) [FLAC]\2.06. Eriq Johnson feat. Miss Wonder - La Verdad.wav

Peak level 98.8 %
Extraction speed 2.0 X
Track quality 100.0 %
Test CRC 0B75C0C1
Copy CRC 0B75C0C1
Track not present in AccurateRip database
Copy OK

Track 7

Filename C:\EACrips\VA - The Best Of Lounge 5 - The Ultimate Lounge Experience In The Mix (2012) [FLAC]\2.07. Sans Chichi - Lost Moments.wav

Peak level 87.6 %
Extraction speed 2.1 X
Track quality 100.0 %
Test CRC 9953D4D8
Copy CRC 9953D4D8
Track not present in AccurateRip database
Copy OK

Track 8

Filename C:\EACrips\VA - The Best Of Lounge 5 - The Ultimate Lounge Experience In The Mix (2012) [FLAC]\2.08. Bebo Best & The Super Lounge Orchestra - Life Is On The Sea.wav

Peak level 95.0 %
Extraction speed 1.8 X
Track quality 99.9 %
Test CRC 33BC239D
Copy CRC 33BC239D
Track not present in AccurateRip database
Copy OK

Track 9

Filename C:\EACrips\VA - The Best Of Lounge 5 - The Ultimate Lounge Experience In The Mix (2012) [FLAC]\2.09. Club Des Belugas - Save A Little Love For Me.wav

Peak level 96.5 %
Extraction speed 2.1 X
Track quality 100.0 %
Test CRC 95A528F9
Copy CRC 95A528F9
Track not present in AccurateRip database
Copy OK

Track 10

Filename C:\EACrips\VA - The Best Of Lounge 5 - The Ultimate Lounge Experience In The Mix (2012) [FLAC]\2.10. Anne Schnell - That's What You Get.wav

Peak level 96.5 %
Extraction speed 1.8 X
Track quality 99.9 %
Test CRC EA7F8DCD
Copy CRC EA7F8DCD
Track not present in AccurateRip database
Copy OK

Track 11

Filename C:\EACrips\VA - The Best Of Lounge 5 - The Ultimate Lounge Experience In The Mix (2012) [FLAC]\2.11. Brenda Boykin - Don't Take My Love Away.wav

Peak level 97.7 %
Extraction speed 2.3 X
Track quality 100.0 %
Test CRC 270EC156
Copy CRC 270EC156
Track not present in AccurateRip database
Copy OK

Track 12

Filename C:\EACrips\VA - The Best Of Lounge 5 - The Ultimate Lounge Experience In The Mix (2012) [FLAC]\2.12. Sans Chichi - 6 For Fun.wav

Peak level 75.6 %
Extraction speed 2.4 X
Track quality 100.0 %
Test CRC EBC1591F
Copy CRC EBC1591F
Track not present in AccurateRip database
Copy OK


None of the tracks are present in the AccurateRip database

No errors occurred

End of status report

–– CUETools DB Plugin V2.1.4

[CTDB TOCID: qpcfT7by97.OMx6wAklMTvdtUAg-] disk not present in database
Submit result: qpcfT7by97.OMx6wAklMTvdtUAg- has been uploaded


==== Log checksum 687B33899E4A5C2A9CA4317BCBAA427A191A05CA4765837A86F85DC2DDB447FE ====

[CUETools log; Date: 25.05.2017 9:47:54; Version: 2.1.4]
[CTDB TOCID: qpcfT7by97.OMx6wAklMTvdtUAg-] found.
Track | CTDB Status
1 | (2/2) Accurately ripped
2 | (2/2) Accurately ripped
3 | (2/2) Accurately ripped
4 | (2/2) Accurately ripped
5 | (2/2) Accurately ripped
6 | (2/2) Accurately ripped
7 | (2/2) Accurately ripped
8 | (2/2) Accurately ripped
9 | (2/2) Accurately ripped
10 | (2/2) Accurately ripped
11 | (2/2) Accurately ripped
12 | (2/2) Accurately ripped
[AccurateRip ID: 0017a129-00db1eac-c00bd60c] found.
Track [ CRC | V2 ] Status
01 [81f2c29b|487db04e] (0+2/2) Accurately ripped
02 [53ea1dc4|2adc273e] (0+2/2) Accurately ripped
03 [6b49b896|b88e00ff] (0+2/2) Accurately ripped
04 [3cf7608e|dc810abb] (0+2/2) Accurately ripped
05 [e633854e|94d8e20f] (0+2/2) Accurately ripped
06 [298342db|3dc90c23] (0+2/2) Accurately ripped
07 [d9d31794|f940ca05] (0+2/2) Accurately ripped
08 [e8a199e8|13a36d3f] (0+2/2) Accurately ripped
09 [3e571dcd|6cbaaff2] (0+2/2) Accurately ripped
10 [eba731a3|eaccbe11] (0+2/2) Accurately ripped
11 [c23dd517|2e6fc81c] (0+2/2) Accurately ripped
12 [c8541411|3d86416b] (0+2/2) Accurately ripped

Track Peak [ CRC32 ] [W/O NULL] [ LOG ]
– 99,5 [10F45A2F] [5C020302]
01 98,8 [061A52A5] [2322D17F] CRC32
02 99,5 [7E4D03AF] [D4B64B82] CRC32
03 97,7 [5E3D4C31] [082AE12F] CRC32
04 98,8 [A966FE3D] [C9C7C93E] CRC32
05 99,5 [4AE2ACE5] [FE2A3426] CRC32
06 98,8 [0B75C0C1] [64B68DE9] CRC32
07 87,6 [9953D4D8] [6AA3DB60] CRC32
08 94,9 [33BC239D] [197AFAA2] CRC32
09 96,5 [95A528F9] [7B776608] CRC32
10 96,5 [EA7F8DCD] [7A9BD167] CRC32
11 97,7 [270EC156] [A626ABC2] CRC32
12 75,6 [EBC1591F] [83788315] CRC32

Exact Audio Copy V1.0 beta 3 from 29. August 2011

EAC extraction logfile from 20. December 2012, 21:32

VA / The Best Of Lounge 5 (CD3)

Used drive : HL-DT-STDVDRAM GT31N Adapter: 0 ID: 1

Read mode : Secure
Utilize accurate stream : Yes
Defeat audio cache : Yes
Make use of C2 pointers : No

Read offset correction : 103
Overread into Lead-In and Lead-Out : No
Fill up missing offset samples with silence : Yes
Delete leading and trailing silent blocks : No
Null samples used in CRC calculations : Yes
Used interface : Native Win32 interface for Win NT & 2000
Gap handling : Appended to previous track

Used output format : User Defined Encoder
Selected bitrate : 128 kBit/s
Quality : High
Add ID3 tag : No
Command line compressor : C:\Program Files (x86)\Exact Audio Copy\Flac\flac.exe
Additional command line options : -8 -V -T "ARTIST=%artist%" -T "TITLE=%title%" -T "ALBUM=%albumtitle%" -T "DATE=%year%" -T "TRACKNUMBER=%tracknr%" -T "GENRE=%genre%" -T "COMMENT=ripped by ripped by serginho199®" %source%


TOC of the extracted CD

Track | Start | Length | Start sector | End sector
––––––––––––––––––––––––––––-
1 | 0:00.00 | 4:52.37 | 0 | 21936
2 | 4:52.37 | 4:54.38 | 21937 | 44024
3 | 9:47.00 | 3:20.19 | 44025 | 59043
4 | 13:07.19 | 3:41.33 | 59044 | 75651
5 | 16:48.52 | 4:06.41 | 75652 | 94142
6 | 20:55.18 | 3:25.63 | 94143 | 109580
7 | 24:21.06 | 3:44.26 | 109581 | 126406
8 | 28:05.32 | 3:57.04 | 126407 | 144185
9 | 32:02.36 | 5:14.03 | 144186 | 167738
10 | 37:16.39 | 4:30.22 | 167739 | 188010
11 | 41:46.61 | 5:19.47 | 188011 | 211982


Track 1

Filename C:\EACrips\VA - The Best Of Lounge 5 - The Ultimate Lounge Experience In The Mix (2012) [FLAC]\3.01. Minimatic - Didn't It Rain.wav

Pre-gap length 0:00:02.00

Peak level 94.4 %
Extraction speed 1.1 X
Track quality 99.9 %
Test CRC 2A31E611
Copy CRC 2A31E611
Track not present in AccurateRip database
Copy OK

Track 2

Filename C:\EACrips\VA - The Best Of Lounge 5 - The Ultimate Lounge Experience In The Mix (2012) [FLAC]\3.02. Bebo Best & The Super Lounge Orchestra - Dolce Vita.wav

Peak level 100.0 %
Extraction speed 1.4 X
Track quality 100.0 %
Test CRC E52DC16E
Copy CRC E52DC16E
Track not present in AccurateRip database
Copy OK

Track 3

Filename C:\EACrips\VA - The Best Of Lounge 5 - The Ultimate Lounge Experience In The Mix (2012) [FLAC]\3.03. The James Taylor Quartet - Home Is Where The Heart Is.wav

Peak level 98.4 %
Extraction speed 1.5 X
Track quality 100.0 %
Test CRC 7EFC75A6
Copy CRC 7EFC75A6
Track not present in AccurateRip database
Copy OK

Track 4

Filename C:\EACrips\VA - The Best Of Lounge 5 - The Ultimate Lounge Experience In The Mix (2012) [FLAC]\3.04. Jean Honeymoon - Time.wav

Peak level 97.9 %
Extraction speed 1.4 X
Track quality 99.9 %
Test CRC 3754F7B5
Copy CRC 3754F7B5
Track not present in AccurateRip database
Copy OK

Track 5

Filename C:\EACrips\VA - The Best Of Lounge 5 - The Ultimate Lounge Experience In The Mix (2012) [FLAC]\3.05. The James Taylor Quartet - Woman.wav

Peak level 98.6 %
Extraction speed 1.8 X
Track quality 100.0 %
Test CRC 240A12D8
Copy CRC 240A12D8
Track not present in AccurateRip database
Copy OK

Track 6

Filename C:\EACrips\VA - The Best Of Lounge 5 - The Ultimate Lounge Experience In The Mix (2012) [FLAC]\3.06. Papa Cobana - Perfect Body.wav

Peak level 96.6 %
Extraction speed 1.6 X
Track quality 99.9 %
Test CRC FE522CF3
Copy CRC FE522CF3
Track not present in AccurateRip database
Copy OK

Track 7

Filename C:\EACrips\VA - The Best Of Lounge 5 - The Ultimate Lounge Experience In The Mix (2012) [FLAC]\3.07. Jean Honeymoon - Electric.wav

Peak level 97.7 %
Extraction speed 1.9 X
Track quality 100.0 %
Test CRC 006D6252
Copy CRC 006D6252
Track not present in AccurateRip database
Copy OK

Track 8

Filename C:\EACrips\VA - The Best Of Lounge 5 - The Ultimate Lounge Experience In The Mix (2012) [FLAC]\3.08. Papa Cobana - Tricky Dicky.wav

Peak level 100.0 %
Extraction speed 1.8 X
Track quality 99.9 %
Test CRC 10E222E7
Copy CRC 10E222E7
Track not present in AccurateRip database
Copy OK

Track 9

Filename C:\EACrips\VA - The Best Of Lounge 5 - The Ultimate Lounge Experience In The Mix (2012) [FLAC]\3.09. Club Des Belugas - Straight To Memphis.wav

Peak level 96.6 %
Extraction speed 2.0 X
Track quality 99.9 %
Test CRC EB2F9032
Copy CRC EB2F9032
Track not present in AccurateRip database
Copy OK

Track 10

Filename C:\EACrips\VA - The Best Of Lounge 5 - The Ultimate Lounge Experience In The Mix (2012) [FLAC]\3.10. Bebo Best & The Super Lounge Orchestra - Riempimi Di Baci.wav

Peak level 95.5 %
Extraction speed 2.3 X
Track quality 100.0 %
Test CRC 3DF74AAF
Copy CRC 3DF74AAF
Track not present in AccurateRip database
Copy OK

Track 11

Filename C:\EACrips\VA - The Best Of Lounge 5 - The Ultimate Lounge Experience In The Mix (2012) [FLAC]\3.11. Jojo Effect - Glitter In Your Eyes.wav

Peak level 99.5 %
Extraction speed 2.4 X
Track quality 100.0 %
Test CRC 8835BF09
Copy CRC 8835BF09
Track not present in AccurateRip database
Copy OK


None of the tracks are present in the AccurateRip database

No errors occurred

End of status report

–– CUETools DB Plugin V2.1.4

[CTDB TOCID: o3XJKzSi8rHkLMgyMmHPKx5lY.M-] disk not present in database
Submit result: o3XJKzSi8rHkLMgyMmHPKx5lY.M- has been uploaded


==== Log checksum 9BFA134C4B11A8A540560D1A276F156BAE72653E616919CBF70CAC48C0ECE390 ====

[CUETools log; Date: 25.05.2017 9:48:56; Version: 2.1.4]
[CTDB TOCID: o3XJKzSi8rHkLMgyMmHPKx5lY.M-] found.
Track | CTDB Status
1 | (2/2) Accurately ripped
2 | (2/2) Accurately ripped
3 | (2/2) Accurately ripped
4 | (2/2) Accurately ripped
5 | (2/2) Accurately ripped
6 | (2/2) Accurately ripped
7 | (2/2) Accurately ripped
8 | (2/2) Accurately ripped
9 | (2/2) Accurately ripped
10 | (2/2) Accurately ripped
11 | (2/2) Accurately ripped
[AccurateRip ID: 0012f654-00a39524-a20b0a0b] found.
Track [ CRC | V2 ] Status
01 [e4aba9ec|05ba72bb] (0+2/2) Accurately ripped
02 [1ec48f49|6cd7e21e] (0+2/2) Accurately ripped
03 [83107926|f0ae9de1] (0+2/2) Accurately ripped
04 [93cef728|373d4352] (0+2/2) Accurately ripped
05 [6a13b252|b3286526] (0+2/2) Accurately ripped
06 [9ca574c1|76b3c10c] (0+2/2) Accurately ripped
07 [210c101a|2c29e29f] (0+2/2) Accurately ripped
08 [4342cfbf|13b5416b] (0+2/2) Accurately ripped
09 [7e96dfec|d69b8740] (0+2/2) Accurately ripped
10 [f61facf6|62df5d23] (0+2/2) Accurately ripped
11 [0689d3e3|97b543e4] (0+2/2) Accurately ripped

Track Peak [ CRC32 ] [W/O NULL] [ LOG ]
– 100,0 [7B115402] [334C29AA]
01 94,4 [2A31E611] [5BB625AC] CRC32
02 100,0 [E52DC16E] [4CA23DF2] CRC32
03 98,4 [7EFC75A6] [5BDCD7B8] CRC32
04 97,9 [3754F7B5] [4AA19DD8] CRC32
05 98,6 [240A12D8] [69492D4B] CRC32
06 96,6 [FE522CF3] [FC21591C] CRC32
07 97,7 [006D6252] [2459C3DD] CRC32
08 100,0 [10E222E7] [3490DACE] CRC32
09 96,5 [EB2F9032] [63AC554D] CRC32
10 95,5 [3DF74AAF] [0113A6EF] CRC32
11 99,5 [8835BF09] [8EB86A92] CRC32

Exact Audio Copy V1.0 beta 3 from 29. August 2011

EAC extraction logfile from 20. December 2012, 22:32

VA / The Best Of Lounge 5 (CD4)

Used drive : HL-DT-STDVDRAM GT31N Adapter: 0 ID: 1

Read mode : Secure
Utilize accurate stream : Yes
Defeat audio cache : Yes
Make use of C2 pointers : No

Read offset correction : 103
Overread into Lead-In and Lead-Out : No
Fill up missing offset samples with silence : Yes
Delete leading and trailing silent blocks : No
Null samples used in CRC calculations : Yes
Used interface : Native Win32 interface for Win NT & 2000
Gap handling : Appended to previous track

Used output format : User Defined Encoder
Selected bitrate : 128 kBit/s
Quality : High
Add ID3 tag : No
Command line compressor : C:\Program Files (x86)\Exact Audio Copy\Flac\flac.exe
Additional command line options : -8 -V -T "ARTIST=%artist%" -T "TITLE=%title%" -T "ALBUM=%albumtitle%" -T "DATE=%year%" -T "TRACKNUMBER=%tracknr%" -T "GENRE=%genre%" -T "COMMENT=ripped by ripped by serginho199®" %source%


TOC of the extracted CD

Track | Start | Length | Start sector | End sector
––––––––––––––––––––––––––––-
1 | 0:00.00 | 5:33.01 | 0 | 24975
2 | 5:33.01 | 3:46.65 | 24976 | 41990
3 | 9:19.66 | 3:44.27 | 41991 | 58817
4 | 13:04.18 | 4:44.20 | 58818 | 80137
5 | 17:48.38 | 3:42.04 | 80138 | 96791
6 | 21:30.42 | 4:44.37 | 96792 | 118128
7 | 26:15.04 | 4:05.25 | 118129 | 136528
8 | 30:20.29 | 7:31.06 | 136529 | 170359
9 | 37:51.35 | 4:38.07 | 170360 | 191216
10 | 42:29.42 | 3:40.51 | 191217 | 207767
11 | 46:10.18 | 5:08.26 | 207768 | 230893


Track 1

Filename C:\EACrips\VA - The Best Of Lounge 5 - The Ultimate Lounge Experience In The Mix (2012) [FLAC]\4.01. Lazlo - The Ska Was Pink.wav

Pre-gap length 0:00:02.00

Peak level 96.2 %
Extraction speed 1.3 X
Track quality 100.0 %
Test CRC 3E32C603
Copy CRC 3E32C603
Track not present in AccurateRip database
Copy OK

Track 2

Filename C:\EACrips\VA - The Best Of Lounge 5 - The Ultimate Lounge Experience In The Mix (2012) [FLAC]\4.02. The Golden Gate Quartet - Noah.wav

Peak level 98.0 %
Extraction speed 1.4 X
Track quality 100.0 %
Test CRC 85334E3B
Copy CRC 85334E3B
Track not present in AccurateRip database
Copy OK

Track 3

Filename C:\EACrips\VA - The Best Of Lounge 5 - The Ultimate Lounge Experience In The Mix (2012) [FLAC]\4.03. Dutty Moonshine & Scubaroots - Elephant In The Room.wav

Peak level 89.1 %
Extraction speed 1.5 X
Track quality 100.0 %
Test CRC 8443D23C
Copy CRC 8443D23C
Track not present in AccurateRip database
Copy OK

Track 4

Filename C:\EACrips\VA - The Best Of Lounge 5 - The Ultimate Lounge Experience In The Mix (2012) [FLAC]\4.04. Charlie Johnson & His Paradise Band - The Boy In The Boat.wav

Peak level 94.4 %
Extraction speed 1.7 X
Track quality 100.0 %
Test CRC 99FFC7BB
Copy CRC 99FFC7BB
Track not present in AccurateRip database
Copy OK

Track 5

Filename C:\EACrips\VA - The Best Of Lounge 5 - The Ultimate Lounge Experience In The Mix (2012) [FLAC]\4.05. Anita O'Ray - Peanut Vendor.wav

Peak level 96.6 %
Extraction speed 1.7 X
Track quality 100.0 %
Test CRC DBF30825
Copy CRC DBF30825
Track not present in AccurateRip database
Copy OK

Track 6

Filename C:\EACrips\VA - The Best Of Lounge 5 - The Ultimate Lounge Experience In The Mix (2012) [FLAC]\4.06. Lazlo - Les Yeux Noirs.wav

Peak level 96.2 %
Extraction speed 1.7 X
Track quality 99.9 %
Test CRC 08341DFC
Copy CRC 08341DFC
Track not present in AccurateRip database
Copy OK

Track 7

Filename C:\EACrips\VA - The Best Of Lounge 5 - The Ultimate Lounge Experience In The Mix (2012) [FLAC]\4.07. Brenda Boykin - This Maybe Game.wav

Peak level 99.7 %
Extraction speed 1.8 X
Track quality 99.9 %
Test CRC 540BD62F
Copy CRC 540BD62F
Track not present in AccurateRip database
Copy OK

Track 8

Filename C:\EACrips\VA - The Best Of Lounge 5 - The Ultimate Lounge Experience In The Mix (2012) [FLAC]\4.08. Yaziko - Eljala.wav

Peak level 100.0 %
Extraction speed 2.3 X
Track quality 100.0 %
Test CRC 349D634F
Copy CRC 349D634F
Track not present in AccurateRip database
Copy OK

Track 9

Filename C:\EACrips\VA - The Best Of Lounge 5 - The Ultimate Lounge Experience In The Mix (2012) [FLAC]\4.09. Rodrigo Sanchez - French Moods.wav

Peak level 97.7 %
Extraction speed 2.3 X
Track quality 100.0 %
Test CRC 76259CDF
Copy CRC 76259CDF
Track not present in AccurateRip database
Copy OK

Track 10

Filename C:\EACrips\VA - The Best Of Lounge 5 - The Ultimate Lounge Experience In The Mix (2012) [FLAC]\4.10. Jean Honeymoon - Deepa Nova.wav

Peak level 87.4 %
Extraction speed 2.3 X
Track quality 100.0 %
Test CRC 81D41213
Copy CRC 81D41213
Track not present in AccurateRip database
Copy OK

Track 11

Filename C:\EACrips\VA - The Best Of Lounge 5 - The Ultimate Lounge Experience In The Mix (2012) [FLAC]\4.11. The James Taylor Quartet - The Template.wav

Peak level 98.4 %
Extraction speed 2.5 X
Track quality 100.0 %
Test CRC 220C425E
Copy CRC 220C425E
Track not present in AccurateRip database
Copy OK


None of the tracks are present in the AccurateRip database

No errors occurred

End of status report

–– CUETools DB Plugin V2.1.4

[CTDB TOCID: ZTYou2hr1UzcS1IdfDJG4Tq6IqY-] disk not present in database
Submit result: ZTYou2hr1UzcS1IdfDJG4Tq6IqY- has been uploaded


==== Log checksum 9771DCFC4452C6C1DFA73B23A03CB08DC3005997E243A969B5E07EA5CD2D333D ====

[CUETools log; Date: 25.05.2017 9:50:18; Version: 2.1.4]
[CTDB TOCID: ZTYou2hr1UzcS1IdfDJG4Tq6IqY-] found.
Track | CTDB Status
1 | (2/2) Accurately ripped
2 | (2/2) Accurately ripped
3 | (2/2) Accurately ripped
4 | (2/2) Accurately ripped
5 | (2/2) Accurately ripped
6 | (2/2) Accurately ripped
7 | (2/2) Accurately ripped
8 | (2/2) Accurately ripped
9 | (2/2) Accurately ripped
10 | (2/2) Accurately ripped
11 | (2/2) Accurately ripped
[AccurateRip ID: 0014b72c-00b441f1-920c060b] found.
Track [ CRC | V2 ] Status
01 [544b48fd|251f15e0] (0+2/2) Accurately ripped
02 [c6bb10d5|ae29aa26] (0+2/2) Accurately ripped
03 [92cf3039|f2066c10] (0+2/2) Accurately ripped
04 [419ab3f3|76c093b1] (0+2/2) Accurately ripped
05 [d7ca06c6|1783502d] (0+2/2) Accurately ripped
06 [85324b27|40d4bf8d] (0+2/2) Accurately ripped
07 [8f5ee1a6|c4cca1a3] (0+2/2) Accurately ripped
08 [980d6649|96b43df8] (0+2/2) Accurately ripped
09 [4c02cf44|8d37eb51] (0+2/2) Accurately ripped
10 [b4251ce1|48b25f8f] (0+2/2) Accurately ripped
11 [6012feef|8499185c] (0+2/2) Accurately ripped

Track Peak [ CRC32 ] [W/O NULL] [ LOG ]
– 100,0 [C9CAA86B] [870085D4]
01 96,2 [3E32C603] [BD73FFC5] CRC32
02 98,0 [85334E3B] [21FAC69E] CRC32
03 89,1 [8443D23C] [9B54D4CA] CRC32
04 94,4 [99FFC7BB] [442E9140] CRC32
05 96,6 [DBF30825] [46603414] CRC32
06 96,2 [08341DFC] [CF23D4C6] CRC32
07 99,7 [540BD62F] [2154B10B] CRC32
08 100,0 [349D634F] [1D86E5E4] CRC32
09 97,7 [76259CDF] [C6029E64] CRC32
10 87,4 [81D41213] [E7E5B1C8] CRC32
11 98,4 [220C425E] [1315CEC3] CRC32

Thanks to serginho199

See also:
V.A. - The Best Of Lounge 4 - The Ultimate Lounge Experience In The Mix [4CD] (2012)