Subcategories

V.A. - The Best Of Lounge 6 - The Ultimate Lounge Experience In The Mix [2CD] (2014)

Posted By: gribovar
V.A. - The Best Of Lounge 6 - The Ultimate Lounge Experience In The Mix [2CD] (2014)

V.A. - The Best Of Lounge 6 - The Ultimate Lounge Experience In The Mix [2CD] (2014)
EAC Rip | FLAC (tracks+.cue+log) - 626 MB | MP3 CBR 320 kbps (LAME 3.93) - 238 MB | Covers - 171 MB
Genre: Chillout, Downtempo, Lounge | RAR 3% Rec. | Label: DreaMusic (ПРЗ CD05974)

Five Seasons, Lemongrass, Velvet Dreamer, Christophe Goze, Club Des Belugas, Jojo Effect and many more.
CD 1 Tracklist:
01. Five Seasons - Sky
02. Lemongrass - I'm Stellar
03. Ielo - Soleil d'hiver
04. Ficture - I Let It
05. Lemongrass - Liaison
06. Ficture - The Knee
07. Five Seasons - Sunshine and Sea
08. Lemongrass - Shinkansen
09. Velvet Dreamer - Footprints In The Sand
10. Christophe Goze - The Swan
11. Five Seasons - Travel In Peace

Total time: 51:45

CD 2 Tracklist:
01. Bebo Best & The SLO - Spaghetti Pizza E Cavaquinho
02. WDR Big Band - Aguas de Marco (Jojo Effect Remix)
03. Club Des Belugas feat. Lene Riebau - Never Think Twice
04. Bebo Best & The SLO - Toca O Coracao
05. Club Des Belugas feat. Brenda Boykin - Iko Iko
06. Mister T & Jean Honeymoon - Take Me Away
07. Jojo Effect - Smarter
08. Zouzoulectric - Breath Of A Dragon
09. Club Des Belugas feat. Helene Vogelsinger - Path Of Nothing
10. Bebo Best & The SLO - Je T'aime Moi Non Plus
11. Velvet Dreamer - Afternoon Tea

Total time: 49:28

Exact Audio Copy V1.0 beta 3 from 29. August 2011

EAC extraction logfile from 22. December 2014, 14:59

Various Artists / The Best Of Lounge 6 (CD1)

Used drive : TSSTcorpCDDVDW SH-224DB Adapter: 0 ID: 0

Read mode : Secure
Utilize accurate stream : Yes
Defeat audio cache : Yes
Make use of C2 pointers : No

Read offset correction : 6
Overread into Lead-In and Lead-Out : No
Fill up missing offset samples with silence : Yes
Delete leading and trailing silent blocks : No
Null samples used in CRC calculations : Yes
Used interface : Native Win32 interface for Win NT & 2000
Gap handling : Appended to previous track

Used output format : User Defined Encoder
Selected bitrate : 128 kBit/s
Quality : High
Add ID3 tag : No
Command line compressor : C:\Program Files (x86)\Exact Audio Copy\Flac\flac.exe
Additional command line options : -8 -V -T "ARTIST=%artist%" -T "TITLE=%title%" -T "ALBUM=%albumtitle%" -T "DATE=%year%" -T "TRACKNUMBER=%tracknr%" -T "GENRE=%genre%" -T "COMMENT=ripped by serginho199®" %source%


TOC of the extracted CD

Track | Start | Length | Start sector | End sector
––––––––––––––––––––––––––––-
1 | 0:00.00 | 4:30.23 | 0 | 20272
2 | 4:30.23 | 4:56.37 | 20273 | 42509
3 | 9:26.60 | 4:20.03 | 42510 | 62012
4 | 13:46.63 | 4:50.04 | 62013 | 83766
5 | 18:36.67 | 4:42.23 | 83767 | 104939
6 | 23:19.15 | 3:14.34 | 104940 | 119523
7 | 26:33.49 | 4:06.30 | 119524 | 138003
8 | 30:40.04 | 4:51.73 | 138004 | 159901
9 | 35:32.02 | 5:05.71 | 159902 | 182847
10 | 40:37.73 | 4:59.44 | 182848 | 205316
11 | 45:37.42 | 6:08.18 | 205317 | 232934


Track 1

Filename C:\EACrips\VA - The Best Of Lounge 6 - The Ultimate Lounge Experience In The Mix (2014) {ПРЗ CD007503}\1-01. Five Seasons - Sky.wav

Pre-gap length 0:00:02.00

Peak level 97.3 %
Extraction speed 1.8 X
Track quality 100.0 %
Test CRC C2371163
Copy CRC C2371163
Track not present in AccurateRip database
Copy OK

Track 2

Filename C:\EACrips\VA - The Best Of Lounge 6 - The Ultimate Lounge Experience In The Mix (2014) {ПРЗ CD007503}\1-02. Lemongrass - I'm Stellar.wav

Peak level 97.7 %
Extraction speed 1.9 X
Track quality 99.9 %
Test CRC 97E7DFDB
Copy CRC 97E7DFDB
Track not present in AccurateRip database
Copy OK

Track 3

Filename C:\EACrips\VA - The Best Of Lounge 6 - The Ultimate Lounge Experience In The Mix (2014) {ПРЗ CD007503}\1-03. Ielo - Soleil d'hiver.wav

Peak level 81.1 %
Extraction speed 2.3 X
Track quality 100.0 %
Test CRC 6459E8A6
Copy CRC 6459E8A6
Track not present in AccurateRip database
Copy OK

Track 4

Filename C:\EACrips\VA - The Best Of Lounge 6 - The Ultimate Lounge Experience In The Mix (2014) {ПРЗ CD007503}\1-04. Ficture - I Let It.wav

Peak level 96.6 %
Extraction speed 2.5 X
Track quality 100.0 %
Test CRC 05C44025
Copy CRC 05C44025
Track not present in AccurateRip database
Copy OK

Track 5

Filename C:\EACrips\VA - The Best Of Lounge 6 - The Ultimate Lounge Experience In The Mix (2014) {ПРЗ CD007503}\1-05. Lemongrass - Liaison.wav

Peak level 97.7 %
Extraction speed 2.6 X
Track quality 100.0 %
Test CRC D97DFE49
Copy CRC D97DFE49
Track not present in AccurateRip database
Copy OK

Track 6

Filename C:\EACrips\VA - The Best Of Lounge 6 - The Ultimate Lounge Experience In The Mix (2014) {ПРЗ CD007503}\1-06. Ficture - The Knee.wav

Peak level 96.6 %
Extraction speed 2.6 X
Track quality 100.0 %
Test CRC 2BDEC9F6
Copy CRC 2BDEC9F6
Track not present in AccurateRip database
Copy OK

Track 7

Filename C:\EACrips\VA - The Best Of Lounge 6 - The Ultimate Lounge Experience In The Mix (2014) {ПРЗ CD007503}\1-07. Five Seasons - Sunshine and Sea.wav

Peak level 97.3 %
Extraction speed 2.9 X
Track quality 100.0 %
Test CRC 08003267
Copy CRC 08003267
Track not present in AccurateRip database
Copy OK

Track 8

Filename C:\EACrips\VA - The Best Of Lounge 6 - The Ultimate Lounge Experience In The Mix (2014) {ПРЗ CD007503}\1-08. Lemongrass - Shinkansen.wav

Peak level 97.7 %
Extraction speed 3.1 X
Track quality 100.0 %
Test CRC 253426F6
Copy CRC 253426F6
Track not present in AccurateRip database
Copy OK

Track 9

Filename C:\EACrips\VA - The Best Of Lounge 6 - The Ultimate Lounge Experience In The Mix (2014) {ПРЗ CD007503}\1-09. Velvet Dreamer - Footprints In The Sand.wav

Peak level 97.0 %
Extraction speed 3.2 X
Track quality 100.0 %
Test CRC BD052397
Copy CRC BD052397
Track not present in AccurateRip database
Copy OK

Track 10

Filename C:\EACrips\VA - The Best Of Lounge 6 - The Ultimate Lounge Experience In The Mix (2014) {ПРЗ CD007503}\1-10. Christophe Goze - The Swan.wav

Peak level 100.0 %
Extraction speed 3.3 X
Track quality 100.0 %
Test CRC 125975CE
Copy CRC 125975CE
Track not present in AccurateRip database
Copy OK

Track 11

Filename C:\EACrips\VA - The Best Of Lounge 6 - The Ultimate Lounge Experience In The Mix (2014) {ПРЗ CD007503}\1-11. Five Seasons - Travel In Peace.wav

Peak level 97.3 %
Extraction speed 3.6 X
Track quality 100.0 %
Test CRC C3877B99
Copy CRC C3877B99
Track not present in AccurateRip database
Copy OK


None of the tracks are present in the AccurateRip database

No errors occurred

End of status report

–– CUETools DB Plugin V2.1.4

[CTDB TOCID: htkb7BvFb54r9MqtzjKdqXhNgog-] disk not present in database
Submit result: htkb7BvFb54r9MqtzjKdqXhNgog- has been uploaded


==== Log checksum A147EC64C3C97455659452198090DA6A99B9B73FAC089810AFE8AF36A38318BA ====

[CUETools log; Date: 28.05.2017 21:47:53; Version: 2.1.4]
[CTDB TOCID: htkb7BvFb54r9MqtzjKdqXhNgog-] found.
Track | CTDB Status
1 | (1/1) Accurately ripped
2 | (1/1) Accurately ripped
3 | (1/1) Accurately ripped
4 | (1/1) Accurately ripped
5 | (1/1) Accurately ripped
6 | (1/1) Accurately ripped
7 | (1/1) Accurately ripped
8 | (1/1) Accurately ripped
9 | (1/1) Accurately ripped
10 | (1/1) Accurately ripped
11 | (1/1) Accurately ripped
[AccurateRip ID: 0014a161-00b2ef11-970c210b] found.
Track [ CRC | V2 ] Status
01 [c4428f52|0a358895] (0+1/1) Accurately ripped
02 [f3036406|eeabee97] (0+1/1) Accurately ripped
03 [bdcb10ae|96de56a1] (0+1/1) Accurately ripped
04 [63610cfc|29e0f7f4] (0+1/1) Accurately ripped
05 [7bebfd3e|fb5671d5] (0+1/1) Accurately ripped
06 [cf7e03ea|2ff12595] (0+1/1) Accurately ripped
07 [eb924a4e|14042495] (0+1/1) Accurately ripped
08 [6090cbd8|3c1dc537] (0+1/1) Accurately ripped
09 [14f26327|ad951986] (0+1/1) Accurately ripped
10 [2f6c921f|38ba9228] (0+1/1) Accurately ripped
11 [7d0d2591|e822b06a] (0+1/1) Accurately ripped

Track Peak [ CRC32 ] [W/O NULL] [ LOG ]
– 100,0 [5DBECF54] [3ACE3436]
01 97,3 [C2371163] [2E5ABAB4] CRC32
02 97,7 [97E7DFDB] [445213A7] CRC32
03 81,1 [6459E8A6] [0C994955] CRC32
04 96,6 [05C44025] [E00C5E8C] CRC32
05 97,7 [D97DFE49] [E96EE4D1] CRC32
06 96,6 [2BDEC9F6] [92583C2E] CRC32
07 97,3 [08003267] [E44970BB] CRC32
08 97,7 [253426F6] [FE3F4D80] CRC32
09 97,0 [BD052397] [72D5ED48] CRC32
10 100,0 [125975CE] [89BB8C0D] CRC32
11 97,3 [C3877B99] [1B6CBA10] CRC32

Exact Audio Copy V1.0 beta 3 from 29. August 2011

EAC extraction logfile from 22. December 2014, 15:43

Various Artists / The Best Of Lounge 6 (CD2)

Used drive : TSSTcorpCDDVDW SH-224DB Adapter: 0 ID: 0

Read mode : Secure
Utilize accurate stream : Yes
Defeat audio cache : Yes
Make use of C2 pointers : No

Read offset correction : 6
Overread into Lead-In and Lead-Out : No
Fill up missing offset samples with silence : Yes
Delete leading and trailing silent blocks : No
Null samples used in CRC calculations : Yes
Used interface : Native Win32 interface for Win NT & 2000
Gap handling : Appended to previous track

Used output format : User Defined Encoder
Selected bitrate : 128 kBit/s
Quality : High
Add ID3 tag : No
Command line compressor : C:\Program Files (x86)\Exact Audio Copy\Flac\flac.exe
Additional command line options : -8 -V -T "ARTIST=%artist%" -T "TITLE=%title%" -T "ALBUM=%albumtitle%" -T "DATE=%year%" -T "TRACKNUMBER=%tracknr%" -T "GENRE=%genre%" -T "COMMENT=ripped by serginho199®" %source%


TOC of the extracted CD

Track | Start | Length | Start sector | End sector
––––––––––––––––––––––––––––-
1 | 0:00.00 | 4:09.45 | 0 | 18719
2 | 4:09.45 | 3:21.61 | 18720 | 33855
3 | 7:31.31 | 6:39.64 | 33856 | 63844
4 | 14:11.20 | 4:10.45 | 63845 | 82639
5 | 18:21.65 | 5:56.37 | 82640 | 109376
6 | 24:18.27 | 4:40.00 | 109377 | 130376
7 | 28:58.27 | 4:06.34 | 130377 | 148860
8 | 33:04.61 | 3:12.06 | 148861 | 163266
9 | 36:16.67 | 4:10.64 | 163267 | 182080
10 | 40:27.56 | 3:41.55 | 182081 | 198710
11 | 44:09.36 | 5:18.74 | 198711 | 222634


Track 1

Filename C:\EACrips\VA - The Best Of Lounge 6 - The Ultimate Lounge Experience In The Mix (2014) {ПРЗ CD007503}\2-01. Bebo Best & The SLO - Spaghetti Pizza E Cavaquinho.wav

Pre-gap length 0:00:02.00

Peak level 100.0 %
Extraction speed 1.8 X
Track quality 100.0 %
Test CRC AD81285A
Copy CRC AD81285A
Track not present in AccurateRip database
Copy OK

Track 2

Filename C:\EACrips\VA - The Best Of Lounge 6 - The Ultimate Lounge Experience In The Mix (2014) {ПРЗ CD007503}\2-02. WDR Big Band - Aguas de Marco (Jojo Effect Remix).wav

Peak level 94.0 %
Extraction speed 1.7 X
Track quality 99.9 %
Test CRC B91DCE3E
Copy CRC B91DCE3E
Track not present in AccurateRip database
Copy OK

Track 3

Filename C:\EACrips\VA - The Best Of Lounge 6 - The Ultimate Lounge Experience In The Mix (2014) {ПРЗ CD007503}\2-03. Club Des Belugas feat. Lene Riebau - Never Think Twice.wav

Peak level 96.6 %
Extraction speed 2.3 X
Track quality 100.0 %
Test CRC 190193C2
Copy CRC 190193C2
Track not present in AccurateRip database
Copy OK

Track 4

Filename C:\EACrips\VA - The Best Of Lounge 6 - The Ultimate Lounge Experience In The Mix (2014) {ПРЗ CD007503}\2-04. Bebo Best & The SLO - Toca O Coracao.wav

Peak level 97.9 %
Extraction speed 2.4 X
Track quality 100.0 %
Test CRC 6187A7F6
Copy CRC 6187A7F6
Track not present in AccurateRip database
Copy OK

Track 5

Filename C:\EACrips\VA - The Best Of Lounge 6 - The Ultimate Lounge Experience In The Mix (2014) {ПРЗ CD007503}\2-05. Club Des Belugas feat. Brenda Boykin - Iko Iko.wav

Peak level 96.6 %
Extraction speed 2.7 X
Track quality 100.0 %
Test CRC CAAC305E
Copy CRC CAAC305E
Track not present in AccurateRip database
Copy OK

Track 6

Filename C:\EACrips\VA - The Best Of Lounge 6 - The Ultimate Lounge Experience In The Mix (2014) {ПРЗ CD007503}\2-06. Mister T & Jean Honeymoon - Take Me Away.wav

Peak level 98.8 %
Extraction speed 2.8 X
Track quality 100.0 %
Test CRC 19908963
Copy CRC 19908963
Track not present in AccurateRip database
Copy OK

Track 7

Filename C:\EACrips\VA - The Best Of Lounge 6 - The Ultimate Lounge Experience In The Mix (2014) {ПРЗ CD007503}\2-07. Jojo Effect - Smarter.wav

Peak level 99.9 %
Extraction speed 2.9 X
Track quality 100.0 %
Test CRC 1F2D17AE
Copy CRC 1F2D17AE
Track not present in AccurateRip database
Copy OK

Track 8

Filename C:\EACrips\VA - The Best Of Lounge 6 - The Ultimate Lounge Experience In The Mix (2014) {ПРЗ CD007503}\2-08. Zouzoulectric - Breath Of A Dragon.wav

Peak level 96.6 %
Extraction speed 2.9 X
Track quality 100.0 %
Test CRC BC61D298
Copy CRC BC61D298
Track not present in AccurateRip database
Copy OK

Track 9

Filename C:\EACrips\VA - The Best Of Lounge 6 - The Ultimate Lounge Experience In The Mix (2014) {ПРЗ CD007503}\2-09. Club Des Belugas feat. Helene Vogelsinger - Path Of Nothing.wav

Peak level 96.6 %
Extraction speed 3.1 X
Track quality 100.0 %
Test CRC 77BFA319
Copy CRC 77BFA319
Track not present in AccurateRip database
Copy OK

Track 10

Filename C:\EACrips\VA - The Best Of Lounge 6 - The Ultimate Lounge Experience In The Mix (2014) {ПРЗ CD007503}\2-10. Bebo Best & The SLO - Je T'aime Moi Non Plus.wav

Peak level 97.7 %
Extraction speed 2.5 X
Track quality 99.9 %
Test CRC CE94F4C0
Copy CRC CE94F4C0
Track not present in AccurateRip database
Copy OK

Track 11

Filename C:\EACrips\VA - The Best Of Lounge 6 - The Ultimate Lounge Experience In The Mix (2014) {ПРЗ CD007503}\2-11. Velvet Dreamer - Afternoon Tea.wav

Peak level 95.9 %
Extraction speed 3.5 X
Track quality 100.0 %
Test CRC FCABC35D
Copy CRC FCABC35D
Track not present in AccurateRip database
Copy OK


None of the tracks are present in the AccurateRip database

No errors occurred

End of status report

–– CUETools DB Plugin V2.1.4

[CTDB TOCID: r5oy8IXFzFzUstXEmhWvPqmb5tc-] disk not present in database
Submit result: r5oy8IXFzFzUstXEmhWvPqmb5tc- has been uploaded


==== Log checksum CAE06BB7C0ABDDA6E0F2CF939D12A2CDF428A9073F94E3C2D49D8C8A58765A94 ====

[CUETools log; Date: 28.05.2017 21:48:20; Version: 2.1.4]
[CTDB TOCID: r5oy8IXFzFzUstXEmhWvPqmb5tc-] found.
Track | CTDB Status
1 | (1/1) Accurately ripped
2 | (1/1) Accurately ripped
3 | (1/1) Accurately ripped
4 | (1/1) Accurately ripped
5 | (1/1) Accurately ripped
6 | (1/1) Accurately ripped
7 | (1/1) Accurately ripped
8 | (1/1) Accurately ripped
9 | (1/1) Accurately ripped
10 | (1/1) Accurately ripped
11 | (1/1) Accurately ripped
[AccurateRip ID: 0014aa82-00b2c1d8-8b0b980b] found.
Track [ CRC | V2 ] Status
01 [2a05fcb7|b536d046] (0+1/1) Accurately ripped
02 [d5922512|8114a805] (0+1/1) Accurately ripped
03 [97a765d1|38c62665] (0+1/1) Accurately ripped
04 [c1f70995|d08d4874] (0+1/1) Accurately ripped
05 [1441dbc3|985f5bde] (0+1/1) Accurately ripped
06 [293ff83e|32831e74] (0+1/1) Accurately ripped
07 [876188fc|457609a1] (0+1/1) Accurately ripped
08 [f91cc09f|9aca0f45] (0+1/1) Accurately ripped
09 [8038dfb3|3ab4c340] (0+1/1) Accurately ripped
10 [d5ee3cf9|1594d81b] (0+1/1) Accurately ripped
11 [05d021f0|d3198dad] (0+1/1) Accurately ripped

Track Peak [ CRC32 ] [W/O NULL] [ LOG ]
– 100,0 [11C9D745] [634CFE62]
01 100,0 [AD81285A] [CC95143F] CRC32
02 94,0 [B91DCE3E] [478B670E] CRC32
03 96,6 [190193C2] [951B5B03] CRC32
04 97,9 [6187A7F6] [380C3D3D] CRC32
05 96,6 [CAAC305E] [6DCBEB3E] CRC32
06 98,8 [19908963] [DDE172C1] CRC32
07 99,9 [1F2D17AE] [8BA00EBC] CRC32
08 96,6 [BC61D298] [7F8C8AFC] CRC32
09 96,6 [77BFA319] [07F3105A] CRC32
10 97,7 [CE94F4C0] [F54252C6] CRC32
11 95,9 [FCABC35D] [06887C04] CRC32

Thanks to serginho199

See also:
V.A. - The Best Of Lounge 4 - The Ultimate Lounge Experience In The Mix [4CD] (2012)
V.A. - The Best Of Lounge 5 - The Ultimate Lounge Experience In The Mix [4CD] (2012)