Subcategories

VA - The Reggae Album (2016)

Posted By: JET 1
VA - The Reggae Album (2016)

VA - The Reggae Album (2016)
EAC Rip | FLAC (Tracks) +CUE, LOG | 867 MB | Covers Included
Genre: Reggae, Ska, Dub | Label: Universal Music TV | Catalog Number: 5369018

42 track album featuring Jimmy Cliff, Aswad, UB40, Ziggy Maley, Desmond Dekker, Ken Booth & More.

Exact Audio Copy V1.1 from 23. June 2015

EAC extraction logfile from 25. October 2016, 14:12

Various Artists / The Reggae Album - Disc 01

Used drive : HL-DT-STDVDRAM GSA-E40N Adapter: 1 ID: 1

Read mode : Secure
Utilize accurate stream : Yes
Defeat audio cache : No
Make use of C2 pointers : Yes

Read offset correction : 667
Overread into Lead-In and Lead-Out : No
Fill up missing offset samples with silence : Yes
Delete leading and trailing silent blocks : No
Null samples used in CRC calculations : Yes
Used interface : Native Win32 interface for Win NT & 2000
Gap handling : Not detected, thus appended to previous track

Used output format : User Defined Encoder
Selected bitrate : 768 kBit/s
Quality : High
Add ID3 tag : No
Command line compressor : C:\Program Files (x86)\Exact Audio Copy\FLAC\FLAC.EXE
Additional command line options : -6 -V -T "ARTIST=%artist%" -T "TITLE=%title%" -T "ALBUM=%albumtitle%" -T "DATE=%year%" -T "TRACKNUMBER=%tracknr%" -T "GENRE=%genre%" -T "COMMENT=%comment%" -T "BAND=%albuminterpret%" -T "ALBUMARTIST=%albuminterpret%" -T "COMPOSER=%composer%" %haslyrics%–tag-from-file=LYRICS="%lyricsfile%"%haslyrics% -T "DISCNUMBER=%cdnumber%" -T "TOTALDISCS=%totalcds%" -T "TOTALTRACKS=%numtracks%" %hascover%–picture="%coverfile%"%hascover% %source% -o %dest%


TOC of the extracted CD

Track | Start | Length | Start sector | End sector
––––––––––––––––––––––––––––-
1 | 0:00.00 | 3:38.43 | 0 | 16392
2 | 3:38.43 | 2:59.50 | 16393 | 29867
3 | 6:38.18 | 4:04.52 | 29868 | 48219
4 | 10:42.70 | 3:44.03 | 48220 | 65022
5 | 14:26.73 | 4:05.08 | 65023 | 83405
6 | 18:32.06 | 3:45.26 | 83406 | 100306
7 | 22:17.32 | 4:30.05 | 100307 | 120561
8 | 26:47.37 | 3:31.66 | 120562 | 136452
9 | 30:19.28 | 6:00.45 | 136453 | 163497
10 | 36:19.73 | 3:45.34 | 163498 | 180406
11 | 40:05.32 | 3:54.47 | 180407 | 198003
12 | 44:00.04 | 3:03.34 | 198004 | 211762
13 | 47:03.38 | 3:23.15 | 211763 | 227002
14 | 50:26.53 | 5:15.15 | 227003 | 250642
15 | 55:41.68 | 3:33.66 | 250643 | 266683
16 | 59:15.59 | 3:35.02 | 266684 | 282810
17 | 62:50.61 | 4:47.62 | 282811 | 304397
18 | 67:38.48 | 3:53.01 | 304398 | 321873
19 | 71:31.49 | 3:34.09 | 321874 | 337932


Track 1

Filename F:\FLAC MUSIC\REGGAE\The Reggae Album\TRA - Disc - 01\01.Aswad - Don't Turn Around.wav

Peak level 67.7 %
Extraction speed 13.1 X
Track quality 99.8 %
Copy CRC 0D1DB1FC
Track not present in AccurateRip database
Copy OK

Track 2

Filename F:\FLAC MUSIC\REGGAE\The Reggae Album\TRA - Disc - 01\02.UB40 - Red Red Wine.wav

Peak level 62.5 %
Extraction speed 16.8 X
Track quality 100.0 %
Copy CRC 33A7A47F
Track not present in AccurateRip database
Copy OK

Track 3

Filename F:\FLAC MUSIC\REGGAE\The Reggae Album\TRA - Disc - 01\03.Gregory Isaacs - Night Nurse.wav

Peak level 89.0 %
Extraction speed 19.4 X
Track quality 100.0 %
Copy CRC D14E0285
Track not present in AccurateRip database
Copy OK

Track 4

Filename F:\FLAC MUSIC\REGGAE\The Reggae Album\TRA - Disc - 01\04.Ken Boothe - Everything I Own.wav

Peak level 50.1 %
Extraction speed 22.7 X
Track quality 100.0 %
Copy CRC 82BE28F3
Track not present in AccurateRip database
Copy OK

Track 5

Filename F:\FLAC MUSIC\REGGAE\The Reggae Album\TRA - Disc - 01\05.Chaka Demus And Pliers - Tease Me.wav

Peak level 62.3 %
Extraction speed 24.5 X
Track quality 100.0 %
Copy CRC ED6EE689
Track not present in AccurateRip database
Copy OK

Track 6

Filename F:\FLAC MUSIC\REGGAE\The Reggae Album\TRA - Disc - 01\06.Inner Circle - Sweat.wav

Peak level 63.0 %
Extraction speed 25.4 X
Track quality 100.0 %
Copy CRC 89129590
Track not present in AccurateRip database
Copy OK

Track 7

Filename F:\FLAC MUSIC\REGGAE\The Reggae Album\TRA - Disc - 01\07.Apache Indian - Boom Shack-A-Lak.wav

Peak level 62.3 %
Extraction speed 24.8 X
Track quality 100.0 %
Copy CRC 36A406B3
Track not present in AccurateRip database
Copy OK

Track 8

Filename F:\FLAC MUSIC\REGGAE\The Reggae Album\TRA - Disc - 01\08.Beenie Man Feat. Ms Thing - Dude.wav

Peak level 36.3 %
Extraction speed 23.3 X
Track quality 99.8 %
Copy CRC CEFA0DFB
Track not present in AccurateRip database
Copy OK

Track 9

Filename F:\FLAC MUSIC\REGGAE\The Reggae Album\TRA - Disc - 01\09.Grace Jones - My Jamaican Guy.wav

Peak level 84.0 %
Extraction speed 27.2 X
Track quality 100.0 %
Copy CRC CDC68D90
Track not present in AccurateRip database
Copy OK

Track 10

Filename F:\FLAC MUSIC\REGGAE\The Reggae Album\TRA - Disc - 01\10.Third World - Now That We're Found Love.wav

Peak level 100.0 %
Extraction speed 27.2 X
Track quality 100.0 %
Copy CRC C981E9E3
Track not present in AccurateRip database
Copy OK

Track 11

Filename F:\FLAC MUSIC\REGGAE\The Reggae Album\TRA - Disc - 01\11.Janet Kay - Silly Games.wav

Peak level 57.0 %
Extraction speed 30.1 X
Track quality 100.0 %
Copy CRC A2F48CC1
Track not present in AccurateRip database
Copy OK

Track 12

Filename F:\FLAC MUSIC\REGGAE\The Reggae Album\TRA - Disc - 01\12.Johnny Nash - Stir It Up.wav

Peak level 66.8 %
Extraction speed 29.0 X
Track quality 100.0 %
Copy CRC F95E881E
Track not present in AccurateRip database
Copy OK

Track 13

Filename F:\FLAC MUSIC\REGGAE\The Reggae Album\TRA - Disc - 01\13.The Melodians - Rivers Of Babylon.wav

Peak level 58.9 %
Extraction speed 28.4 X
Track quality 100.0 %
Copy CRC 7F190974
Track not present in AccurateRip database
Copy OK

Track 14

Filename F:\FLAC MUSIC\REGGAE\The Reggae Album\TRA - Disc - 01\14.Sly And Robbie Feat. Shinehead - Boops [Here To Go].wav

Peak level 65.6 %
Extraction speed 34.5 X
Track quality 100.0 %
Copy CRC BC7FA87D
Track not present in AccurateRip database
Copy OK

Track 15

Filename F:\FLAC MUSIC\REGGAE\The Reggae Album\TRA - Disc - 01\15.The Mighty Diamonds - Pass The Kouchie.wav

Peak level 54.3 %
Extraction speed 34.8 X
Track quality 100.0 %
Copy CRC CC66D8DE
Track not present in AccurateRip database
Copy OK

Track 16

Filename F:\FLAC MUSIC\REGGAE\The Reggae Album\TRA - Disc - 01\16.Ziggy Marley And The Melody Makers - Tomorrow People.wav

Peak level 76.1 %
Extraction speed 31.4 X
Track quality 100.0 %
Copy CRC CACA0A1F
Track not present in AccurateRip database
Copy OK

Track 17

Filename F:\FLAC MUSIC\REGGAE\The Reggae Album\TRA - Disc - 01\17.Max Romeo And The Upsetters - War Ina Babylon.wav

Peak level 88.1 %
Extraction speed 37.0 X
Track quality 100.0 %
Copy CRC 7876F11D
Track not present in AccurateRip database
Copy OK

Track 18

Filename F:\FLAC MUSIC\REGGAE\The Reggae Album\TRA - Disc - 01\18.Junior Murvin - Police And Thieves.wav

Peak level 56.2 %
Extraction speed 38.6 X
Track quality 100.0 %
Copy CRC 755CF888
Track not present in AccurateRip database
Copy OK

Track 19

Filename F:\FLAC MUSIC\REGGAE\The Reggae Album\TRA - Disc - 01\19.Damian Marley - Welcome To Jamrock.wav

Peak level 35.4 %
Extraction speed 33.5 X
Track quality 100.0 %
Copy CRC 8BC6200B
Track not present in AccurateRip database
Copy OK


None of the tracks are present in the AccurateRip database

No errors occurred

End of status report

–– CUETools DB Plugin V2.1.6

[CTDB TOCID: hfUsDEcYjRNZdvIjxHkEOpFtWPE-] found
Submit result: hfUsDEcYjRNZdvIjxHkEOpFtWPE- has been confirmed
Track | CTDB Status
1 | (6/6) Accurately ripped
2 | (6/6) Accurately ripped
3 | (6/6) Accurately ripped
4 | (6/6) Accurately ripped
5 | (6/6) Accurately ripped
6 | (6/6) Accurately ripped
7 | (6/6) Accurately ripped
8 | (6/6) Accurately ripped
9 | (6/6) Accurately ripped
10 | (6/6) Accurately ripped
11 | (6/6) Accurately ripped
12 | (6/6) Accurately ripped
13 | (6/6) Accurately ripped
14 | (6/6) Accurately ripped
15 | (6/6) Accurately ripped
16 | (6/6) Accurately ripped
17 | (6/6) Accurately ripped
18 | (6/6) Accurately ripped
19 | (6/6) Accurately ripped


Exact Audio Copy V1.1 from 23. June 2015

EAC extraction logfile from 25. October 2016, 16:33

Various Artist / The Reggae Album - Disc 02

Used drive : HL-DT-STDVDRAM GSA-E40N Adapter: 1 ID: 1

Read mode : Secure
Utilize accurate stream : Yes
Defeat audio cache : No
Make use of C2 pointers : Yes

Read offset correction : 667
Overread into Lead-In and Lead-Out : No
Fill up missing offset samples with silence : Yes
Delete leading and trailing silent blocks : No
Null samples used in CRC calculations : Yes
Used interface : Native Win32 interface for Win NT & 2000
Gap handling : Not detected, thus appended to previous track

Used output format : User Defined Encoder
Selected bitrate : 768 kBit/s
Quality : High
Add ID3 tag : No
Command line compressor : C:\Program Files (x86)\Exact Audio Copy\FLAC\FLAC.EXE
Additional command line options : -6 -V -T "ARTIST=%artist%" -T "TITLE=%title%" -T "ALBUM=%albumtitle%" -T "DATE=%year%" -T "TRACKNUMBER=%tracknr%" -T "GENRE=%genre%" -T "COMMENT=%comment%" -T "BAND=%albuminterpret%" -T "ALBUMARTIST=%albuminterpret%" -T "COMPOSER=%composer%" %haslyrics%–tag-from-file=LYRICS="%lyricsfile%"%haslyrics% -T "DISCNUMBER=%cdnumber%" -T "TOTALDISCS=%totalcds%" -T "TOTALTRACKS=%numtracks%" %hascover%–picture="%coverfile%"%hascover% %source% -o %dest%


TOC of the extracted CD

Track | Start | Length | Start sector | End sector
––––––––––––––––––––––––––––-
1 | 0:01.00 | 3:13.36 | 75 | 14585
2 | 3:14.36 | 2:28.68 | 14586 | 25753
3 | 5:43.29 | 2:42.64 | 25754 | 37967
4 | 8:26.18 | 3:21.11 | 37968 | 53053
5 | 11:47.29 | 2:17.28 | 53054 | 63356
6 | 14:04.57 | 3:03.44 | 63357 | 77125
7 | 17:08.26 | 3:17.57 | 77126 | 91957
8 | 20:26.08 | 3:50.37 | 91958 | 109244
9 | 24:16.45 | 3:01.46 | 109245 | 122865
10 | 27:18.16 | 3:27.02 | 122866 | 138392
11 | 30:45.18 | 4:02.70 | 138393 | 156612
12 | 34:48.13 | 3:23.63 | 156613 | 171900
13 | 38:12.01 | 2:34.56 | 171901 | 183506
14 | 40:46.57 | 3:40.46 | 183507 | 200052
15 | 44:27.28 | 2:32.52 | 200053 | 211504
16 | 47:00.05 | 3:03.68 | 211505 | 225297
17 | 50:03.73 | 3:32.64 | 225298 | 241261
18 | 53:36.62 | 3:59.71 | 241262 | 259257
19 | 57:36.58 | 4:20.52 | 259258 | 278809
20 | 61:57.35 | 3:28.48 | 278810 | 294457
21 | 65:26.08 | 4:27.02 | 294458 | 314484
22 | 69:53.10 | 3:29.24 | 314485 | 330183
23 | 73:22.34 | 4:11.37 | 330184 | 349045


Track 1

Filename F:\FLAC MUSIC\REGGAE\The Reggae Album\TRA - Disc - 02\01.Jimmy Cliff - Wonderful World Beautiful People.wav

Suspicious position 0:00:00

Peak level 72.6 %
Extraction speed 8.5 X
Track quality 99.5 %
Copy CRC 002EB9DF
Track not present in AccurateRip database
Copy finished

Track 2

Filename F:\FLAC MUSIC\REGGAE\The Reggae Album\TRA - Disc - 02\02.Desmond Dekker And The Aces - 007 [Shanty Town].wav

Peak level 51.4 %
Extraction speed 19.6 X
Track quality 100.0 %
Copy CRC 611A8F71
Track not present in AccurateRip database
Copy OK

Track 3

Filename F:\FLAC MUSIC\REGGAE\The Reggae Album\TRA - Disc - 02\03.The Paragons - The Tide Is High.wav

Peak level 68.6 %
Extraction speed 16.9 X
Track quality 99.8 %
Copy CRC BA969111
Track not present in AccurateRip database
Copy OK

Track 4

Filename F:\FLAC MUSIC\REGGAE\The Reggae Album\TRA - Disc - 02\04.Aswad - [You Don't Love Me] No No No.wav

Peak level 50.1 %
Extraction speed 21.6 X
Track quality 100.0 %
Copy CRC 7A90C424
Track not present in AccurateRip database
Copy OK

Track 5

Filename F:\FLAC MUSIC\REGGAE\The Reggae Album\TRA - Disc - 02\05.Nicky Thomas - Love Of The Common People.wav

Peak level 43.9 %
Extraction speed 22.3 X
Track quality 100.0 %
Copy CRC 8E839131
Track not present in AccurateRip database
Copy OK

Track 6

Filename F:\FLAC MUSIC\REGGAE\The Reggae Album\TRA - Disc - 02\06.Sophia George - Girlie Girlie.wav

Peak level 48.0 %
Extraction speed 24.0 X
Track quality 100.0 %
Copy CRC A09D93EE
Track not present in AccurateRip database
Copy OK

Track 7

Filename F:\FLAC MUSIC\REGGAE\The Reggae Album\TRA - Disc - 02\07.Toots And The Maytals - 54-46 Was My Number.wav

Peak level 54.6 %
Extraction speed 21.9 X
Track quality 100.0 %
Copy CRC F31C0E62
Track not present in AccurateRip database
Copy OK

Track 8

Filename F:\FLAC MUSIC\REGGAE\The Reggae Album\TRA - Disc - 02\08.Sheila Hylton - The Bed Is Too Big Without You.wav

Peak level 89.3 %
Extraction speed 26.2 X
Track quality 100.0 %
Copy CRC 74EC7D4B
Track not present in AccurateRip database
Copy OK

Track 9

Filename F:\FLAC MUSIC\REGGAE\The Reggae Album\TRA - Disc - 02\09.Eric Donaldson - Cherry Oh Baby.wav

Peak level 56.2 %
Extraction speed 22.1 X
Track quality 99.8 %
Copy CRC C60D685E
Track not present in AccurateRip database
Copy OK

Track 10

Filename F:\FLAC MUSIC\REGGAE\The Reggae Album\TRA - Disc - 02\10.Burning Spear - Marcus Garvey.wav

Peak level 63.0 %
Extraction speed 24.3 X
Track quality 100.0 %
Copy CRC 23F21657
Track not present in AccurateRip database
Copy OK

Track 11

Filename F:\FLAC MUSIC\REGGAE\The Reggae Album\TRA - Disc - 02\11.Peter Tosh - Bush Doctor.wav

Peak level 56.2 %
Extraction speed 28.5 X
Track quality 100.0 %
Copy CRC F04A522F
Track not present in AccurateRip database
Copy OK

Track 12

Filename F:\FLAC MUSIC\REGGAE\The Reggae Album\TRA - Disc - 02\12.U-Roy - Chalice In The Palace.wav

Peak level 55.3 %
Extraction speed 26.8 X
Track quality 100.0 %
Copy CRC 2AB1B1DF
Track not present in AccurateRip database
Copy OK

Track 13

Filename F:\FLAC MUSIC\REGGAE\The Reggae Album\TRA - Disc - 02\13.The Techniques - You Don't Care.wav

Peak level 54.8 %
Extraction speed 25.8 X
Track quality 100.0 %
Copy CRC 08EDD302
Track not present in AccurateRip database
Copy OK

Track 14

Filename F:\FLAC MUSIC\REGGAE\The Reggae Album\TRA - Disc - 02\14.The Abyssinians - Satta Amassa Gana.wav

Peak level 49.6 %
Extraction speed 32.0 X
Track quality 100.0 %
Copy CRC FF3A5239
Track not present in AccurateRip database
Copy OK

Track 15

Filename F:\FLAC MUSIC\REGGAE\The Reggae Album\TRA - Disc - 02\15.Dandy Livingstone - Rudy, A Message To You.wav

Peak level 52.3 %
Extraction speed 32.8 X
Track quality 100.0 %
Copy CRC 49F2CF0D
Track not present in AccurateRip database
Copy OK

Track 16

Filename F:\FLAC MUSIC\REGGAE\The Reggae Album\TRA - Disc - 02\16.Lee 'Scratch' Perry - I Am The Upsetter.wav

Peak level 56.0 %
Extraction speed 33.8 X
Track quality 100.0 %
Copy CRC A287BE8A
Track not present in AccurateRip database
Copy OK

Track 17

Filename F:\FLAC MUSIC\REGGAE\The Reggae Album\TRA - Disc - 02\17.Steel Pulse - Ku Klux Klan.wav

Peak level 63.0 %
Extraction speed 28.5 X
Track quality 99.9 %
Copy CRC D61C1C58
Track not present in AccurateRip database
Copy OK

Track 18

Filename F:\FLAC MUSIC\REGGAE\The Reggae Album\TRA - Disc - 02\18.Rico - Take Five.wav

Peak level 62.6 %
Extraction speed 28.4 X
Track quality 99.9 %
Copy CRC F4D5DA5B
Track not present in AccurateRip database
Copy OK

Track 19

Filename F:\FLAC MUSIC\REGGAE\The Reggae Album\TRA - Disc - 02\19.Linton Kwesi Johnson - Want Fi Goh Rave.wav

Peak level 51.8 %
Extraction speed 29.4 X
Track quality 99.9 %
Copy CRC CB457312
Track not present in AccurateRip database
Copy OK

Track 20

Filename F:\FLAC MUSIC\REGGAE\The Reggae Album\TRA - Disc - 02\20.Culture - Two Sevens Clash.wav

Peak level 52.4 %
Extraction speed 31.3 X
Track quality 100.0 %
Copy CRC BE5DFBB5
Track not present in AccurateRip database
Copy OK

Track 21

Filename F:\FLAC MUSIC\REGGAE\The Reggae Album\TRA - Disc - 02\21.Dennis Brown - Love Has Found It's Way.wav

Peak level 50.7 %
Extraction speed 31.3 X
Track quality 99.9 %
Copy CRC 899AA46C
Track not present in AccurateRip database
Copy OK

Track 22

Filename F:\FLAC MUSIC\REGGAE\The Reggae Album\TRA - Disc - 02\22.The Heptones - Book Of Rules.wav

Peak level 53.4 %
Extraction speed 32.2 X
Track quality 100.0 %
Copy CRC 576ED2B2
Track not present in AccurateRip database
Copy OK

Track 23

Filename F:\FLAC MUSIC\REGGAE\The Reggae Album\TRA - Disc - 02\23.Stylo G - Call Mi A Leader.wav

Peak level 31.5 %
Extraction speed 20.2 X
Track quality 100.0 %
Copy CRC 00066961
Track not present in AccurateRip database
Copy OK


None of the tracks are present in the AccurateRip database

There were errors

End of status report

–– CUETools DB Plugin V2.1.6

[CTDB TOCID: bNTqqckWaDnRhOs.5ZQVZnUTgb4-] found
Submit result: bNTqqckWaDnRhOs.5ZQVZnUTgb4- has been confirmed
Track | CTDB Status
1 | (6/6) Accurately ripped
2 | (6/6) Accurately ripped
3 | (6/6) Accurately ripped
4 | (6/6) Accurately ripped
5 | (6/6) Accurately ripped
6 | (6/6) Accurately ripped
7 | (6/6) Accurately ripped
8 | (6/6) Accurately ripped
9 | (6/6) Accurately ripped
10 | (6/6) Accurately ripped
11 | (6/6) Accurately ripped
12 | (6/6) Accurately ripped
13 | (6/6) Accurately ripped
14 | (6/6) Accurately ripped
15 | (6/6) Accurately ripped
16 | (6/6) Accurately ripped
17 | (6/6) Accurately ripped
18 | (6/6) Accurately ripped
19 | (6/6) Accurately ripped
20 | (6/6) Accurately ripped
21 | (6/6) Accurately ripped
22 | (6/6) Accurately ripped
23 | (6/6) Accurately ripped


Tracklist:
Disc - 01
01.Aswad - Don't Turn Around - 00:03:38
02.UB40 - Red Red Wine - 00:02:59
03.Gregory Isaacs - Night Nurse - 00:04:04
04.Ken Boothe - Everything I Own - 00:03:44
05.Chaka Demus And Pliers - Tease Me - 00:04:05
06.Inner Circle - Sweat - 00:03:45
07.Apache Indian - Boom Shack-A-Lak - 00:04:30
08.Beenie Man Feat. Ms Thing - Dude - 00:03:31
09.Grace Jones - My Jamaican Guy - 00:06:00
10.Third World - Now That We're Found Love - 00:03:45
11.Janet Kay - Silly Games - 00:03:54
12.Johnny Nash - Stir It Up - 00:03:03
13.The Melodians - Rivers Of Babylon - 00:03:23
14.Sly And Robbie Feat. Shinehead - Boops [Here To Go] - 00:05:15
15.The Mighty Diamonds - Pass The Kouchie - 00:03:33
16.Ziggy Marley And The Melody Makers - Tomorrow People - 00:03:35
17.Max Romeo And The Upsetters - War Ina Babylon - 00:04:47
18.Junior Murvin - Police And Thieves - 00:03:53
19.Damian Marley - Welcome To Jamrock - 00:03:34

Disc - 02
01.Jimmy Cliff - Wonderful World Beautiful People - 00:03:13
02.Desmond Dekker And The Aces - 007 [Shanty Town] - 00:02:28
03.The Paragons - The Tide Is High - 00:02:42
04.Aswad - [You Don't Love Me] No No No - 00:03:21
05.Nicky Thomas - Love Of The Common People - 00:02:17
06.Sophia George - Girlie Girlie - 00:03:03
07.Toots And The Maytals - 54-46 Was My Number - 00:03:17
08.Sheila Hylton - The Bed Is Too Big Without You - 00:03:50
09.Eric Donaldson - Cherry Oh Baby - 00:03:01
10.Burning Spear - Marcus Garvey - 00:03:27
11.Peter Tosh - Bush Doctor - 00:04:02
12.U-Roy - Chalice In The Palace - 00:03:23
13.The Techniques - You Don't Care - 00:02:34
14.The Abyssinians - Satta Amassa Gana - 00:03:40
15.Dandy Livingstone - Rudy, A Message To You - 00:02:32
16.Lee 'Scratch' Perry - I Am The Upsetter - 00:03:03
17.Steel Pulse - Ku Klux Klan - 00:03:32
18.Rico - Take Five - 00:03:59
19.Linton Kwesi Johnson - Want Fi Goh Rave - 00:04:20
20.Culture - Two Sevens Clash - 00:03:28
21.Dennis Brown - Love Has Found It's Way - 00:04:27
22.The Heptones - Book Of Rules - 00:03:29
23.Stylo G - Call Mi A Leader - 00:04:11